osu file format v14

[General]
AudioFilename: audio.mp3
AudioLeadIn: 0
PreviewTime: 30817
Countdown: 0
SampleSet: Soft
StackLeniency: 0.7
Mode: 0
LetterboxInBreaks: 0
WidescreenStoryboard: 1

[Editor]
Bookmarks: 11692,21292,30892,40492,50085,59685,69292,78892,88492,99009,108609,118209,127809
DistanceSpacing: 0.7
BeatDivisor: 4
GridSize: 32
TimelineZoom: 2.679999

[Metadata]
Title:EVERYBODY DO THE FLOP
TitleUnicode:EVERYBODY DO THE FLOP
Artist:LilDeuceDeuce
ArtistUnicode:LilDeuceDeuce
Creator:wafer
Version:tilda's Insane
Source:asdfmovie
Tags:english rock novelty meme mine turtle tomska goopert kami no kotoba todd bryanton akitoshi kowari tilda dragonicz john mapping pepekcz
BeatmapID:3977280
BeatmapSetID:1920362

[Difficulty]
HPDrainRate:5
CircleSize:3.5
OverallDifficulty:8.3
ApproachRate:9
SliderMultiplier:1.6
SliderTickRate:1

[Events]
//Background and Video events
0,0,"do the flop guyu.png",0,0
//Break Periods
//Storyboard Layer 0 (Background)
//Storyboard Layer 1 (Fail)
//Storyboard Layer 2 (Pass)
//Storyboard Layer 3 (Foreground)
//Storyboard Layer 4 (Overlay)
//Storyboard Sound Samples

[TimingPoints]
892,300,4,2,1,50,1,0
892,-100,4,2,1,50,0,0
1792,-100,4,2,3,50,0,0
2092,300,4,2,1,70,1,0
2092,-83.3333333333333,4,2,1,70,0,0
4492,-100,4,2,1,70,0,0
6892,-83.3333333333333,4,2,1,70,0,0
10792,-125,4,2,1,70,0,0
11392,-100,4,2,3,70,0,0
11692,-125,4,2,1,60,0,0
16492,-100,4,2,1,60,0,0
17392,-166.666666666667,4,2,1,60,0,0
17692,-125,4,2,1,60,0,0
18892,-83.3333333333333,4,2,1,70,0,0
20692,-166.666666666667,4,2,1,70,0,0
20917,-166.666666666667,4,2,1,70,0,0
20992,-100,4,2,3,70,0,0
21292,-125,4,2,1,60,0,0
23317,-125,4,2,1,5,0,0
23392,-125,4,2,1,60,0,0
25717,-125,4,2,1,5,0,0
25792,-125,4,2,1,60,0,0
27517,-125,4,2,1,5,0,0
27592,-125,4,2,1,60,0,0
28492,-83.3333333333333,4,2,1,70,0,0
30592,-100,4,2,3,70,0,0
30892,-71.4285714285714,4,2,1,80,0,0
31117,-71.4285714285714,4,2,1,5,0,0
31192,-71.4285714285714,4,2,1,80,0,0
32092,-83.3333333333333,4,2,1,80,0,0
32317,-83.3333333333333,4,2,1,5,0,0
32392,-83.3333333333333,4,2,1,80,0,0
33292,-100,4,2,1,80,0,0
34492,-83.3333333333333,4,2,1,80,0,0
35692,-71.4285714285714,4,2,1,80,0,0
35917,-71.4285714285714,4,2,1,5,0,0
35992,-71.4285714285714,4,2,1,80,0,0
37117,-71.4285714285714,4,2,1,5,0,0
37192,-71.4285714285714,4,2,1,80,0,0
38092,-83.3333333333333,4,2,1,80,0,0
40192,-100,4,2,3,80,0,0
40492,-125,4,2,1,60,0,0
40504,300,4,2,1,60,1,0
40504,-125,4,2,1,60,0,0
41085,-125,4,2,1,60,0,0
47685,-83.3333333333333,4,2,1,60,0,0
48285,-83.3333333333333,4,2,1,70,0,0
49485,-166.666666666667,4,2,1,70,0,0
49710,-166.666666666667,4,2,1,70,0,0
49785,-100,4,2,3,70,0,0
50085,-100,4,2,1,60,0,0
54135,-1000,4,2,1,60,0,0
54510,-1000,4,2,1,60,0,0
54529,-1000,4,2,1,5,0,0
54585,-55.5555555555556,4,2,1,60,0,0
54885,-125,4,2,1,60,0,0
56910,-125,4,2,1,60,0,0
56929,-125,4,2,1,5,0,0
56985,-125,4,2,1,60,0,0
57285,-100,4,2,1,70,0,0
59385,-100,4,2,3,70,0,0
59685,-71.4285714285714,4,2,1,80,0,0
59910,-71.4285714285714,4,2,1,80,0,0
59928,-71.4285714285714,4,2,1,5,0,0
59985,-71.4285714285714,4,2,1,80,0,0
60904,-83.3333333333333,4,2,1,80,0,0
61110,-83.3333333333333,4,2,1,80,0,0
61128,-83.3333333333333,4,2,1,5,0,0
61185,-83.3333333333333,4,2,1,80,0,0
62085,-100,4,2,1,80,0,0
63285,-83.3333333333333,4,2,1,80,0,0
64485,-71.4285714285714,4,2,1,80,0,0
64710,-71.4285714285714,4,2,1,80,0,0
64728,-71.4285714285714,4,2,1,5,0,0
64785,-71.4285714285714,4,2,1,80,0,0
65704,-83.3333333333333,4,2,1,80,0,0
65910,-83.3333333333333,4,2,1,80,0,0
65928,-83.3333333333333,4,2,1,5,0,0
65985,-83.3333333333333,4,2,1,80,0,0
66892,300,4,2,1,80,1,0
66892,-166.666666666667,4,2,1,80,0,0
67192,-125,4,2,1,80,0,0
67492,-100,4,2,1,80,0,0
67792,-83.3333333333333,4,2,1,80,0,0
68692,-200,4,2,1,80,0,0
68992,-125,4,2,1,60,0,0
69292,300,4,2,1,75,1,0
69292,-66.6666666666667,4,2,1,75,0,0
69817,-66.6666666666667,4,2,1,5,0,0
69892,-66.6666666666667,4,2,1,75,0,0
72217,-66.6666666666667,4,2,1,5,0,0
72292,-66.6666666666667,4,2,1,75,0,0
72592,-83.3333333333333,4,2,1,75,0,0
74092,-66.6666666666667,4,2,1,75,0,0
74917,-66.6666666666667,4,2,1,5,0,0
74992,-66.6666666666667,4,2,1,75,0,0
76492,-166.666666666667,4,2,1,75,0,0
76792,-125,4,2,1,75,0,0
77092,-100,4,2,1,75,0,0
77392,-83.3333333333333,4,2,1,75,0,0
77692,-71.4285714285714,4,2,1,75,0,0
79792,-100,4,2,1,70,0,0
86092,-83.3333333333333,4,2,1,70,0,0
88492,-71.4285714285714,4,2,1,80,0,0
92317,-71.4285714285714,4,2,1,5,0,0
92392,-71.4285714285714,4,2,1,80,0,0
95692,-166.666666666667,4,2,1,85,0,0
95992,-125,4,2,1,85,0,0
96292,-100,4,2,1,85,0,0
96592,-83.3333333333333,4,2,1,85,0,0
96892,-71.4285714285714,4,2,1,85,0,0
98692,-100,4,2,3,85,0,0
99009,300,4,2,1,60,1,0
99009,-125,4,2,1,60,0,0
106209,-83.3333333333333,4,2,1,70,0,0
108009,-166.666666666667,4,2,1,70,0,0
108234,-166.666666666667,4,2,1,70,0,0
108309,-100,4,2,3,70,0,0
108609,-125,4,2,1,60,0,0
115809,-100,4,2,1,70,0,0
117609,-250,4,2,1,70,0,0
117834,-250,4,2,1,70,0,0
117909,-62.5,4,2,3,70,0,0
118209,-71.4285714285714,4,2,1,80,0,0
118434,-71.4285714285714,4,2,1,5,0,0
118509,-71.4285714285714,4,2,1,80,0,0
119634,-71.4285714285714,4,2,1,5,0,0
119709,-71.4285714285714,4,2,1,80,0,0
120609,-100,4,2,1,80,0,0
121809,-83.3333333333333,4,2,1,80,0,0
123009,-71.4285714285714,4,2,1,80,0,0
123234,-71.4285714285714,4,2,1,5,0,0
123309,-71.4285714285714,4,2,1,80,0,0
124434,-71.4285714285714,4,2,1,5,0,0
124509,-71.4285714285714,4,2,1,80,0,0
125409,-83.3333333333333,4,2,1,80,0,0
126609,295.566502463054,4,2,1,80,1,0
126609,-83.3333333333333,4,2,1,80,0,0
127200,-125,4,2,1,80,0,0
127791,300,4,2,1,80,1,0
127791,-66.6666666666667,4,2,1,85,0,0
128991,-83.3333333333333,4,2,1,85,0,0
130191,-66.6666666666667,4,2,1,85,0,0
131391,-83.3333333333333,4,2,1,85,0,0
132591,-66.6666666666667,4,2,1,85,0,0
133791,-83.3333333333333,4,2,1,85,0,0
134991,-250,4,2,1,85,0,0
135291,-166.666666666667,4,2,1,85,0,0
135583,-166.666666666667,4,2,1,90,0,0
135591,-125,4,2,1,90,0,0
135891,-100,4,2,1,90,0,0
136183,-100,4,2,1,100,0,0
136191,-83.3333333333333,4,2,1,100,0,0
136491,-71.4285714285714,4,2,1,100,0,0
136783,-71.4285714285714,4,2,1,60,0,0
136791,-100,4,2,1,60,0,0
137391,-250,4,2,1,60,0,0
138583,-250,4,2,2,50,0,0
138591,-250,4,2,2,50,0,0
139483,-250,4,2,1,40,0,0
139491,-250,4,2,1,40,0,0
140683,-250,4,2,2,30,0,0
140691,-250,4,2,2,30,0,0
141883,-250,4,2,2,20,0,0
141891,-250,4,2,2,20,0,0
142483,-250,4,2,2,10,0,0
142491,-250,4,2,2,10,0,0
142783,-250,4,2,1,5,0,0
142791,-250,4,2,1,5,0,0

[Colours]
Combo1 : 136,184,198
Combo2 : 184,184,220
Combo3 : 154,188,245
Combo4 : 174,140,189

[HitObjects]
94,275,892,5,8,0:0:0:0:
340,73,1792,2,0,L|324:15,1,40,8|0,3:2|0:0,0:0:0:0:
158,56,2092,6,0,B|208:50|262:98|207:124|269:174|332:167,1,191.999994140625,4|8,3:2|0:2,0:0:0:0:
506,236,2692,5,8,0:0:0:0:
428,124,2842,1,8,0:0:0:0:
328,270,2992,2,0,P|278:240|225:223,1,95.9999970703126,8|0,0:0|3:0,0:0:0:0:
78,268,3292,6,0,P|134:247|132:116,1,191.999994140625,4|8,3:2|0:2,0:0:0:0:
13,206,3892,5,8,0:0:0:0:
102,303,4042,1,8,0:0:0:0:
244,228,4192,2,0,P|289:251|338:294,1,95.9999970703126,8|0,0:0|3:0,0:0:0:0:
510,331,4492,6,0,P|492:290|511:160,1,160,12|0,0:0|3:0,0:0:0:0:
373,206,4942,2,0,P|377:161|456:60,1,160,12|0,0:0|3:0,0:0:0:0:
313,10,5392,2,0,P|280:36|218:54,1,80,8|0,0:2|3:0,0:0:0:0:
10,170,5692,5,14,0:0:0:0:
10,170,5842,1,2,3:2:0:0:
68,50,5992,1,2,3:2:0:0:
192,234,6142,5,10,0:0:0:0:
192,234,6292,1,2,3:2:0:0:
134,114,6442,1,2,3:2:0:0:
35,199,6592,2,0,L|15:294,1,80,10|0,0:0|3:0,0:0:0:0:
206,372,6892,6,0,P|194:270|171:168,1,191.999994140625,4|8,3:2|0:2,0:0:0:0:
399,45,7492,5,8,0:0:0:0:
274,26,7642,1,8,0:0:0:0:
390,154,7792,2,0,P|447:162|500:186,1,95.9999970703126,8|0,0:0|3:0,0:0:0:0:
506,291,8092,6,0,P|451:257|362:362,1,191.999994140625,4|8,3:2|0:2,0:0:0:0:
56,202,8692,5,8,0:0:0:0:
187,238,8842,1,8,0:0:0:0:
139,78,8992,2,0,P|199:67|254:47,1,95.9999970703126,8|0,0:0|3:0,0:0:0:0:
260,187,9292,5,12,0:0:0:0:
260,187,9442,1,0,3:0:0:0:
125,275,9592,1,0,3:0:0:0:
47,105,9742,5,8,0:0:0:0:
47,105,9892,1,0,3:0:0:0:
170,204,10042,1,0,3:0:0:0:
20,301,10192,6,0,L|50:182,1,95.9999970703126,8|0,0:0|3:0,0:0:0:0:
43,208,10492,1,0,3:0:0:0:
163,381,10642,1,8,0:0:0:0:
163,381,10717,1,8,0:0:0:0:
163,381,10792,6,0,P|203:352|244:344,1,64,0|0,3:0|3:0,0:0:0:0:
260,347,11017,1,0,3:0:0:0:
303,367,11092,1,8,3:2:0:0:
503,254,11392,2,0,P|488:253|453:234,1,40,8|0,0:0|0:0,0:0:0:0:
322,268,11692,6,0,P|348:219|367:139,1,128,6|10,3:2|0:0,0:0:0:0:
365,149,12142,1,8,0:0:0:0:
282,73,12292,2,0,P|328:35|399:31,1,128,2|10,0:2|0:0,0:0:0:0:
251,191,12892,6,0,B|181:163|222:145|140:112,1,128,2|10,3:2|0:0,0:0:0:0:
149,116,13342,1,10,0:0:0:0:
46,154,13492,2,0,P|36:204|11:289,1,128,2|10,0:0|0:2,0:0:0:0:
79,358,13942,1,0,3:0:0:0:
198,289,14092,6,0,P|166:278|131:258,1,64,2|0,3:2|0:0,0:0:0:0:
233,172,14392,2,0,P|261:156|291:146,1,64,10|8,0:0|0:0,0:0:0:0:
386,246,14692,2,0,P|399:291|343:364,1,128,2|8,0:0|0:0,0:0:0:0:
285,268,15142,1,0,3:0:0:0:
406,165,15292,6,0,B|482:193|441:233|515:258,1,128,2|8,3:2|0:0,0:0:0:0:
496,250,15742,1,10,0:0:0:0:
397,157,15892,2,0,P|387:115|345:30,1,128,2|8,0:0|0:0,0:0:0:0:
500,350,16492,5,8,3:2:0:0:
500,350,17242,5,0,3:0:0:0:
432,269,17392,2,0,P|403:245|374:235,1,47.9999985351563,10|0,0:0|3:0,0:0:0:0:
200,247,17692,6,0,P|241:234|326:189,1,128,2|8,3:2|0:0,0:0:0:0:
316,195,18142,1,8,0:0:0:0:
390,113,18292,2,0,P|355:102|313:74,1,64,2|0,0:0|3:0,0:0:0:0:
219,38,18592,2,0,P|250:31|279:19,1,64,10|0,0:0|0:0,0:0:0:0:
103,261,18892,6,0,P|153:251|168:117,1,191.999994140625,12|2,0:0|3:2,0:0:0:0:
0,296,19342,2,0,P|55:343|178:337,1,191.999994140625,8|0,0:0|3:0,0:0:0:0:
107,177,19792,2,0,P|79:137|26:121,1,95.9999970703126,8|0,0:0|3:0,0:0:0:0:
180,363,20092,5,6,3:2:0:0:
290,243,20242,1,8,0:0:0:0:
290,243,20317,1,8,0:0:0:0:
290,243,20392,2,0,P|251:214|247:144,1,95.9999970703126,8|0,0:0|3:0,0:0:0:0:
365,19,20692,2,0,P|344:51|333:94,1,71.9999978027344,10|0,0:0|0:0,0:0:0:0:
367,110,20992,6,0,P|384:131|400:173,1,40,8|0,0:0|0:0,0:0:0:0:
510,267,21292,6,0,B|444:291|477:318|391:348,1,128,6|10,3:2|0:0,0:0:0:0:
408,341,21742,1,8,0:0:0:0:
323,289,21892,2,0,P|331:258|337:226,1,64,2|0,0:2|0:0,0:0:0:0:
242,351,22192,2,0,P|230:310|211:272,1,64,10|0,0:0|3:2,0:0:0:0:
3,240,22492,6,0,B|39:245|68:223|68:223|104:217|141:247,1,128,2|10,3:2|0:0,0:0:0:0:
124,235,22942,1,10,0:0:0:0:
20,150,23092,2,0,P|60:129|104:68,1,96,2|0,0:0|0:0,0:0:0:0:
108,50,23392,2,0,P|152:61|180:97,1,64,8|0,0:0|3:0,0:0:0:0:
285,198,23692,5,2,3:2:0:0:
370,151,23842,1,0,0:0:0:0:
335,50,23992,2,0,L|398:27,1,64,10|8,0:0|0:0,0:0:0:0:
283,149,24292,2,0,L|253:287,1,128,2|8,0:2|0:0,0:0:0:0:
122,366,24892,5,2,3:2:0:0:
122,366,25042,1,2,0:0:0:0:
141,257,25192,2,0,L|158:177,1,64,10|10,0:0|0:0,0:0:0:0:
260,120,25492,2,0,B|310:105|304:154|375:136,1,96,2|0,0:0|0:0,0:0:0:0:
387,108,25792,2,0,L|370:32,1,64,8|2,0:0|3:2,0:0:0:0:
497,209,26092,5,8,3:2:0:0:
497,209,26392,2,0,P|509:242|516:271,1,64,10|8,0:0|0:0,0:0:0:0:
379,363,26692,1,2,0:0:0:0:
379,363,26842,1,0,3:0:0:0:
334,234,26992,2,0,P|383:248|411:265,1,64,10|0,0:0|3:0,0:0:0:0:
225,323,27292,6,0,P|216:276|180:211,1,96,2|0,3:2|0:0,0:0:0:0:
171,198,27592,1,8,0:0:0:0:
41,256,27742,1,8,0:0:0:0:
75,117,27892,2,0,P|42:103|3:79,1,64,2|2,0:0|3:2,0:0:0:0:
130,289,28192,1,10,0:0:0:0:
130,289,28342,1,0,3:0:0:0:
267,150,28492,6,0,P|305:92|441:118,1,191.999994140625,12|2,0:0|3:2,0:0:0:0:
508,245,28942,2,0,P|401:227|355:119,1,191.999994140625,8|0,0:0|3:2,0:0:0:0:
224,15,29392,2,0,P|195:69|151:117,1,95.9999970703126,8|0,0:0|3:0,0:0:0:0:
306,287,29692,5,6,3:2:0:0:
478,197,29842,2,0,L|466:267,1,47.9999985351563,8|8,0:0|0:0,0:0:0:0:
442,376,29992,1,8,0:0:0:0:
311,190,30142,1,0,3:0:0:0:
159,361,30292,1,10,0:0:0:0:
159,361,30592,6,0,L|149:304,1,40,8|0,0:0|0:0,0:0:0:0:
3,20,30892,6,0,B|101:52|47:107|154:141,1,167.999994873047,14|0,0:2|0:0,0:0:0:0:
199,99,31192,2,0,P|243:115|315:175,1,111.999996582031,10|0,0:2|3:0,0:0:0:0:
128,239,31492,1,10,0:0:0:0:
33,72,31642,1,10,0:0:0:0:
142,245,31792,2,0,P|152:316|152:384,1,111.999996582031,10|0,0:0|3:0,0:0:0:0:
264,221,32092,6,0,B|341:204|305:159|392:147,1,143.999995605469,14|0,0:2|0:0,0:0:0:0:
463,164,32392,2,0,P|479:210|478:260,1,95.9999970703126,10|0,0:2|3:0,0:0:0:0:
347,360,32692,1,10,0:0:0:0:
270,248,32842,1,10,0:0:0:0:
341,376,32992,2,0,P|388:357|440:350,1,95.9999970703126,10|0,0:0|3:0,3:0:0:0:
195,314,33292,6,0,P|176:258|128:162,1,160,10|2,0:0|3:2,0:0:0:0:
318,187,33742,2,0,P|337:131|388:31,1,160,8|2,0:0|3:2,0:0:0:0:
179,318,34192,2,0,P|160:262|135:217,1,80,10|0,0:0|3:0,3:0:0:0:
0,124,34492,5,14,0:0:0:0:
0,124,34642,2,0,P|17:171|70:196,1,95.9999970703126,2|2,3:2|3:2,0:0:0:0:
241,35,34942,1,10,0:0:0:0:
241,35,35092,2,0,P|191:26|143:59,1,95.9999970703126,2|2,3:2|3:2,0:0:0:0:
232,222,35392,5,10,0:0:0:0:
315,121,35542,1,0,3:0:0:0:
138,184,35692,6,0,P|138:271|212:348,1,167.999994873047,14|0,0:2|0:0,0:0:0:0:
275,357,35992,2,0,P|270:306|222:249,1,111.999996582031,10|0,0:2|3:0,0:0:0:0:
420,201,36292,1,10,0:0:0:0:
308,85,36442,1,10,0:0:0:0:
444,210,36592,2,0,P|478:263|527:309,1,111.999996582031,10|0,0:0|3:0,0:0:0:0:
302,355,36892,6,0,P|246:374|131:283,1,167.999994873047,14|0,0:2|0:0,0:0:0:0:
133,247,37192,2,0,P|165:242|241:304,1,111.999996582031,10|0,0:2|3:0,0:0:0:0:
18,197,37492,1,10,0:0:0:0:
117,95,37642,1,10,0:0:0:0:
4,210,37792,2,0,P|21:274|29:348,1,111.999996582031,10|0,0:0|3:0,3:0:0:0:
184,183,38092,5,10,0:0:0:0:
290,98,38242,2,0,P|244:65|180:45,1,95.9999970703126,2|2,3:2|3:2,0:0:0:0:
181,189,38542,1,10,0:0:0:0:
313,279,38692,2,0,P|386:268|481:194,1,191.999994140625,2|10,3:2|0:0,0:0:0:0:
478,198,39142,1,0,3:2:0:0:
372,34,39292,5,2,3:2:0:0:
195,170,39442,1,8,0:0:0:0:
189,185,39517,1,8,0:0:0:0:
182,201,39592,2,0,P|135:209|80:243,1,95.9999970703126,8|0,0:0|3:0,0:0:0:0:
210,369,39892,5,8,3:2:0:0:
0,115,40192,2,0,L|38:104,1,40,8|0,0:0|0:0,0:0:0:0:
341,189,40504,6,0,B|346:259|383:229|383:313,1,128,6|10,3:2|0:0,0:0:0:0:
383,306,40954,1,8,0:0:0:0:
431,187,41104,2,0,P|437:140|513:103,1,128,2|10,0:2|0:0,0:0:0:0:
307,14,41704,6,0,L|176:45,1,128,2|10,3:2|0:0,0:0:0:0:
182,43,42154,1,8,0:0:0:0:
83,75,42304,2,0,B|79:105|106:129|106:129|154:147|160:197,1,128,2|10,0:0|0:2,0:0:0:0:
154,173,42754,1,0,3:0:0:0:
0,270,42904,6,0,P|43:279|73:208,1,128,2|10,3:2|0:0,0:0:0:0:
75,213,43354,1,8,0:0:0:0:
177,307,43504,2,0,P|199:353|210:391,1,64,2|0,0:0|3:0,0:0:0:0:
300,240,43804,2,0,P|262:225|221:207,1,64,8|0,0:0|3:0,0:0:0:0:
406,366,44104,6,0,P|368:351|259:320,1,128,2|8,3:2|0:0,0:0:0:0:
284,325,44554,1,10,0:0:0:0:
416,270,44704,2,0,P|463:292|495:314,1,64,2|2,0:0|3:2,0:0:0:0:
439,172,45004,2,0,P|400:161|366:144,1,64,8|2,0:0|0:0,0:0:0:0:
290,12,45304,5,10,3:2:0:0:
290,12,45604,2,0,P|302:40|309:92,1,64,10|8,0:0|0:0,0:0:0:0:
202,144,45904,2,0,P|214:116|221:64,1,64,2|0,0:0|3:0,0:0:0:0:
114,115,46204,2,0,P|90:136|63:153,1,64,8|0,0:0|3:0,0:0:0:0:
0,271,46504,6,0,B|36:251|70:271|70:271|85:306|124:319,1,128,2|8,3:2|0:0,0:0:0:0:
105,310,46954,1,8,0:0:0:0:
203,250,47104,2,0,P|225:309|240:371,1,128,2|10,0:2|0:0,0:0:0:0:
507,181,47704,6,0,P|451:207|459:95,1,191.999994140625,12|2,0:0|3:2,0:0:0:0:
457,296,48154,2,0,P|396:282|313:178,1,191.999994140625,8|0,0:0|3:0,0:0:0:0:
489,45,48604,2,0,P|460:83|420:109,1,95.9999970703126,10|0,0:0|3:0,0:0:0:0:
217,28,48904,5,6,3:2:0:0:
339,190,49054,1,8,0:0:0:0:
339,190,49129,1,8,0:0:0:0:
339,190,49204,2,0,P|375:246|381:308,1,95.9999970703126,8|0,0:0|3:0,0:0:0:0:
212,377,49504,2,0,P|241:344|261:298,1,71.9999978027344,10|0,0:0|0:0,0:0:0:0:
235,290,49804,6,0,P|230:263|216:231,1,40,8|0,0:0|0:0,0:0:0:0:
13,60,50104,6,0,B|97:82|56:138|141:166,1,160,6|10,3:2|0:0,0:0:0:0:
129,161,50554,1,8,0:0:0:0:
256,100,50704,2,0,P|216:81|171:39,1,80,2|0,0:2|0:0,0:0:0:0:
53,185,51004,2,0,P|98:168|162:158,1,80,10|0,0:2|3:2,0:0:0:0:
260,15,51304,6,0,L|297:198,1,160,2|10,1:2|0:0,0:0:0:0:
291,171,51754,1,10,0:0:0:0:
404,248,51904,2,0,L|429:167,1,80,2|0,0:0|0:0,0:0:0:0:
269,98,52204,2,0,L|285:183,1,80,8|0,0:0|3:0,0:0:0:0:
225,298,52504,6,0,B|185:279|144:309|144:309|126:346|77:362,1,160,2|10,1:2|0:0,0:0:0:0:
90,357,52954,1,8,0:0:0:0:
245,313,53104,2,0,P|287:298|334:270,1,80,2|0,0:0|3:0,0:0:0:0:
432,208,53404,1,10,0:0:0:0:
337,165,53554,1,2,3:2:0:0:
442,356,53704,5,2,3:2:0:0:
442,356,54154,6,0,L|447:335,1,20
490,267,54604,6,0,B|482:253|482:253|488:257|488:257|481:246|481:246|488:251|488:251|481:240|481:240|487:243|487:243|480:233|480:233|486:235|486:235|475:224|475:224|484:229|484:229|477:217|477:217|485:222|485:222|473:206|473:206,1,143.999995605469,12|0,0:0|0:0,0:0:0:0:
453,79,54904,5,8,3:2:0:0:
453,79,55204,2,0,P|408:66|375:43,1,64,10|8,0:0|0:0,0:0:0:0:
317,134,55504,2,0,P|289:149|258:160,1,64,2|0,0:0|3:0,0:0:0:0:
179,262,55804,1,10,0:0:0:0:
179,262,55954,1,0,3:0:0:0:
20,188,56104,6,0,P|56:173|70:71,1,128,2|8,3:2|0:0,0:0:0:0:
81,93,56554,1,8,0:0:0:0:
197,179,56704,2,0,P|232:210|261:273,1,96,2|0,0:0|0:0,0:0:0:0:
240,284,57004,2,0,P|216:329|195:348,1,64,10|0,0:0|3:0,0:0:0:0:
512,221,57304,5,12,0:0:0:0:
374,307,57454,1,0,3:0:0:0:
374,307,57604,1,2,3:2:0:0:
283,112,57754,5,8,0:0:0:0:
416,206,57904,1,2,3:2:0:0:
416,206,58054,1,0,3:2:0:0:
261,100,58204,2,0,L|301:19,1,80,10|0,0:0|3:0,0:0:0:0:
209,217,58504,5,6,3:2:0:0:
5,125,58654,1,8,0:0:0:0:
23,119,58729,1,8,0:0:0:0:
40,113,58804,2,0,L|72:199,1,80,8|0,0:0|3:0,0:0:0:0:
134,369,59104,1,10,0:0:0:0:
134,369,59404,6,0,L|88:358,1,40,8|0,0:0|0:0,0:0:0:0:
509,180,59704,6,0,L|325:148,1,167.999994873047,14|0,0:2|0:0,0:0:0:0:
272,93,60004,2,0,B|298:83|307:49|307:49|334:78|388:65,1,111.999996582031,10|0,0:2|3:0,0:0:0:0:
416,252,60304,1,10,0:0:0:0:
508,83,60454,1,10,0:0:0:0:
408,266,60604,2,0,B|428:363|428:363|444:378,1,111.999996582031,10|0,0:2|3:0,0:0:0:0:
250,214,60904,6,0,L|88:187,1,143.999995605469,14|0,0:2|0:0,0:0:0:0:
9,230,61204,2,0,B|29:243|35:269|35:269|59:253|104:275,1,95.9999970703126,10|0,0:2|3:0,0:0:0:0:
139,123,61504,1,10,0:0:0:0:
12,44,61654,1,10,0:0:0:0:
155,122,61804,2,0,B|174:119|174:119|178:113|178:113|256:96,1,95.9999970703126,10|0,0:0|3:0,3:0:0:0:
496,147,62104,6,0,P|443:133|347:52,1,160,10|2,0:0|3:2,0:0:0:0:
240,276,62554,2,0,P|300:224|375:199,1,160,8|2,0:0|3:2,0:0:0:0:
501,130,63004,2,0,P|473:122|422:80,1,80,10|0,0:0|3:0,3:0:0:0:
490,260,63304,5,14,0:0:0:0:
490,260,63454,2,0,P|513:315|513:363,1,95.9999970703126,2|2,3:2|3:2,0:0:0:0:
323,222,63754,5,10,0:0:0:0:
323,222,63904,2,0,P|368:182|413:167,1,95.9999970703126,2|2,3:2|3:2,0:0:0:0:
298,373,64204,5,10,0:0:0:0:
207,268,64354,1,0,3:0:0:0:
18,361,64504,6,0,P|73:338|68:203,1,167.999994873047,14|0,0:2|0:0,0:0:0:0:
138,167,64804,2,0,B|167:151|176:125|176:125|170:158|198:184,1,111.999996582031,10|0,0:2|3:0,0:0:0:0:
292,37,65104,1,10,0:0:0:0:
366,221,65254,1,10,0:0:0:0:
277,30,65404,2,0,P|210:44|133:38,1,111.999996582031,10|0,0:0|3:0,0:0:0:0:
469,46,65704,6,0,P|421:67|425:185,1,143.999995605469,14|0,0:2|0:0,0:0:0:0:
352,217,66004,2,0,B|330:227|319:249|319:249|323:224|299:202,1,95.9999970703126,10|0,0:2|3:0,0:0:0:0:
221,303,66304,1,10,0:0:0:0:
360,377,66454,1,10,0:0:0:0:
202,313,66604,2,0,P|189:254|161:199,1,95.9999970703126,10|0,0:0|3:0,3:0:0:0:
6,197,66892,5,10,0:0:0:0:
106,106,67042,2,0,P|120:73|134:50,1,47.9999985351563,2|2,3:2|3:2,0:0:0:0:
8,181,67342,1,10,0:0:0:0:
136,297,67492,2,0,P|199:252|290:226,1,160,2|10,3:2|0:0,0:0:0:0:
277,227,67942,1,0,3:2:0:0:
452,286,68092,6,0,P|426:249|398:182,1,95.9999970703126,2|10,3:2|0:2,0:0:0:0:
505,80,68392,2,0,P|489:108|476:146,2,47.9999985351563,0|0|0,3:0|3:0|3:0,0:0:0:0:
370,16,68692,5,8,0:0:0:0:
193,210,68992,1,8,0:0:0:0:
349,361,69292,6,0,P|292:355|236:306,1,120.000004577637,14|2,0:0|3:2,0:0:0:0:
376,207,69592,2,0,P|446:187|515:295,1,180.000006866455,10|0,0:0|0:0,0:0:0:0:
444,299,69892,2,0,P|429:230|347:53,1,240.000009155274,10|10,0:0|0:0,0:0:0:0:
361,75,70342,1,0,3:0:0:0:
218,171,70492,5,10,0:0:0:0:
87,133,70642,1,0,3:2:0:0:
187,35,70792,2,0,L|233:179,1,120.000004577637,10|0,0:0|3:0,0:0:0:0:
80,250,71092,2,0,L|190:27,1,240.000009155274,10|10,0:0|0:0,0:0:0:0:
186,34,71542,1,2,3:2:0:0:
292,226,71692,6,0,P|239:254|157:258,1,120.000004577637,10|0,0:0|3:0,0:0:0:0:
392,168,71992,2,0,P|467:213|454:329,1,180.000006866455,10|0,0:0|0:0,0:0:0:0:
395,368,72292,2,0,P|377:323|420:230,1,120.000004577637,10|0,0:0|3:0,0:0:0:0:
312,143,72592,2,0,P|294:91|262:34,1,95.9999970703126,10|0,0:0|3:0,0:0:0:0:
101,196,72892,6,0,B|77:173|110:108|228:154|167:276,1,191.999994140625,10|10,0:0|0:0,0:0:0:0:
179,247,73342,1,0,3:0:0:0:
85,353,73492,2,0,P|56:318|4:277,1,95.9999970703126,8|0,0:0|3:0,0:0:0:0:
184,242,73792,2,0,P|219:202|277:168,1,95.9999970703126,8|2,0:0|3:2,0:0:0:0:
381,63,74092,5,14,0:0:0:0:
247,24,74242,1,2,3:2:0:0:
416,143,74392,2,0,L|444:267,1,120.000004577637,10|0,0:0|3:0,0:0:0:0:
294,356,74692,2,0,L|249:151,1,180.000006866455,10|0,0:0|0:0,0:0:0:0:
185,135,74992,2,0,B|243:148|243:148|305:91,1,120.000004577637,10|0,0:0|3:0,0:0:0:0:
483,189,75292,6,0,B|413:151|357:210|357:210|331:265|258:262,1,240.000009155274,10|10,0:0|0:0,0:0:0:0:
276,261,75742,1,0,3:2:0:0:
140,357,75892,2,0,P|84:321|8:305,1,120.000004577637,10|0,0:0|3:2,0:0:0:0:
211,202,76192,2,0,P|246:260|231:342,1,120.000004577637,8|0,0:0|3:0,0:0:0:0:
60,181,76492,6,0,P|35:162|9:145,1,47.9999985351563,12|0,0:0|1:0,0:0:0:0:
130,232,76792,6,0,P|158:268|173:293,1,64,2|8,3:2|0:0,0:0:0:0:
212,144,77092,6,0,P|215:95|206:39,1,80,2|0,3:2|3:2,0:0:0:0:
291,273,77392,6,0,P|284:338|256:394,1,95.9999970703126,10|0,0:0|3:0,0:0:0:0:
369,179,77692,5,6,3:2:0:0:
512,48,77842,1,8,0:0:0:0:
512,48,77917,1,8,0:0:0:0:
512,48,77992,2,0,P|451:32|397:-7,1,111.999996582031,8|0,0:0|3:0,0:0:0:0:
495,256,78292,5,8,0:0:0:0:
191,370,78742,1,0,0:0:0:0:
175,353,78892,5,8,0:0:0:0:
11,192,79792,2,0,L|44:103,1,80,8|8,0:0|0:0,0:0:0:0:
249,33,80092,5,2,3:2:0:0:
121,64,80242,1,0,3:0:0:0:
217,164,80392,1,8,0:0:0:0:
254,25,80542,2,0,L|61:7,1,160,2|0,3:2|3:0,0:0:0:0:
244,152,80992,2,0,L|341:132,1,80,8|0,0:0|3:0,0:0:0:0:
504,107,81292,5,12,0:0:0:0:
328,357,82192,2,0,L|417:328,1,80,4|4,3:0|3:0,0:0:0:0:
256,192,82492,5,2,3:2:0:0:
256,192,82642,1,0,3:0:0:0:
256,192,82792,1,8,0:0:0:0:
256,192,82942,2,0,L|69:172,1,160,2|0,3:2|3:0,0:0:0:0:
331,108,83392,1,0,3:0:0:0:
342,115,83467,1,0,0:0:0:0:
358,123,83542,2,0,L|379:172,1,40,0|0,3:0|3:0,0:0:0:0:
470,267,83692,5,8,0:0:0:0:
368,31,84442,1,0,3:0:0:0:
348,24,84592,6,0,L|331:121,1,80,8|8,0:0|0:0,0:0:0:0:
202,235,84892,1,2,3:2:0:0:
98,331,85042,1,0,3:0:0:0:
27,208,85192,1,8,0:0:0:0:
209,254,85342,2,0,B|249:236|300:270|270:313|352:334,1,160,2|0,3:2|3:0,0:0:0:0:
483,255,85792,1,8,0:0:0:0:
347,162,85942,1,0,3:0:0:0:
496,365,86092,6,0,P|484:314|444:244,1,95.9999970703126,6|2,3:2|3:2,0:0:0:0:
340,153,86392,2,0,P|365:101|401:56,1,95.9999970703126,10|10,0:0|0:0,0:0:0:0:
233,196,86692,2,0,P|186:184|151:152,1,95.9999970703126,2|0,0:0|3:0,0:0:0:0:
23,55,86992,1,10,0:2:0:0:
181,12,87142,1,2,3:2:0:0:
40,148,87292,6,0,L|0:348,1,191.999994140625,2|8,3:2|0:0,0:0:0:0:
2,336,87742,1,0,0:0:0:0:
148,140,87892,5,0,0:0:0:0:
249,239,88042,2,0,P|273:245|310:259,4,47.9999985351563,8|8|8|8|8,0:0|0:0|0:0|0:0|0:0,0:0:0:0:
343,161,88492,5,6,3:2:0:0:
343,161,88567,1,0,0:0:0:0:
343,161,88642,1,2,0:2:0:0:
505,268,88792,2,0,P|451:297|391:342,1,111.999996582031,10|2,0:0|0:0,0:0:0:0:
410,92,89092,2,0,P|455:124|505:150,1,111.999996582031,10|2,0:0|3:2,0:0:0:0:
357,241,89392,2,0,L|229:268,1,111.999996582031,10|0,0:0|0:0,0:0:0:0:
82,232,89692,5,6,3:2:0:0:
82,232,89842,1,2,0:0:0:0:
140,73,89992,2,0,P|85:83|31:99,1,111.999996582031,10|0,0:0|3:0,0:0:0:0:
225,161,90292,5,10,0:0:0:0:
225,161,90442,1,2,0:0:0:0:
345,279,90592,2,0,P|319:336|307:404,1,111.999996582031,10|0,0:0|3:0,0:0:0:0:
496,171,90892,5,6,3:2:0:0:
496,171,90967,1,0,0:0:0:0:
496,171,91042,1,2,0:2:0:0:
375,104,91192,2,0,P|394:41|422:-14,1,111.999996582031,10|2,0:0|0:0,0:0:0:0:
256,192,91492,6,0,P|223:141|165:82,1,111.999996582031,10|2,0:0|3:2,0:0:0:0:
268,203,91792,2,0,P|318:228|421:251,1,111.999996582031,10|0,0:0|0:0,0:0:0:0:
182,305,92092,6,0,P|126:338|5:344,1,167.999994873047,2|0,3:2|0:0,0:0:0:0:
75,264,92392,2,0,P|120:310|154:377,1,111.999996582031,2|0,0:0|3:0,0:0:0:0:
270,224,92692,1,10,0:0:0:0:
138,185,92842,1,2,0:0:0:0:
291,227,92992,2,0,P|307:172|321:95,1,111.999996582031,10|0,0:0|3:0,0:0:0:0:
469,12,93292,5,6,3:2:0:0:
469,12,93367,1,0,0:0:0:0:
469,12,93442,1,2,0:2:0:0:
331,102,93592,2,0,P|272:124|214:133,1,111.999996582031,10|2,0:0|0:0,0:0:0:0:
418,184,93892,2,0,P|480:223|493:368,1,223.999993164063,10|10,0:0|0:0,0:0:0:0:
495,362,94342,1,2,3:2:0:0:
349,290,94492,5,6,3:2:0:0:
269,184,94642,1,2,0:0:0:0:
151,264,94792,1,10,0:2:0:0:
66,159,94942,1,2,3:2:0:0:
237,267,95092,6,0,L|257:388,1,111.999996582031,10|2,0:0|0:0,0:0:0:0:
172,147,95392,2,0,L|198:12,1,111.999996582031,10|0,0:0|3:2,0:0:0:0:
63,243,95692,6,0,L|4:255,1,47.9999985351563,6|2,3:2|3:2,0:0:0:0:
66,157,95992,6,0,L|141:172,1,64,2|2,3:2|3:2,0:0:0:0:
214,309,96292,6,0,L|128:292,1,80,2|0,3:2|3:2,0:0:0:0:
223,151,96592,6,0,L|335:169,1,95.9999970703126,2|0,3:2|3:2,0:0:0:0:
409,374,96892,6,0,L|280:348,1,111.999996582031,2|8,3:2|0:0,0:0:0:0:
402,134,97192,6,0,L|512:149,1,111.999996582031,8|8,0:0|0:0,0:0:0:0:
495,358,97492,5,8,0:0:0:0:
258,23,98692,2,0,L|249:83,1,40,8|0,0:0|0:0,0:0:0:0:
196,175,99009,6,0,B|131:150|164:118|87:83,1,128,6|10,3:2|0:0,0:0:0:0:
102,91,99459,1,8,0:0:0:0:
31,171,99609,2,0,P|40:218|43:315,1,128,2|10,0:2|0:0,0:0:0:0:
224,323,100209,6,0,B|253:305|289:323|289:323|311:348|342:347,1,128,2|10,3:2|0:0,0:0:0:0:
341,347,100659,1,10,0:0:0:0:
410,269,100809,2,0,P|396:227|353:132,1,128,2|10,0:0|0:2,0:0:0:0:
267,87,101259,1,0,3:0:0:0:
377,7,101409,6,0,L|504:38,1,128,2|10,3:2|0:0,0:0:0:0:
501,37,101859,1,8,0:0:0:0:
399,126,102009,2,0,L|314:154,1,64,2|0,0:0|3:0,0:0:0:0:
261,223,102309,2,0,L|187:206,1,64,8|0,0:0|3:0,0:0:0:0:
91,180,102609,6,0,B|66:159|74:128|74:128|101:49,1,128,2|2,3:2|0:0,0:0:0:0:
96,61,103059,1,10,0:0:0:0:
193,159,103209,2,0,P|206:195|209:228,1,64,2|0,0:0|0:0,0:0:0:0:
287,297,103509,2,0,P|273:328|265:372,1,64,8|2,0:0|0:0,0:0:0:0:
203,228,103809,5,8,0:0:0:0:
3,325,104559,1,0,3:0:0:0:
3,325,104709,2,0,L|87:307,1,64,10|0,0:0|3:0,0:0:0:0:
176,235,105009,6,0,P|213:246|286:182,1,128,2|8,3:2|0:0,0:0:0:0:
281,198,105459,1,8,0:0:0:0:
376,266,105609,2,0,P|413:280|449:300,1,64,2|0,0:0|3:0,0:0:0:0:
246,369,105909,2,0,P|273:343|297:298,1,64,10|2,0:0|3:2,0:0:0:0:
194,117,106209,6,0,P|159:154|267:181,1,191.999994140625,12|2,0:0|3:2,0:0:0:0:
176,30,106659,2,0,P|130:54|70:209,1,191.999994140625,8|0,0:0|3:0,0:0:0:0:
344,227,107109,2,0,P|334:179|289:125,1,95.9999970703126,8|0,0:0|3:0,0:0:0:0:
135,292,107409,5,6,3:2:0:0:
11,190,107559,1,8,0:0:0:0:
11,190,107634,1,8,0:0:0:0:
11,190,107709,2,0,P|34:144|52:90,1,95.9999970703126,8|0,0:0|3:0,0:0:0:0:
205,12,108009,2,0,P|217:43|244:86,1,71.9999978027344,10|0,0:0|0:0,0:0:0:0:
269,89,108309,6,0,P|289:112|303:142,1,40,8|0,0:0|0:0,0:0:0:0:
496,193,108609,6,0,B|435:212|463:248|400:275,1,128,6|10,3:2|0:0,0:0:0:0:
402,275,109059,1,8,0:0:0:0:
291,213,109209,2,0,P|260:197|209:189,1,64,2|0,0:2|0:0,0:0:0:0:
168,311,109509,2,0,P|213:298|237:276,1,64,10|0,0:0|3:2,0:0:0:0:
92,229,109809,6,0,P|113:152|118:95,1,128,2|10,3:2|0:0,0:0:0:0:
220,16,110259,1,10,0:0:0:0:
276,110,110409,2,0,P|313:122|338:137,1,64,2|0,0:0|0:0,0:0:0:0:
262,210,110709,2,0,P|270:249|269:277,1,64,8|0,0:0|3:0,0:0:0:0:
383,360,111009,5,2,3:2:0:0:
383,360,111309,2,0,L|312:349,1,64,10|8,0:0|0:0,0:0:0:0:
218,265,111609,2,0,L|295:246,1,64,2|0,0:2|3:0,0:0:0:0:
162,368,111909,1,8,0:0:0:0:
162,368,112059,1,0,3:0:0:0:
3,267,112209,6,0,B|27:260|46:241|46:241|124:264,1,128,2|8,3:2|0:0,0:0:0:0:
120,262,112659,1,10,0:0:0:0:
224,174,112809,2,0,P|218:135|211:98,1,64,2|0,3:2|0:0,0:0:0:0:
328,23,113109,2,0,P|315:62|307:93,1,64,8|2,0:0|3:2,0:0:0:0:
397,195,113409,5,8,3:2:0:0:
397,195,113709,2,0,P|428:174|483:166,1,64,10|8,0:0|0:0,0:0:0:0:
392,294,114009,2,0,P|356:281|292:199,1,128,2|10,0:0|0:0,0:0:0:0:
297,215,114459,1,2,3:2:0:0:
211,145,114609,6,0,P|229:112|244:63,1,64,2|0,3:2|0:0,0:0:0:0:
130,88,114909,1,8,0:0:0:0:
130,88,115059,2,0,P|102:51|8:36,1,128,8|2,0:0|3:2,0:0:0:0:
214,160,115509,2,0,P|254:140|301:133,1,64,10|0,0:0|3:0,0:0:0:0:
71,186,115809,5,12,0:0:0:0:
71,186,115884,1,2,0:0:0:0:
71,186,115959,2,0,P|42:220|27:279,1,80,0|2,0:0|3:2,0:0:0:0:
164,356,116259,1,8,0:0:0:0:
164,356,116409,2,0,P|140:319|130:266,1,80,2|0,3:2|3:2,0:0:0:0:
277,199,116709,5,10,0:0:0:0:
277,199,116859,1,0,3:0:0:0:
165,128,117009,1,2,3:2:0:0:
301,26,117159,1,8,0:0:0:0:
324,34,117234,1,8,0:0:0:0:
349,42,117309,2,0,L|445:65,1,80,8|0,0:0|3:0,0:0:0:0:
498,187,117609,6,0,B|483:210|483:210|477:236,1,48,10|0,0:0|0:0,0:0:0:0:
509,262,117909,6,0,B|484:191|484:191|488:181|488:181|475:137,1,128,8|0,0:0|0:0,0:0:0:0:
314,349,118209,6,0,B|275:312|217:325|217:325|190:364|139:364,1,167.999994873047,14|0,0:2|0:0,0:0:0:0:
109,300,118509,2,0,P|50:269|-17:250,1,111.999996582031,10|0,0:2|3:0,0:0:0:0:
175,166,118809,1,10,0:0:0:0:
18,62,118959,1,10,0:0:0:0:
191,175,119109,2,0,P|250:150|312:133,1,111.999996582031,10|0,0:2|3:0,0:0:0:0:
488,281,119409,6,0,B|444:251|445:192|445:192|479:165|478:131,1,167.999994873047,14|0,0:2|0:0,0:0:0:0:
401,114,119709,2,0,P|359:62|326:0,1,111.999996582031,10|0,0:2|3:0,0:0:0:0:
221,193,120009,1,10,0:0:0:0:
372,249,120159,1,10,0:0:0:0:
214,199,120309,2,0,P|174:231|128:283,1,111.999996582031,10|0,0:0|3:0,3:0:0:0:
12,55,120609,6,0,P|54:122|78:198,1,160,10|2,0:0|3:2,0:0:0:0:
193,68,121059,2,0,P|260:110|336:134,1,160,8|2,0:0|3:2,0:0:0:0:
0,62,121509,2,0,P|21:95|33:133,1,80,10|0,0:0|3:0,3:0:0:0:
115,367,121809,5,14,0:0:0:0:
115,367,121959,2,0,P|152:332|214:312,1,95.9999970703126,2|2,3:2|3:2,0:0:0:0:
351,244,122259,5,10,0:0:0:0:
351,244,122409,2,0,P|307:217|241:210,1,95.9999970703126,2|2,3:2|3:2,0:0:0:0:
158,89,122709,5,10,0:0:0:0:
103,218,122859,1,0,3:0:0:0:
422,105,123009,6,0,B|429:85|463:61|463:61|348:91,1,167.999994873047,14|0,0:2|0:0,0:0:0:0:
283,112,123309,2,0,B|274:96|255:80|255:80|292:0,1,111.999996582031,10|0,0:2|3:0,0:0:0:0:
194,196,123609,1,10,0:0:0:0:
34,97,123759,1,10,0:0:0:0:
203,211,123909,2,0,L|330:177,1,111.999996582031,10|0,0:0|3:0,0:0:0:0:
50,309,124209,6,0,B|43:289|9:265|9:265|124:295,1,167.999994873047,14|0,0:2|0:0,0:0:0:0:
189,316,124509,2,0,B|197:300|217:284|217:284|180:204,1,111.999996582031,10|0,0:2|3:0,0:0:0:0:
333,132,124809,1,10,0:0:0:0:
428,271,124959,1,10,0:0:0:0:
338,121,125109,2,0,L|363:7,1,111.999996582031,10|0,0:0|3:0,3:0:0:0:
481,177,125409,5,10,0:0:0:0:
481,177,125559,2,0,P|506:230|505:284,1,95.9999970703126,2|2,3:2|3:2,0:0:0:0:
329,366,125859,5,10,0:0:0:0:
329,366,126009,2,0,P|364:319|374:266,1,95.9999970703126,2|0,3:2|3:2,0:0:0:0:
486,175,126309,2,0,P|511:228|510:282,1,95.9999970703126,10|0,0:0|3:2,0:0:0:0:
364,138,126609,5,2,3:2:0:0:
206,186,126756,1,10,0:2:0:0:
206,186,126830,1,0,0:0:0:0:
206,186,126904,2,0,P|163:164|116:154,1,95.9999970703126,0|0,3:0|3:0,0:0:0:0:
0,378,127200,6,0,P|38:375|73:356,1,64,8|8,0:0|0:0,0:0:0:0:
150,259,127495,1,8,0:0:0:0:
172,266,127569,1,8,0:0:0:0:
193,279,127643,1,8,0:0:0:0:
210,295,127717,1,8,0:0:0:0:
223,316,127791,6,0,L|247:179,1,120.000004577637,12|0,0:2|3:0,0:0:0:0:
421,135,128091,2,0,L|446:-5,1,120.000004577637,10|0,0:2|3:0,0:0:0:0:
347,222,128391,5,10,0:0:0:0:
214,64,128541,1,0,3:0:0:0:
354,236,128691,2,0,L|400:363,1,120.000004577637,10|0,0:2|0:0,0:0:0:0:
250,159,128991,5,10,0:0:0:0:
250,159,129141,1,0,3:2:0:0:
335,92,129291,2,0,P|372:113|434:140,1,95.9999970703126,10|0,0:0|3:2,0:0:0:0:
246,53,129591,5,10,0:0:0:0:
246,53,129741,1,0,3:2:0:0:
161,120,129891,2,0,P|123:98|61:71,1,95.9999970703126,10|0,0:0|3:2,0:0:0:0:
126,346,130191,6,0,P|66:324|-16:307,1,120.000004577637,12|0,0:2|3:0,0:0:0:0:
211,249,130491,2,0,P|156:215|80:181,1,120.000004577637,10|0,0:2|3:0,0:0:0:0:
327,97,130791,5,10,0:0:0:0:
153,12,130941,1,0,3:0:0:0:
339,108,131091,2,0,P|349:170|376:253,1,120.000004577637,10|0,0:2|0:0,0:0:0:0:
496,342,131391,5,10,0:0:0:0:
496,342,131541,1,0,3:2:0:0:
387,375,131691,2,0,P|331:356|291:314,1,95.9999970703126,10|0,0:0|3:2,0:0:0:0:
367,199,131991,5,10,0:0:0:0:
367,199,132141,1,0,3:2:0:0:
465,252,132291,2,0,P|476:302|505:355,1,95.9999970703126,10|0,0:0|3:2,0:0:0:0:
243,373,132591,6,0,B|218:322|218:322|219:310|219:310|197:261,1,120.000004577637,12|0,0:2|3:0,0:0:0:0:
343,127,132891,2,0,B|367:76|367:76|366:64|366:64|388:15,1,120.000004577637,10|0,0:2|3:0,0:0:0:0:
142,152,133191,5,10,0:0:0:0:
326,228,133341,1,0,3:0:0:0:
130,145,133491,2,0,B|79:120|79:120|67:121|67:121|18:99,1,120.000004577637,10|0,0:2|0:0,0:0:0:0:
220,28,133791,5,10,0:0:0:0:
220,28,133941,1,0,3:2:0:0:
282,110,134091,2,0,P|318:129|390:154,1,95.9999970703126,10|0,0:0|3:2,0:0:0:0:
149,148,134391,5,10,0:0:0:0:
149,148,134541,1,0,3:2:0:0:
87,230,134691,2,0,P|51:249|-21:274,1,95.9999970703126,10|0,0:0|3:2,0:0:0:0:
188,368,134991,6,0,P|175:352|161:341,1,32,6|2,3:2|3:2,0:0:0:0:
241,257,135291,6,0,P|227:227|209:199,1,47.9999985351563,0|0,3:2|3:2,0:0:0:0:
337,179,135591,6,0,P|351:138|356:100,1,64,2|0,3:2|3:2,0:0:0:0:
469,87,135891,6,0,P|453:30|430:2,1,80,2|0,3:2|3:2,0:0:0:0:
254,157,136191,5,10,0:0:0:0:
424,312,136341,1,8,0:0:0:0:
242,151,136491,1,8,0:0:0:0:
503,181,136641,1,8,0:0:0:0:
275,361,136791,5,8,0:0:0:0:
179,14,137091,1,8,0:0:0:0:
179,14,137241,1,0,3:0:0:0:
17,154,137391,5,4,3:2:0:0:
256,192,137466,12,0,141891,0:0:0:0:
