osu file format v14

[General]
AudioFilename: audio.mp3
AudioLeadIn: 0
PreviewTime: 30817
Countdown: 0
SampleSet: Soft
StackLeniency: 0.7
Mode: 0
LetterboxInBreaks: 0
WidescreenStoryboard: 0

[Editor]
Bookmarks: 11692,21292,30892,40492,50085,59685,69292,78892,88492,99009,108609,118209,127809
DistanceSpacing: 0.7
BeatDivisor: 4
GridSize: 32
TimelineZoom: 2.679999

[Metadata]
Title:EVERYBODY DO THE FLOP
TitleUnicode:EVERYBODY DO THE FLOP
Artist:LilDeuceDeuce
ArtistUnicode:LilDeuceDeuce
Creator:wafer
Version:WhiteFloppable
Source:asdfmovie
Tags:english rock novelty meme mine turtle tomska goopert kami no kotoba todd bryanton akitoshi kowari tilda dragonicz john mapping pepekcz
BeatmapID:3963430
BeatmapSetID:1920362

[Difficulty]
HPDrainRate:5.5
CircleSize:3.8
OverallDifficulty:9.4
ApproachRate:9.6
SliderMultiplier:1.8
SliderTickRate:1

[Events]
//Background and Video events
0,0,"do the flop guyu.png",0,0
//Break Periods
//Storyboard Layer 0 (Background)
//Storyboard Layer 1 (Fail)
//Storyboard Layer 2 (Pass)
//Storyboard Layer 3 (Foreground)
//Storyboard Layer 4 (Overlay)
//Storyboard Sound Samples

[TimingPoints]
892,300,4,2,1,50,1,0
892,-100,4,2,1,50,0,0
1792,-100,4,2,3,50,0,0
2092,300,4,2,1,70,1,0
2092,-90.9090909090909,4,2,1,70,0,0
11392,-90.9090909090909,4,2,3,70,0,0
11692,-125,4,2,1,60,0,0
18892,-100,4,2,1,70,0,0
20992,-100,4,2,3,70,0,0
21292,-125,4,2,1,60,0,0
28492,-100,4,2,1,70,0,0
30592,-100,4,2,3,70,0,0
30892,-83.3333333333333,4,2,1,80,0,0
40192,-83.3333333333333,4,2,3,80,0,0
40492,-125,4,2,1,60,0,0
40504,300,4,2,1,60,1,0
40504,-125,4,2,1,60,0,0
41085,-125,4,2,1,60,0,0
48285,-100,4,2,1,70,0,0
49785,-100,4,2,3,70,0,0
50085,-125,4,2,1,60,0,0
54135,-100,4,2,1,60,0,0
54885,-125,4,2,1,60,0,0
57285,-100,4,2,1,70,0,0
59385,-100,4,2,3,70,0,0
59685,-83.3333333333333,4,2,1,80,0,0
66892,300,4,2,1,80,1,0
68992,-125,4,2,1,60,0,0
69292,300,4,2,1,75,1,0
69292,-90.9090909090909,4,2,1,75,0,0
79792,-100,4,2,1,70,0,0
88492,-100,4,2,1,80,0,0
95692,-100,4,2,1,85,0,0
98692,-100,4,2,3,85,0,0
99009,300,4,2,1,60,1,0
99009,-125,4,2,1,60,0,0
106209,-100,4,2,1,70,0,0
108309,-100,4,2,3,70,0,0
108609,-125,4,2,1,60,0,0
115809,-100,4,2,1,70,0,0
117909,-100,4,2,3,70,0,0
118209,-83.3333333333333,4,2,1,80,0,0
126609,295.566502463054,4,2,1,80,1,0
127052,-83.3333333333333,4,2,1,80,0,0
127791,300,4,2,1,80,1,0
127791,-76.9230769230769,4,2,1,85,0,0
135583,-76.9230769230769,4,2,1,90,0,0
136183,-76.9230769230769,4,2,1,100,0,0
136783,-100,4,2,1,60,0,0
137383,-250,4,2,1,60,0,0
138583,-250,4,2,2,50,0,0
139272,-250,4,2,2,50,0,0
139483,-250,4,2,1,40,0,0
140683,-250,4,2,2,30,0,0
141883,-250,4,2,2,20,0,0
142483,-250,4,2,2,10,0,0
142783,-250,4,2,1,5,0,0

[Colours]
Combo1 : 136,184,198
Combo2 : 184,184,220
Combo3 : 154,188,245
Combo4 : 174,140,189

[HitObjects]
229,50,892,5,8,0:0:0:0:
229,50,1792,2,0,B|188:36|188:36|148:76,1,90,8|0,3:2|0:0,0:0:0:0:
28,223,2092,6,0,L|155:234,1,99.0000030212403,4|0,3:2|0:0,0:0:0:0:
311,121,2392,2,0,L|183:132,1,99.0000030212403,8|0,0:2|0:0,0:0:0:0:
34,331,2692,1,8,0:0:0:0:
77,56,2842,1,8,0:0:0:0:
258,260,2992,1,8,0:0:0:0:
28,223,3142,1,0,3:0:0:0:
261,7,3292,6,0,L|253:106,1,99.0000030212403,4|0,3:2|0:0,0:0:0:0:
379,313,3592,2,0,L|368:185,1,99.0000030212403,8|0,0:2|0:0,0:0:0:0:
490,17,3892,1,8,0:0:0:0:
230,190,4042,1,8,0:0:0:0:
512,203,4192,1,8,0:0:0:0:
342,35,4342,1,0,3:0:0:0:
379,313,4492,6,0,B|396:283|396:283|380:208,1,99.0000030212403,12|0,0:0|3:0,0:0:0:0:
179,124,4792,1,0,3:0:0:0:
461,91,4942,2,0,B|440:119|440:119|366:136,1,99.0000030212403,12|0,0:0|3:0,0:0:0:0:
169,241,5242,1,0,3:0:0:0:
299,8,5392,2,0,L|291:107,1,99.0000030212403,8|0,0:2|3:0,0:0:0:0:
255,373,5692,5,14,0:0:0:0:
110,114,5842,1,2,3:2:0:0:
375,240,5992,1,2,3:2:0:0:
73,326,6142,5,10,0:0:0:0:
317,181,6292,1,2,3:2:0:0:
33,158,6442,1,2,3:2:0:0:
316,329,6592,5,10,0:0:0:0:
214,114,6742,1,0,3:0:0:0:
116,357,6892,6,0,L|-11:346,1,99.0000030212403,4|0,3:2|0:0,0:0:0:0:
189,186,7192,2,0,L|317:197,1,99.0000030212403,8|0,0:2|0:0,0:0:0:0:
55,104,7492,1,8,0:0:0:0:
338,43,7642,1,8,0:0:0:0:
94,239,7792,1,8,0:0:0:0:
218,4,7942,1,0,3:0:0:0:
296,253,8092,6,0,L|288:352,1,99.0000030212403,4|0,3:2|0:0,0:0:0:0:
444,154,8392,2,0,L|436:55,1,99.0000030212403,8|0,0:2|0:0,0:0:0:0:
386,337,8692,1,8,0:0:0:0:
252,99,8842,1,8,0:0:0:0:
483,251,8992,1,8,0:0:0:0:
252,302,9142,1,0,3:0:0:0:
499,98,9292,5,12,0:0:0:0:
197,190,9442,1,0,3:0:0:0:
455,341,9592,1,0,3:0:0:0:
335,33,9742,5,8,0:0:0:0:
189,345,9892,2,0,B|174:313|174:313|192:229,1,99.0000030212403,0|0,3:0|3:0,0:0:0:0:
432,32,10192,5,8,0:0:0:0:
351,320,10342,1,0,3:0:0:0:
221,72,10492,1,0,3:0:0:0:
480,192,10642,5,8,0:0:0:0:
480,192,10717,1,8,0:0:0:0:
480,192,10792,2,0,L|416:175,1,49.5000015106202,0|0,3:0|3:0,0:0:0:0:
196,166,10942,1,0,3:0:0:0:
196,166,11017,1,0,3:0:0:0:
196,166,11092,2,0,B|275:189|275:189|293:235|250:275,1,148.50000453186,8|0,3:2|0:0,0:0:0:0:
238,271,11392,1,8,0:0:0:0:
238,271,11692,6,0,P|202:254|155:259,1,72,6|0,3:2|0:0,0:0:0:0:
26,330,11992,1,10,0:0:0:0:
102,187,12142,1,8,0:0:0:0:
26,330,12292,2,0,P|9:294|10:175,1,144,2|10,0:2|0:0,0:0:0:0:
82,84,12742,1,0,3:2:0:0:
216,166,12892,6,0,L|290:154,1,72,2|0,3:2|0:0,0:0:0:0:
441,81,13192,1,10,0:0:0:0:
291,25,13342,1,10,0:0:0:0:
371,134,13492,2,0,B|379:153|398:165|398:165|385:242,1,108,2|0,0:0|0:0,0:0:0:0:
410,257,13792,2,0,L|484:269,1,72,10|0,0:2|3:0,0:0:0:0:
323,341,14092,6,0,L|249:353,1,72,2|0,3:2|0:0,0:0:0:0:
144,214,14392,1,10,0:0:0:0:
275,270,14542,1,8,0:0:0:0:
173,363,14692,2,0,P|164:324|172:279,1,72,2|0,0:0|3:0,0:0:0:0:
244,148,14992,1,8,0:0:0:0:
316,259,15142,1,0,3:0:0:0:
133,194,15292,6,0,B|95:197|77:216|77:216|52:110,1,144,2|8,3:2|0:0,0:0:0:0:
186,20,15742,1,10,0:0:0:0:
59,30,15892,1,2,0:0:0:0:
168,98,16042,1,2,3:2:0:0:
20,205,16192,1,8,0:0:0:0:
462,148,16492,1,8,3:2:0:0:
462,148,17242,5,0,3:0:0:0:
380,269,17392,2,0,L|386:189,1,72,10|0,0:0|3:0,0:0:0:0:
276,70,17692,1,2,3:2:0:0:
390,11,17842,1,2,0:0:0:0:
309,178,17992,1,8,0:0:0:0:
202,25,18142,1,8,0:0:0:0:
379,108,18292,6,0,L|459:114,1,72,2|0,0:0|3:0,0:0:0:0:
246,222,18592,2,0,B|207:223|207:223|189:192|120:187,1,108,10|0,0:0|0:0,0:0:0:0:
109,211,18892,5,12,0:0:0:0:
331,273,19042,1,0,3:0:0:0:
57,306,19192,1,2,3:2:0:0:
300,170,19342,1,8,0:0:0:0:
155,363,19492,2,0,B|140:331|140:331|158:247,1,90,2|0,3:2|3:0,0:0:0:0:
277,53,19792,1,8,0:0:0:0:
429,268,19942,1,0,3:0:0:0:
148,190,20092,5,6,3:2:0:0:
445,133,20242,1,8,0:0:0:0:
445,133,20317,1,8,0:0:0:0:
445,133,20392,2,0,L|460:56,1,45,8|0,0:0|3:0,0:0:0:0:
244,0,20542,1,0,3:0:0:0:
244,0,20617,1,0,3:0:0:0:
244,0,20692,2,0,B|208:24|208:24|187:84|242:122,1,135,10|0,0:0|0:0,0:0:0:0:
266,109,20992,1,8,0:0:0:0:
266,109,21292,6,0,P|296:131|345:124,1,72,6|0,3:2|0:0,0:0:0:0:
454,12,21592,1,10,0:0:0:0:
433,167,21742,1,8,0:0:0:0:
351,48,21892,2,0,B|434:43|409:85|493:91,1,144,2|10,0:2|0:0,0:0:0:0:
485,90,22342,1,0,3:2:0:0:
357,200,22492,6,0,L|369:274,1,72,2|0,3:2|0:0,0:0:0:0:
512,317,22792,1,10,0:0:0:0:
354,365,22942,1,10,0:0:0:0:
456,261,23092,2,0,B|470:239|493:234|493:234|475:114,1,144,2|8,0:0|0:0,0:0:0:0:
405,19,23542,1,0,3:0:0:0:
290,170,23692,6,0,L|216:158,1,72,2|0,3:2|0:0,0:0:0:0:
56,216,23992,1,10,0:0:0:0:
153,69,24142,1,8,0:0:0:0:
182,236,24292,2,0,L|256:248,1,72,2|0,0:2|3:0,0:0:0:0:
343,100,24592,1,8,0:0:0:0:
218,158,24742,1,0,3:0:0:0:
369,270,24892,6,0,L|358:193,1,72,2|2,3:2|0:0,0:0:0:0:
258,31,25192,1,10,0:0:0:0:
130,173,25342,1,10,0:0:0:0:
287,119,25492,1,2,0:0:0:0:
153,69,25642,1,2,3:2:0:0:
223,167,25792,1,8,0:0:0:0:
254,39,25942,1,2,3:2:0:0:
63,122,26092,5,8,3:2:0:0:
63,122,26392,2,0,P|45:153|49:206,1,72,10|8,0:0|0:0,0:0:0:0:
170,295,26692,1,2,0:0:0:0:
131,171,26842,1,0,3:0:0:0:
14,275,26992,2,0,L|94:265,1,72,10|0,0:0|3:0,0:0:0:0:
250,231,27292,1,2,3:2:0:0:
131,171,27442,1,2,0:0:0:0:
239,344,27592,5,8,0:0:0:0:
323,170,27742,1,8,0:0:0:0:
172,311,27892,1,2,0:0:0:0:
379,239,28042,1,2,3:2:0:0:
131,171,28192,2,0,L|51:181,1,72,10|0,0:0|3:0,0:0:0:0:
274,7,28492,5,12,0:0:0:0:
274,7,28567,1,2,0:0:0:0:
274,7,28642,2,0,L|262:78,1,45
351,324,28792,1,2,3:2:0:0:
165,84,28942,1,8,0:0:0:0:
407,198,29092,1,2,3:2:0:0:
205,285,29242,1,0,3:2:0:0:
477,107,29392,5,8,0:0:0:0:
172,190,29542,1,0,3:0:0:0:
497,299,29692,5,6,3:2:0:0:
241,55,29842,1,8,0:0:0:0:
241,55,29917,1,8,0:0:0:0:
241,55,29992,2,0,L|246:136,1,45,8|0,0:0|3:0,0:0:0:0:
298,337,30142,2,0,L|303:256,1,45,0|0,3:0|3:0,0:0:0:0:
374,27,30292,2,0,B|422:41|422:41|440:76|440:76|509:102,1,135,10|0,0:0|0:0,0:0:0:0:
509,128,30592,1,8,0:0:0:0:
509,128,30892,6,0,L|364:147,1,107.999996704102,14|0,0:2|3:0,0:0:0:0:
138,217,31192,2,0,L|283:236,1,107.999996704102,10|0,0:2|3:0,0:0:0:0:
448,40,31492,1,10,0:0:0:0:
336,349,31642,1,10,0:0:0:0:
247,33,31792,1,10,0:0:0:0:
478,212,31942,1,0,3:0:0:0:
168,13,32092,6,0,L|149:158,1,107.999996704102,14|0,0:2|3:0,0:0:0:0:
414,271,32392,2,0,L|399:163,1,107.999996704102,10|0,0:2|3:0,0:0:0:0:
141,99,32692,1,10,0:0:0:0:
293,320,32842,1,10,0:0:0:0:
344,60,32992,2,0,P|300:30|246:33,1,107.999996704102,10|0,0:0|3:0,3:0:0:0:
55,239,33292,5,10,0:0:0:0:
320,190,33442,1,2,3:2:0:0:
53,127,33592,1,2,3:2:0:0:
312,85,33742,1,8,0:0:0:0:
99,321,33892,5,2,3:2:0:0:
164,44,34042,1,2,3:2:0:0:
301,283,34192,2,0,P|259:316|205:318,1,107.999996704102,10|0,0:0|3:0,3:0:0:0:
69,45,34492,5,14,0:0:0:0:
333,162,34642,1,2,3:2:0:0:
40,246,34792,1,2,3:2:0:0:
266,28,34942,5,10,0:0:0:0:
41,144,35092,1,2,3:2:0:0:
277,234,35242,1,2,3:2:0:0:
150,8,35392,5,10,0:0:0:0:
40,246,35542,1,0,3:0:0:0:
261,20,35692,6,0,L|280:165,1,107.999996704102,14|0,0:2|3:0,0:0:0:0:
469,335,35992,2,0,L|488:190,1,107.999996704102,10|0,0:2|3:0,0:0:0:0:
261,20,36292,1,10,0:0:0:0:
359,345,36442,1,10,0:0:0:0:
470,69,36592,1,10,0:0:0:0:
200,175,36742,1,0,3:0:0:0:
402,276,36892,6,0,L|383:131,1,107.999996704102,14|0,0:2|3:0,0:0:0:0:
160,326,37192,2,0,L|179:181,1,107.999996704102,10|0,0:2|3:0,0:0:0:0:
370,60,37492,1,10,0:0:0:0:
286,330,37642,1,10,0:0:0:0:
133,84,37792,2,0,P|176:54|230:57,1,107.999996704102,10|0,0:0|3:0,3:0:0:0:
470,312,38092,5,10,0:0:0:0:
139,269,38242,1,2,3:2:0:0:
370,60,38392,1,2,3:2:0:0:
381,358,38542,1,10,0:0:0:0:
133,107,38692,5,2,3:2:0:0:
466,139,38842,1,0,3:2:0:0:
83,198,38992,5,10,0:0:0:0:
407,268,39142,1,0,3:2:0:0:
256,0,39292,5,2,3:2:0:0:
128,326,39442,1,8,0:0:0:0:
128,326,39517,1,8,0:0:0:0:
128,326,39592,2,0,L|196:316,1,53.9999983520508,8|0,0:0|3:0,0:0:0:0:
452,132,39742,2,0,L|384:122,1,53.9999983520508,0|0,3:0|3:0,0:0:0:0:
76,207,39892,1,8,3:2:0:0:
329,303,40192,5,8,0:0:0:0:
329,303,40504,6,0,P|365:286|412:291,1,72,6|0,3:2|0:0,0:0:0:0:
499,129,40804,1,10,0:0:0:0:
338,190,40954,1,8,0:0:0:0:
455,354,41104,2,0,P|472:318|471:199,1,144,2|10,0:2|0:0,0:0:0:0:
386,86,41554,1,0,3:2:0:0:
265,238,41704,6,0,L|131:214,1,108,2|0,3:2|0:0,0:0:0:0:
125,235,42004,1,10,0:0:0:0:
40,71,42154,1,8,0:0:0:0:
172,124,42304,1,2,0:0:0:0:
22,205,42454,1,0,3:0:0:0:
172,124,42604,2,0,L|160:50,1,72,10|0,0:2|3:0,0:0:0:0:
265,238,42904,6,0,L|253:312,1,72,2|0,3:2|0:0,0:0:0:0:
440,223,43204,1,10,0:0:0:0:
272,140,43354,1,8,0:0:0:0:
332,308,43504,2,0,P|362:307|415:279,1,72,2|0,0:0|3:0,0:0:0:0:
383,91,43804,1,8,0:0:0:0:
265,238,43954,1,0,3:0:0:0:
454,142,44104,6,0,L|465:64,1,72,2|0,3:2|0:0,0:0:0:0:
246,37,44404,1,8,0:0:0:0:
373,213,44554,1,10,0:0:0:0:
336,30,44704,1,2,0:0:0:0:
231,150,44854,1,2,3:2:0:0:
454,142,45004,1,8,0:0:0:0:
263,61,45154,1,2,0:0:0:0:
327,286,45304,5,10,3:2:0:0:
327,286,45604,2,0,P|339:244|331:204,1,72,10|8,0:0|0:0,0:0:0:0:
231,150,45904,2,0,P|195:156|166:176,1,72,2|0,0:0|3:0,0:0:0:0:
41,324,46204,1,8,0:0:0:0:
83,156,46354,1,0,3:0:0:0:
272,356,46504,1,2,3:2:0:0:
272,356,46804,5,8,0:0:0:0:
171,178,46954,1,8,0:0:0:0:
126,351,47104,2,0,P|82:355|44:340,1,72,2|0,0:2|3:0,0:0:0:0:
93,112,47404,1,10,0:0:0:0:
251,269,47554,1,0,3:0:0:0:
298,5,47704,5,12,0:0:0:0:
167,233,47854,1,2,3:2:0:0:
424,146,48004,1,2,3:2:0:0:
181,35,48154,1,8,0:0:0:0:
345,273,48304,6,0,B|386:294|386:294|461:270,1,90,2|0,3:2|3:0,0:0:0:0:
167,150,48604,1,10,0:0:0:0:
414,45,48754,1,0,3:0:0:0:
258,315,48904,5,6,3:2:0:0:
158,35,49054,1,8,0:0:0:0:
158,35,49129,1,8,0:0:0:0:
158,35,49204,2,0,L|167:93,1,45,8|0,0:0|3:0,0:0:0:0:
368,169,49354,1,0,3:0:0:0:
368,169,49429,1,0,3:0:0:0:
368,169,49504,2,0,B|405:164|419:119|419:119|394:104|384:71,1,135,10|0,0:0|0:0,0:0:0:0:
346,55,49804,1,8,0:0:0:0:
346,55,50104,6,0,P|383:39|438:65,1,72,6|0,3:2|0:0,0:0:0:0:
486,223,50404,1,10,0:0:0:0:
296,158,50554,1,8,0:0:0:0:
481,80,50704,2,0,B|464:203,1,108,2|0,0:2|0:0,0:0:0:0:
486,223,51004,1,10,0:2:0:0:
383,138,51154,1,0,3:2:0:0:
256,241,51304,6,0,B|269:339,1,72,2|2,1:2|0:0,0:0:0:0:
433,321,51604,1,10,0:0:0:0:
307,181,51754,1,10,0:0:0:0:
184,297,51904,2,0,B|164:317|157:334|157:334|37:316,1,144,2|8,0:0|0:0,0:0:0:0:
9,183,52354,1,0,3:0:0:0:
184,297,52504,6,0,B|170:198,1,72,2|2,1:2|0:0,0:0:0:0:
127,28,52804,1,10,0:0:0:0:
9,183,52954,1,8,0:0:0:0:
157,133,53104,1,2,0:0:0:0:
11,43,53254,1,0,3:0:0:0:
97,220,53404,1,10,0:0:0:0:
220,77,53554,1,2,3:2:0:0:
352,192,53704,6,0,L|429:181,1,72,2|2,3:2|0:0,0:0:0:0:
423,182,54154,6,0,B|458:166|460:104|460:104|399:73|366:132,1,180
287,247,54604,2,0,P|254:271|281:228,1,135,12|0,0:0|0:0,0:0:0:0:
350,198,54904,5,8,3:2:0:0:
350,198,55204,2,0,P|368:229|364:282,1,72,10|8,0:0|0:0,0:0:0:0:
183,308,55504,2,0,P|165:277|169:224,1,72,2|0,0:0|3:0,0:0:0:0:
311,115,55804,1,10,0:0:0:0:
121,83,55954,1,0,3:0:0:0:
268,219,56104,5,2,3:2:0:0:
233,36,56254,1,2,0:0:0:0:
92,181,56404,1,8,0:0:0:0:
311,132,56554,1,8,0:0:0:0:
121,83,56704,6,0,L|128:2,1,72,2|0,0:0|3:0,0:0:0:0:
352,209,57004,1,10,0:0:0:0:
121,265,57154,1,0,3:0:0:0:
285,12,57304,5,12,0:0:0:0:
385,249,57454,1,0,3:0:0:0:
136,88,57604,1,2,3:2:0:0:
429,120,57754,1,8,0:0:0:0:
110,286,57904,5,2,3:2:0:0:
414,223,58054,1,0,3:2:0:0:
78,145,58204,5,10,0:0:0:0:
357,70,58354,1,0,3:0:0:0:
241,360,58504,5,6,3:2:0:0:
134,50,58654,1,8,0:0:0:0:
134,50,58729,1,8,0:0:0:0:
134,50,58804,2,0,L|149:127,1,45,8|0,0:0|3:0,0:0:0:0:
327,327,58954,2,0,L|342:250,1,45,0|0,3:0|3:0,0:0:0:0:
372,24,59104,2,0,B|323:37|323:37|301:67|301:67|277:54|230:86,1,135,10|0,0:0|0:0,0:0:0:0:
222,71,59404,1,8,0:0:0:0:
0,151,59704,6,0,L|145:170,1,107.999996704102,14|0,0:2|3:0,0:0:0:0:
375,257,60004,2,0,L|230:276,1,107.999996704102,10|0,0:2|3:0,0:0:0:0:
60,59,60304,1,10,0:0:0:0:
179,350,60454,1,10,0:0:0:0:
162,18,60604,1,10,0:2:0:0:
58,323,60754,1,0,3:0:0:0:
329,106,60904,6,0,L|474:125,1,107.999996704102,14|0,0:2|3:0,0:0:0:0:
237,265,61204,2,0,L|92:246,1,107.999996704102,10|0,0:2|3:0,0:0:0:0:
344,22,61504,1,10,0:0:0:0:
318,314,61654,1,10,0:0:0:0:
171,77,61804,2,0,B|199:35|199:35|269:50,1,107.999996704102,10|0,0:0|3:0,3:0:0:0:
467,238,62104,5,10,0:0:0:0:
192,190,62254,1,2,3:2:0:0:
459,127,62404,1,2,3:2:0:0:
190,201,62554,1,8,0:0:0:0:
421,311,62704,5,2,3:2:0:0:
306,42,62854,1,2,3:2:0:0:
268,323,63004,2,0,P|215:323|163:297,1,107.999996704102,10|0,0:0|3:0,3:0:0:0:
52,35,63304,5,14,0:0:0:0:
45,321,63454,1,2,3:2:0:0:
42,42,63604,1,2,3:2:0:0:
166,299,63754,5,10,0:0:0:0:
211,46,63904,1,2,3:2:0:0:
176,318,64054,1,2,3:2:0:0:
364,34,64204,5,10,0:0:0:0:
438,234,64354,1,0,3:0:0:0:
253,27,64504,6,0,L|272:172,1,107.999996704102,14|0,0:2|3:0,0:0:0:0:
62,333,64804,2,0,L|43:188,1,107.999996704102,10|0,0:2|3:0,0:0:0:0:
337,79,65104,1,10,0:0:0:0:
68,68,65254,1,10,0:0:0:0:
256,320,65404,1,10,0:0:0:0:
200,17,65554,1,0,3:0:0:0:
137,286,65704,6,0,L|151:178,1,107.999996704102,14|0,0:2|3:0,0:0:0:0:
365,341,66004,2,0,L|346:196,1,107.999996704102,10|0,0:2|3:0,0:0:0:0:
132,71,66304,1,10,0:0:0:0:
243,345,66454,1,10,0:0:0:0:
390,107,66604,2,0,P|354:66|302:67,1,107.999996704102,10|0,0:0|3:0,3:0:0:0:
64,224,66892,5,10,0:0:0:0:
333,330,67042,1,2,3:2:0:0:
213,57,67192,1,2,3:2:0:0:
123,346,67342,1,10,0:0:0:0:
329,158,67492,5,2,3:2:0:0:
82,141,67642,1,0,3:2:0:0:
361,251,67792,5,10,0:0:0:0:
115,62,67942,1,0,3:2:0:0:
256,352,68092,5,2,3:2:0:0:
352,31,68242,1,10,0:2:0:0:
63,244,68392,1,0,3:0:0:0:
63,244,68467,1,0,3:0:0:0:
63,244,68542,1,0,3:0:0:0:
256,0,68692,6,0,B|265:25|265:25|250:90,1,90,8|0,0:0|3:0,0:0:0:0:
136,201,68992,2,0,B|126:157|126:157|135:132,1,72,8|0,0:0|3:0,0:0:0:0:
332,327,69292,5,14,0:0:0:0:
250,86,69442,1,2,3:2:0:0:
180,324,69592,2,0,P|135:318|101:263,1,99.0000030212403,10|0,0:0|3:0,0:0:0:0:
286,172,69892,2,0,B|385:167|352:240|472:248,1,198.000006042481,10|10,0:0|0:0,0:0:0:0:
436,84,70342,1,0,3:0:0:0:
319,294,70492,5,10,0:0:0:0:
250,42,70642,1,0,3:2:0:0:
108,210,70792,2,0,P|137:249|185:256,1,99.0000030212403,10|0,0:0|3:0,0:0:0:0:
386,168,71092,2,0,P|398:111|349:21,1,148.50000453186,10|0,0:0|0:0,0:0:0:0:
314,8,71392,1,10,0:0:0:0:
197,156,71542,1,2,3:2:0:0:
415,238,71692,6,0,P|465:222|523:210,1,99.0000030212403,10|0,0:0|3:0,0:0:0:0:
292,131,71992,2,0,P|244:145|196:155,1,99.0000030212403,10|0,0:0|3:0,0:0:0:0:
13,50,72292,1,10,0:0:0:0:
93,291,72442,1,0,3:0:0:0:
203,71,72592,2,0,P|201:29|143:3,1,99.0000030212403,10|0,0:0|3:0,0:0:0:0:
2,159,72892,6,0,B|101:154|68:227|188:235,1,198.000006042481,10|10,0:0|0:0,0:0:0:0:
349,354,73342,2,0,P|362:311|361:255,1,99.0000030212403,0|8,3:0|0:0,0:0:0:0:
256,146,73642,1,0,3:0:0:0:
190,330,73792,2,0,P|177:287|178:231,1,99.0000030212403,8|2,0:0|3:2,0:0:0:0:
387,147,74092,5,14,0:0:0:0:
270,362,74242,1,2,3:2:0:0:
175,156,74392,2,0,P|168:114|211:54,1,99.0000030212403,10|0,0:0|3:0,0:0:0:0:
449,96,74692,1,10,0:0:0:0:
258,226,74842,1,2,3:2:0:0:
285,15,74992,2,0,P|327:8|387:51,1,99.0000030212403,10|0,0:0|3:0,0:0:0:0:
300,292,75292,5,10,0:0:0:0:
193,65,75442,1,0,3:2:0:0:
441,248,75592,1,10,0:0:0:0:
375,33,75742,1,0,3:2:0:0:
182,212,75892,1,10,0:0:0:0:
434,120,76042,1,0,3:2:0:0:
172,221,76192,2,0,P|111:221|60:197,1,99.0000030212403,8|0,0:0|3:0,0:0:0:0:
295,29,76492,5,12,0:0:0:0:
201,305,76642,1,0,1:0:0:0:
69,21,76792,1,2,3:2:0:0:
353,194,76942,1,8,0:0:0:0:
31,282,77092,5,2,3:2:0:0:
214,17,77242,1,0,3:2:0:0:
289,326,77392,1,10,0:0:0:0:
53,136,77542,1,0,3:0:0:0:
366,102,77692,5,6,3:2:0:0:
194,348,77842,1,8,0:0:0:0:
194,348,77917,1,8,0:0:0:0:
194,348,77992,2,0,L|179:271,1,49.5000015106202,8|0,0:0|3:0,0:0:0:0:
128,41,78142,2,0,L|113:118,1,49.5000015106202,0|0,3:0|3:0,0:0:0:0:
16,338,78292,2,0,P|14:300|0:207,1,99.0000030212403,8|0,0:0|3:0,0:0:0:0:
256,32,78892,5,8,0:0:0:0:
256,32,79792,1,8,0:0:0:0:
347,207,79942,1,8,0:0:0:0:
434,34,80092,2,0,B|396:17|396:17|333:53,1,90,2|0,3:2|3:0,0:0:0:0:
192,198,80392,1,8,0:0:0:0:
406,276,80542,2,0,B|438:203|438:203|369:84,1,180,2|0,3:2|3:0,0:0:0:0:
243,307,80992,1,8,0:0:0:0:
145,100,81142,1,0,3:0:0:0:
347,207,81292,5,12,0:0:0:0:
347,207,82192,1,4,3:0:0:0:
96,242,82342,1,4,3:0:0:0:
347,206,82492,6,0,B|334:149|334:149|306:133,1,90,2|0,3:2|3:0,0:0:0:0:
159,346,82792,1,8,0:0:0:0:
347,206,82942,2,0,B|307:224|307:224|147:178,1,180,2|0,3:2|3:0,0:0:0:0:
1,297,83392,2,0,L|9:227,1,45,0|0,3:0|3:0,3:0:0:0:
122,73,83542,1,0,3:0:0:0:
122,73,83617,1,0,3:0:0:0:
122,73,83692,5,8,0:0:0:0:
122,73,84442,1,0,3:0:0:0:
312,190,84592,5,8,0:0:0:0:
184,8,84742,1,8,0:0:0:0:
164,246,84892,2,0,B|174:137,1,90,2|0,3:2|3:0,0:0:0:0:
305,12,85192,1,8,0:0:0:0:
272,276,85342,2,0,B|254:79,1,180,2|0,3:2|3:0,0:0:0:0:
378,276,85792,1,8,0:0:0:0:
433,62,85942,1,0,3:0:0:0:
176,199,86092,5,6,3:2:0:0:
483,269,86242,1,2,3:2:0:0:
312,18,86392,1,10,0:0:0:0:
266,316,86542,1,10,0:0:0:0:
452,182,86692,2,0,B|470:159|470:159|458:82,1,90,2|0,0:0|3:0,0:0:0:0:
206,174,86992,5,10,0:2:0:0:
401,273,87142,1,2,3:2:0:0:
328,50,87292,2,0,B|288:32|288:32|238:71,1,90,2|0,3:2|3:0,0:0:0:0:
112,199,87592,2,0,P|33:153|33:61,1,180,8|0,0:0|0:0,0:0:0:0:
209,236,88042,1,8,0:0:0:0:
237,240,88117,1,8,0:0:0:0:
265,234,88192,1,8,0:0:0:0:
291,218,88267,1,8,0:0:0:0:
307,194,88342,1,8,0:0:0:0:
317,165,88417,1,8,0:0:0:0:
313,136,88492,6,0,L|301:81,1,45,6|0,3:2|0:0,0:0:0:0:
394,306,88642,2,0,L|384:349,1,45,2|0,0:2|0:0,0:0:0:0:
494,73,88792,1,10,0:0:0:0:
230,167,88942,1,2,0:0:0:0:
488,251,89092,5,10,0:0:0:0:
303,92,89242,1,2,3:2:0:0:
394,305,89392,2,0,L|414:155,1,135,10|0,0:0|0:0,0:0:0:0:
416,128,89692,5,6,3:2:0:0:
189,197,89842,1,2,0:0:0:0:
394,305,89992,2,0,L|378:185,1,90,10|0,0:0|3:0,0:0:0:0:
189,46,90292,1,10,0:0:0:0:
140,328,90442,1,2,0:0:0:0:
332,137,90592,2,0,B|342:96|342:96|298:38,1,90,10|0,0:0|3:0,0:0:0:0:
45,175,90892,6,0,L|100:187,1,45,6|0,3:2|0:0,0:0:0:0:
312,290,91042,2,0,L|268:299,1,45,2|0,0:2|0:0,0:0:0:0:
49,358,91192,1,10,0:0:0:0:
245,220,91342,1,2,0:0:0:0:
0,271,91492,5,10,0:0:0:0:
232,109,91642,1,2,3:2:0:0:
0,271,91792,2,0,L|150:291,1,135,10|0,0:0|0:0,0:0:0:0:
190,296,92092,6,0,B|204:258|204:258|185:194,1,90,2|0,3:2|0:0,0:0:0:0:
50,38,92392,2,0,B|35:85|35:85|49:123,1,90,2|0,0:0|3:0,0:0:0:0:
302,188,92692,1,10,0:0:0:0:
0,272,92842,1,2,0:0:0:0:
179,51,92992,2,0,P|221:49|261:110,1,90,10|0,0:0|3:0,0:0:0:0:
377,299,93292,6,0,L|365:354,1,45,6|0,3:2|0:0,0:0:0:0:
478,121,93442,2,0,L|468:78,1,45,2|0,0:2|0:0,0:0:0:0:
259,228,93592,1,10,0:0:0:0:
490,257,93742,1,2,0:0:0:0:
331,80,93892,5,10,0:0:0:0:
387,347,94042,1,2,3:2:0:0:
478,121,94192,2,0,L|458:15,1,90,10|2,0:0|3:2,0:0:0:0:
193,146,94492,5,6,3:2:0:0:
460,237,94642,1,2,0:0:0:0:
151,243,94792,1,10,0:2:0:0:
395,117,94942,1,2,3:2:0:0:
272,348,95092,1,10,0:0:0:0:
148,81,95242,1,2,0:0:0:0:
278,358,95392,2,0,L|298:252,1,90,10|0,0:0|3:2,0:0:0:0:
233,19,95692,5,6,3:2:0:0:
58,245,95842,1,2,3:2:0:0:
304,179,95992,1,2,3:2:0:0:
58,63,96142,1,2,3:2:0:0:
162,338,96292,5,2,3:2:0:0:
299,78,96442,1,0,3:2:0:0:
252,366,96592,5,2,3:2:0:0:
151,56,96742,1,0,3:2:0:0:
442,236,96892,5,2,3:2:0:0:
38,158,97042,1,8,0:0:0:0:
478,129,97192,1,8,0:0:0:0:
38,269,97342,1,8,0:0:0:0:
373,30,97492,1,8,0:0:0:0:
373,30,98692,1,8,0:0:0:0:
373,30,99009,6,0,P|390:66|385:113,1,72,6|0,3:2|0:0,0:0:0:0:
261,216,99309,1,10,0:0:0:0:
280,51,99459,1,8,0:0:0:0:
376,187,99609,2,0,P|447:184|512:153,1,144,2|10,0:2|0:0,0:0:0:0:
480,65,100059,1,0,3:2:0:0:
376,187,100209,6,0,L|388:266,1,72,2|0,3:2|0:0,0:0:0:0:
189,310,100509,1,10,0:0:0:0:
290,170,100659,1,10,0:0:0:0:
301,310,100809,1,2,0:0:0:0:
178,224,100959,1,0,3:0:0:0:
178,224,101109,2,0,L|104:212,1,72,10|0,0:2|3:0,0:0:0:0:
20,74,101409,6,0,L|94:62,1,72,2|0,3:2|0:0,0:0:0:0:
295,91,101709,1,10,0:0:0:0:
124,142,101859,1,8,0:0:0:0:
194,0,102009,2,0,L|199:86,1,72,2|0,0:0|3:0,0:0:0:0:
288,224,102309,1,8,0:0:0:0:
388,101,102459,1,0,3:0:0:0:
198,200,102609,6,0,B|182:227|182:227|155:225|92:253,1,108,2|0,3:2|0:0,0:0:0:0:
69,239,102909,1,2,0:0:0:0:
169,95,103059,1,10,0:0:0:0:
286,242,103209,2,0,P|356:254|421:218,1,144,2|8,0:0|0:0,0:0:0:0:
468,86,103659,1,2,0:0:0:0:
231,177,103809,1,8,0:0:0:0:
231,177,104559,5,0,3:0:0:0:
373,54,104709,1,10,0:0:0:0:
345,207,104859,1,0,3:0:0:0:
241,88,105009,2,0,P|240:57|262:3,1,72,2|0,3:2|0:0,0:0:0:0:
426,131,105309,1,8,0:0:0:0:
267,244,105459,1,8,0:0:0:0:
429,290,105609,6,0,L|422:208,1,72,2|0,0:0|3:0,0:0:0:0:
241,88,105909,1,10,0:0:0:0:
337,284,106059,1,2,3:2:0:0:
416,25,106209,5,12,0:0:0:0:
153,175,106359,1,0,3:0:0:0:
429,290,106509,1,2,3:2:0:0:
241,88,106659,1,8,0:0:0:0:
326,336,106809,6,0,B|341:304|341:304|323:220,1,90,2|0,3:2|3:0,0:0:0:0:
237,5,107109,1,8,0:0:0:0:
90,275,107259,1,0,3:0:0:0:
375,109,107409,1,6,3:2:0:0:
42,41,107559,1,8,0:0:0:0:
42,41,107634,1,8,0:0:0:0:
42,41,107709,2,0,L|57:118,1,45,8|0,0:0|3:0,0:0:0:0:
167,327,107859,1,8,3:0:0:0:
167,327,107934,1,8,3:0:0:0:
167,327,108009,2,8,B|175:276|175:276|192:256|192:256|204:177,1,135,10|0,0:0|0:0,0:0:0:0:
238,173,108309,1,8,0:0:0:0:
238,173,108609,6,0,P|243:133|204:86,1,72,6|0,3:2|0:0,0:0:0:0:
43,187,108909,1,10,0:0:0:0:
173,319,109059,1,8,0:0:0:0:
173,319,109209,2,0,B|90:314|115:356|31:362,1,144,2|10,0:2|0:0,0:0:0:0:
0,292,109659,1,0,3:2:0:0:
184,247,109809,6,0,L|172:321,1,72,2|0,3:2|0:0,0:0:0:0:
387,317,110109,1,10,0:0:0:0:
216,167,110259,1,10,0:0:0:0:
264,362,110409,2,0,B|278:340|301:327|301:327|283:215,1,144,2|8,0:0|0:0,0:0:0:0:
370,88,110859,1,0,3:0:0:0:
479,247,111009,6,0,L|405:235,1,72,2|0,3:2|0:0,0:0:0:0:
246,106,111309,1,10,0:0:0:0:
424,5,111459,1,8,0:0:0:0:
349,162,111609,2,0,L|337:88,1,72,2|0,0:2|3:0,0:0:0:0:
150,37,111909,1,8,0:0:0:0:
229,174,112059,1,0,3:0:0:0:
402,46,112209,6,0,B|461:60|461:60|486:95|455:141,1,144,2|8,3:2|0:0,0:0:0:0:
376,296,112659,1,10,0:0:0:0:
262,172,112809,2,0,P|252:115|261:38,1,108,2|0,3:2|0:0,0:0:0:0:
298,42,113109,1,8,0:0:0:0:
170,163,113259,1,2,3:2:0:0:
358,263,113409,5,8,3:2:0:0:
358,263,113709,1,10,0:0:0:0:
137,325,113859,1,8,0:0:0:0:
287,361,114009,2,0,L|276:275,1,72,2|0,0:0|3:0,0:0:0:0:
175,107,114309,1,10,0:0:0:0:
137,325,114459,1,2,3:2:0:0:
320,192,114609,2,0,L|404:183,1,72,2|0,3:2|0:0,0:0:0:0:
240,34,114909,5,8,0:0:0:0:
175,239,115059,1,8,0:0:0:0:
41,31,115209,1,2,0:0:0:0:
69,258,115359,1,2,3:2:0:0:
154,21,115509,2,0,L|164:101,1,72,10|0,0:0|3:0,0:0:0:0:
238,377,115809,5,12,0:0:0:0:
238,377,115884,1,2,0:0:0:0:
238,377,115959,2,0,L|250:306,1,45
314,51,116109,1,2,3:2:0:0:
442,324,116259,1,8,0:0:0:0:
156,217,116409,1,2,3:2:0:0:
454,116,116559,1,0,3:2:0:0:
83,143,116709,5,10,0:0:0:0:
451,232,116859,1,0,3:0:0:0:
157,15,117009,1,2,3:2:0:0:
264,332,117159,1,8,0:0:0:0:
264,332,117234,1,8,0:0:0:0:
264,332,117309,2,0,L|274:252,1,45,8|0,0:0|3:0,0:0:0:0:
381,38,117459,2,0,L|377:113,1,45,0|0,3:0|3:0,0:0:0:0:
161,244,117609,2,0,B|134:253|111:249|111:249|96:268|87:280|87:280|68:276|15:294,1,135,10|0,0:0|0:0,0:0:0:0:
19,328,117909,1,8,0:0:0:0:
137,144,118209,6,0,L|156:-1,1,107.999996704102,14|0,0:2|3:0,0:0:0:0:
386,223,118509,2,0,L|367:78,1,107.999996704102,10|0,0:2|3:0,0:0:0:0:
130,310,118809,1,10,0:0:0:0:
258,23,118959,1,10,0:0:0:0:
326,336,119109,1,10,0:2:0:0:
137,144,119259,1,0,3:0:0:0:
401,299,119409,6,0,L|546:280,1,107.999996704102,14|0,0:2|3:0,0:0:0:0:
321,68,119709,2,0,L|176:87,1,107.999996704102,10|0,0:2|3:0,0:0:0:0:
39,269,120009,1,10,0:0:0:0:
303,168,120159,1,10,0:0:0:0:
51,76,120309,2,0,P|16:110|24:174,1,107.999996704102,10|0,0:0|3:0,3:0:0:0:
265,354,120609,5,10,0:0:0:0:
138,84,120759,1,2,3:2:0:0:
73,362,120909,1,2,3:2:0:0:
139,97,121059,1,8,0:0:0:0:
324,286,121209,5,2,3:2:0:0:
24,243,121359,1,2,3:2:0:0:
277,84,121509,2,0,P|313:130|315:189,1,107.999996704102,10|0,0:0|3:0,3:0:0:0:
58,326,121809,5,14,0:0:0:0:
183,70,121959,1,2,3:2:0:0:
265,341,122109,1,2,3:2:0:0:
54,37,122259,5,10,0:0:0:0:
161,298,122409,1,2,3:2:0:0:
258,30,122559,1,2,3:2:0:0:
162,342,122709,5,10,0:0:0:0:
60,71,122859,1,0,3:0:0:0:
306,275,123009,6,0,L|451:256,1,107.999996704102,14|0,0:2|3:0,0:0:0:0:
494,33,123309,2,0,L|387:19,1,107.999996704102,10|0,0:2|3:0,0:0:0:0:
147,187,123609,1,10,0:0:0:0:
498,265,123759,1,10,0:0:0:0:
264,24,123909,1,10,0:0:0:0:
368,293,124059,1,0,3:0:0:0:
492,32,124209,6,0,L|347:51,1,107.999996704102,14|0,0:2|3:0,0:0:0:0:
136,182,124509,2,0,L|243:197,1,107.999996704102,10|0,0:2|3:0,0:0:0:0:
461,130,124809,1,10,0:0:0:0:
181,26,124959,1,10,0:0:0:0:
307,286,125109,2,0,P|348:250|347:198,1,107.999996704102,10|0,0:0|3:0,3:0:0:0:
40,144,125409,5,10,0:0:0:0:
358,55,125559,1,2,3:2:0:0:
125,335,125709,1,2,3:2:0:0:
199,23,125859,1,10,0:0:0:0:
255,359,126009,5,2,3:2:0:0:
109,73,126159,1,0,3:2:0:0:
449,223,126309,5,10,0:0:0:0:
95,327,126459,1,0,3:2:0:0:
285,7,126609,5,2,3:2:0:0:
378,346,126756,2,0,L|341:301,1,45,10|8,0:0|0:0,0:0:0:0:
82,184,126904,1,0,3:0:0:0:
82,184,126978,1,0,3:0:0:0:
82,184,127052,2,0,L|149:179,1,53.9999983520508,0|0,3:0|3:0,0:0:0:0:
395,90,127200,5,8,0:0:0:0:
275,372,127347,1,8,0:0:0:0:
237,372,127421,1,8,0:0:0:0:
199,369,127495,1,8,0:0:0:0:
163,355,127569,1,8,0:0:0:0:
134,330,127643,1,8,0:0:0:0:
118,295,127717,1,8,0:0:0:0:
113,254,127791,6,0,L|251:238,1,116.999994644165,12|0,0:2|3:0,0:0:0:0:
511,103,128091,2,0,L|373:87,1,116.999994644165,10|0,0:2|3:0,0:0:0:0:
50,178,128391,1,10,0:0:0:0:
314,300,128541,1,0,3:0:0:0:
213,0,128691,2,0,L|197:138,1,116.999994644165,10|0,0:2|3:0,0:0:0:0:
85,342,128991,5,10,0:0:0:0:
35,74,129141,1,0,3:2:0:0:
204,324,129291,1,10,0:0:0:0:
159,53,129441,1,0,3:2:0:0:
12,292,129591,5,10,0:0:0:0:
304,220,129741,1,0,3:2:0:0:
35,74,129891,1,10,0:0:0:0:
339,113,130041,1,0,3:2:0:0:
125,356,130191,6,0,L|141:218,1,116.999994644165,12|0,0:2|3:0,0:0:0:0:
395,25,130491,2,0,L|411:163,1,116.999994644165,10|0,0:2|3:0,0:0:0:0:
253,349,130791,1,10,0:0:0:0:
164,73,130941,1,0,3:0:0:0:
472,232,131091,2,0,L|334:216,1,116.999994644165,10|0,0:2|0:0,0:0:0:0:
38,125,131391,5,10,0:0:0:0:
311,57,131541,1,0,3:2:0:0:
43,243,131691,1,10,0:0:0:0:
301,289,131841,1,0,3:2:0:0:
224,16,131991,5,10,0:0:0:0:
164,314,132141,1,0,3:2:0:0:
90,15,132291,1,10,0:0:0:0:
13,322,132441,1,0,3:2:0:0:
231,26,132591,6,0,L|247:164,1,116.999994644165,12|0,0:2|3:0,0:0:0:0:
448,355,132891,2,0,L|464:217,1,116.999994644165,10|0,0:2|3:0,0:0:0:0:
359,1,133191,1,10,0:0:0:0:
220,269,133341,1,0,3:0:0:0:
507,135,133491,2,0,L|369:119,1,116.999994644165,10|0,0:2|0:0,0:0:0:0:
89,15,133791,5,10,0:0:0:0:
49,298,133941,1,0,3:2:0:0:
231,38,134091,1,10,0:0:0:0:
208,323,134241,1,0,3:2:0:0:
7,79,134391,5,10,0:0:0:0:
336,149,134541,1,0,3:2:0:0:
0,222,134691,1,10,0:0:0:0:
330,276,134841,1,0,3:2:0:0:
118,3,134991,6,0,B|89:39|89:39|107:130,1,116.999994644165,6|2,3:2|3:2,0:0:0:0:
256,352,135291,1,0,3:2:0:0:
322,40,135441,1,0,3:2:0:0:
59,190,135591,5,2,3:2:0:0:
396,289,135741,1,0,3:2:0:0:
218,12,135891,5,2,3:2:0:0:
97,351,136041,1,0,3:2:0:0:
472,162,136191,5,10,0:0:0:0:
28,59,136341,1,8,0:0:0:0:
486,170,136491,1,8,0:0:0:0:
0,254,136641,1,8,0:0:0:0:
248,18,136791,6,0,L|263:136,1,90,8|0,0:0|3:0,0:0:0:0:
474,259,137091,2,0,L|489:141,1,90,8|0,0:0|3:0,0:0:0:0:
160,320,137391,5,4,3:2:0:0:
256,192,137466,12,0,142791,0:0:0:0:
