osu file format v14

[General]
AudioFilename: audio.mp3
AudioLeadIn: 0
PreviewTime: 30817
Countdown: 0
SampleSet: Soft
StackLeniency: 0.2
Mode: 0
LetterboxInBreaks: 0
WidescreenStoryboard: 1

[Editor]
Bookmarks: 2092,11692,21292,30892,40492,50085,59685,69292,78892,88492,99009,108609,118209,127809
DistanceSpacing: 3.1
BeatDivisor: 4
GridSize: 32
TimelineZoom: 2.679999

[Metadata]
Title:EVERYBODY DO THE FLOP
TitleUnicode:EVERYBODY DO THE FLOP
Artist:LilDeuceDeuce
ArtistUnicode:LilDeuceDeuce
Creator:wafer
Version:John Mapping's Normal
Source:asdfmovie
Tags:english rock novelty meme mine turtle tomska goopert kami no kotoba todd bryanton akitoshi kowari tilda dragonicz john mapping pepekcz
BeatmapID:3974639
BeatmapSetID:1920362

[Difficulty]
HPDrainRate:3
CircleSize:3
OverallDifficulty:5
ApproachRate:6
SliderMultiplier:0.999999999999999
SliderTickRate:1

[Events]
//Background and Video events
0,0,"do the flop guyu.png",0,0
//Break Periods
//Storyboard Layer 0 (Background)
//Storyboard Layer 1 (Fail)
//Storyboard Layer 2 (Pass)
//Storyboard Layer 3 (Foreground)
//Storyboard Layer 4 (Overlay)
//Storyboard Sound Samples

[TimingPoints]
892,300,4,2,1,50,1,0
892,-100,4,2,1,50,0,0
1792,-100,4,2,3,50,0,0
2092,300,4,2,1,70,1,0
2092,-100,4,2,1,70,0,0
11392,-100,4,2,3,70,0,0
11692,-111.111111111111,4,2,1,60,0,0
18892,-99.9999999999999,4,2,1,70,0,0
20992,-99.9999999999999,4,2,3,70,0,0
21292,-111.111111111111,4,2,1,60,0,0
28492,-100,4,2,1,70,0,0
30592,-100,4,2,3,70,0,0
30892,-90.9090909090909,4,2,1,80,0,0
40192,-90.9090909090909,4,2,3,80,0,0
40492,-111.111111111111,4,2,1,60,0,0
40504,300,4,2,1,60,1,0
40504,-111.111111111111,4,2,1,60,0,0
41085,-111.111111111111,4,2,1,60,0,0
47685,-100,4,2,1,60,0,0
48285,-100,4,2,1,70,0,0
49785,-100,4,2,3,70,0,0
50085,-111.111111111111,4,2,1,60,0,0
57285,-100,4,2,1,70,0,0
59385,-100,4,2,3,70,0,0
59685,-90.9090909090909,4,2,1,80,0,0
66892,300,4,2,1,80,1,0
66892,-90.9090909090909,4,2,1,80,0,0
68992,-90.9090909090909,4,2,1,60,0,0
69292,300,4,2,1,75,1,0
69292,-90.9090909090909,4,2,1,75,0,0
79792,-100,4,2,1,70,0,0
87892,-90.9090909090909,4,2,1,70,0,0
88492,-90.9090909090909,4,2,1,80,0,0
95692,-90.9090909090909,4,2,1,85,0,0
97492,-111.111111111111,4,2,1,85,0,0
97567,-111.111111111111,4,2,2,5,0,0
98692,-111.111111111111,4,2,3,85,0,0
99009,300,4,2,1,60,1,0
99009,-111.111111111111,4,2,1,60,0,0
106209,-100,4,2,1,70,0,0
108309,-100,4,2,3,70,0,0
108609,-111.111111111111,4,2,1,60,0,0
115809,-100,4,2,1,70,0,0
117909,-100,4,2,3,70,0,0
118209,-90.9090909090909,4,2,1,80,0,0
126609,295.566502463054,4,2,1,80,1,0
126609,-90.9090909090909,4,2,1,80,0,0
127791,300,4,2,1,80,1,0
127791,-90.9090909090909,4,2,1,85,0,0
135591,-90.9090909090909,4,2,1,90,0,0
136191,-90.9090909090909,4,2,1,100,0,0
136791,-90.9090909090909,4,2,1,60,0,0
138591,-90.9090909090909,4,2,2,50,0,0
139491,-90.9090909090909,4,2,1,40,0,0
140691,-90.9090909090909,4,2,2,30,0,0
141891,-90.9090909090909,4,2,2,20,0,0
142491,-90.9090909090909,4,2,2,10,0,0
142791,-90.9090909090909,4,2,1,5,0,0

[Colours]
Combo1 : 136,184,198
Combo2 : 184,184,220
Combo3 : 154,188,245
Combo4 : 174,140,189

[HitObjects]
435,102,1792,5,8,0:0:0:0:
483,189,2092,6,0,P|461:259|459:299,1,99.9999999999999,4|8,3:2|0:2,0:0:0:0:
402,368,2692,2,0,P|376:358|349:354,1,50,8|8,0:0|0:0,0:0:0:0:
323,314,2992,1,8,0:0:0:0:
239,369,3292,6,0,P|217:299|215:259,1,99.9999999999999,4|8,3:2|0:2,0:0:0:0:
159,190,3892,2,0,P|133:200|106:204,1,50,8|8,0:0|0:0,0:0:0:0:
80,244,4192,1,8,0:0:0:0:
48,149,4492,6,0,P|65:103|70:47,1,99.9999999999999,12|0,0:0|3:0,0:0:0:0:
106,17,4942,2,0,P|161:30|218:17,1,99.9999999999999,12|0,0:0|3:0,0:0:0:0:
238,58,5392,1,8,0:2:0:0:
335,80,5692,6,0,L|390:61,2,50,14|2|2,0:0|3:2|3:2,0:0:0:0:
305,113,6142,2,0,L|250:94,2,50,10|2|2,0:0|3:2|3:2,0:0:0:0:
330,156,6592,1,10,0:0:0:0:
269,235,6892,6,0,P|226:223|152:227,1,99.9999999999999,4|8,3:2|0:2,0:0:0:0:
76,189,7492,2,0,P|57:163|49:135,1,50,8|8,0:0|0:0,0:0:0:0:
66,98,7792,1,8,0:0:0:0:
144,36,8092,6,0,P|187:48|261:44,1,99.9999999999999,4|8,3:2|0:2,0:0:0:0:
337,82,8692,2,0,P|356:108|364:136,1,50,8|8,0:0|0:0,0:0:0:0:
347,173,8992,1,8,0:0:0:0:
384,265,9292,6,0,P|322:314|306:347,1,99.9999999999999,12|0,0:0|3:0,0:0:0:0:
254,319,9742,1,8,0:0:0:0:
214,349,9892,2,0,P|181:336|108:328,1,99.9999999999999,0|8,3:0|0:0,0:0:0:0:
43,259,10492,6,0,P|32:227|37:201,1,50,0|8,3:0|0:0,0:0:0:0:
4,171,10792,2,0,P|18:141|40:126,1,50,0|0,3:0|3:0,0:0:0:0:
49,83,11092,2,0,B|137:89|137:89|146:100,1,99.9999999999999,8|8,3:2|0:0,0:0:0:0:
202,168,11692,6,0,P|209:194|210:219,2,44.999998626709,6|0|10,3:2|0:0|0:0,0:0:0:0:
231,82,12292,2,0,P|263:59|321:54,1,89.999997253418,2|10,0:2|0:0,0:0:0:0:
352,31,12742,1,0,3:2:0:0:
352,31,12892,2,0,P|375:74|424:103,1,89.999997253418,2|10,3:2|0:0,0:0:0:0:
452,94,13342,1,10,0:0:0:0:
452,94,13492,1,2,0:0:0:0:
503,167,13792,6,0,P|510:190|506:220,1,44.999998626709,10|0,0:2|3:0,0:0:0:0:
473,239,14092,2,0,P|432:263|420:318,1,89.999997253418,2|10,3:2|0:0,0:0:0:0:
378,314,14542,1,8,0:0:0:0:
378,314,14692,1,2,0:0:0:0:
290,333,14992,6,0,P|284:357|285:380,2,44.999998626709,8|0|2,0:0|3:0|3:2,0:0:0:0:
219,276,15592,2,0,P|180:263|130:263,1,89.999997253418,8|2,0:0|0:0,0:0:0:0:
99,231,16042,1,2,3:2:0:0:
99,231,16192,1,8,0:0:0:0:
23,279,16492,5,8,3:2:0:0:
288,231,17392,2,0,L|301:183,2,44.999998626709,10|0|2,0:0|3:0|3:2,0:0:0:0:
364,279,17992,2,0,L|377:327,2,44.999998626709,8|8|2,0:0|0:0|0:0,0:0:0:0:
440,227,18592,1,10,0:0:0:0:
440,227,18742,1,0,3:0:0:0:
440,227,18892,6,0,L|471:123,1,99.9999999999999,12|2,0:0|3:2,0:0:0:0:
446,86,19342,2,0,L|350:57,1,99.9999999999999,8|0,0:0|3:0,0:0:0:0:
311,89,19792,1,8,0:0:0:0:
211,96,20092,6,0,P|194:117|190:150,1,50,6|8,3:2|0:0,0:0:0:0:
145,162,20392,2,0,P|148:188|168:214,1,50,8|0,0:0|3:0,0:0:0:0:
144,255,20692,2,0,B|232:261|232:261|241:272,1,99.9999999999999,10|8,0:0|0:0,0:0:0:0:
316,224,21292,6,0,L|352:119,2,89.999997253418,6|10|2,3:2|0:0|0:2,0:0:0:0:
346,314,22192,1,10,0:0:0:0:
346,314,22342,2,0,P|358:334|391:344,1,44.999998626709,0|2,3:2|3:2,0:0:0:0:
459,303,22792,1,10,0:0:0:0:
459,303,22942,2,0,P|458:277|444:244,1,44.999998626709,10|2,0:0|0:0,0:0:0:0:
420,174,23392,2,0,P|416:138|424:114,2,44.999998626709,8|0|2,0:0|3:0|3:2,0:0:0:0:
320,192,23992,2,0,P|270:163|220:155,2,89.999997253418,10|2|8,0:0|0:2|0:0,0:0:0:0:
368,190,24742,1,0,3:0:0:0:
368,190,24892,2,0,P|378:238|408:281,1,89.999997253418,2|10,3:2|0:0,0:0:0:0:
447,289,25342,1,10,0:0:0:0:
447,289,25492,2,0,P|408:324|391:369,1,89.999997253418,2|8,0:0|0:0,0:0:0:0:
305,375,26092,5,8,3:2:0:0:
237,315,26392,1,10,0:0:0:0:
148,333,26692,2,0,P|124:352|112:371,2,44.999998626709,2|0|10,0:0|3:0|0:0,0:0:0:0:
77,276,27292,2,0,P|65:232|39:184,1,89.999997253418,2|8,3:2|0:0,0:0:0:0:
71,158,27742,1,8,0:0:0:0:
71,158,27892,2,0,P|70:127|93:51,1,89.999997253418,2|10,0:0|0:0,0:0:0:0:
172,23,28492,6,0,P|197:18|220:6,2,50,12|0|2,0:0|0:0|3:2,0:0:0:0:
171,77,28942,1,8,0:0:0:0:
171,77,29092,2,0,P|199:102|235:168,1,99.9999999999999,2|8,3:2|0:0,0:0:0:0:
315,208,29692,6,0,P|314:248|301:269,1,50,6|8,3:2|0:0,0:0:0:0:
322,305,29992,2,0,P|286:324|262:323,1,50,8|0,0:0|3:0,0:0:0:0:
253,367,30292,2,0,B|165:373|165:373|156:384,1,99.9999999999999,10|8,0:0|0:0,0:0:0:0:
61,328,30892,6,0,L|52:207,2,110.000003356934,14|10|10,0:2|0:2|0:0,0:0:0:0:
109,355,31642,1,10,0:0:0:0:
157,382,31792,1,10,0:0:0:0:
253,329,32092,6,0,L|244:208,2,110.000003356934,14|10|10,0:2|0:2|0:0,0:0:0:0:
301,356,32842,1,10,0:0:0:0:
350,380,32992,1,10,0:0:0:0:
446,327,33292,6,0,L|437:206,1,110.000003356934,10|2,0:0|3:2,0:0:0:0:
389,190,33742,2,0,L|398:69,1,110.000003356934,8|2,0:0|3:2,0:0:0:0:
433,38,34192,1,10,0:0:0:0:
324,19,34492,6,0,L|268:-2,2,55.0000016784668,14|2|2,0:0|3:2|3:2,0:0:0:0:
344,62,34942,2,0,L|398:80,2,55.0000016784668,10|2|2,0:0|3:2|3:2,0:0:0:0:
302,99,35392,2,0,L|246:78,1,55.0000016784668,10|0,0:0|3:0,0:0:0:0:
208,123,35692,6,0,L|217:244,2,110.000003356934,14|10|10,0:2|0:2|0:0,0:0:0:0:
160,96,36442,1,10,0:0:0:0:
112,69,36592,1,10,0:0:0:0:
16,123,36892,6,0,L|7:244,2,110.000003356934,14|10|10,0:2|0:2|0:0,0:0:0:0:
64,96,37642,1,10,0:0:0:0:
112,69,37792,1,10,0:0:0:0:
114,178,38092,6,0,L|116:296,1,110.000003356934,10|2,0:0|3:2,0:0:0:0:
158,323,38542,2,0,L|267:321,1,110.000003356934,10|0,0:0|3:2,0:0:0:0:
309,357,38992,1,10,0:0:0:0:
418,361,39292,2,0,P|441:338|447:303,1,55.0000016784668,2|8,3:2|0:0,0:0:0:0:
493,287,39592,2,0,P|483:256|456:233,1,55.0000016784668,8|0,0:0|3:0,0:0:0:0:
448,188,39892,2,0,B|351:196|351:196|344:206,1,110.000003356934,8|8,3:2|0:0,0:0:0:0:
265,161,40504,6,0,P|257:129|255:105,2,44.999998626709,6|0|10,3:2|0:0|0:0,0:0:0:0:
192,215,41104,2,0,P|147:207|88:209,1,89.999997253418,2|10,0:2|0:0,0:0:0:0:
69,176,41554,1,0,3:2:0:0:
69,176,41704,2,0,P|57:129|31:78,1,89.999997253418,2|10,3:2|0:0,0:0:0:0:
58,50,42154,1,8,0:0:0:0:
58,50,42304,2,0,P|61:20|71:-5,2,44.999998626709,2|0|10,0:0|3:0|0:2,0:0:0:0:
127,107,42904,2,0,P|165:94|212:61,1,89.999997253418,2|10,3:2|0:0,0:0:0:0:
254,79,43354,1,8,0:0:0:0:
254,79,43504,1,2,0:0:0:0:
313,11,43804,2,0,P|330:30|343:52,1,44.999998626709,8|0,0:0|3:0,0:0:0:0:
384,56,44104,2,0,L|486:31,2,89.999997253418,2|8|2,3:2|0:0|0:0,0:0:0:0:
331,128,45004,6,0,P|321:162|324:182,1,44.999998626709,8|2,0:0|0:0,0:0:0:0:
285,196,45304,1,10,3:2:0:0:
343,264,45604,1,10,0:0:0:0:
274,322,45904,2,0,P|216:336|181:360,1,89.999997253418,2|8,0:0|0:0,0:0:0:0:
149,334,46354,1,0,3:0:0:0:
149,334,46504,2,0,P|94:360|51:367,2,89.999997253418,2|8|2,3:2|0:0|0:2,0:0:0:0:
179,249,47404,1,10,0:0:0:0:
179,249,47554,1,0,3:0:0:0:
179,249,47704,6,0,L|148:145,1,99.9999999999999,12|2,0:0|3:2,0:0:0:0:
173,108,48154,2,0,L|269:79,1,99.9999999999999,8|0,0:0|3:0,0:0:0:0:
308,111,48604,1,10,0:0:0:0:
407,100,48904,6,0,P|424:121|428:154,1,50,6|8,3:2|0:0,0:0:0:0:
473,166,49204,2,0,P|470:192|450:218,1,50,8|0,0:0|3:0,0:0:0:0:
474,259,49504,2,0,B|386:265|386:265|377:276,1,99.9999999999999,10|8,0:0|0:0,0:0:0:0:
289,283,50104,6,0,P|314:327|328:385,2,89.999997253418,6|10|2,3:2|0:0|0:2,0:0:0:0:
211,236,51004,2,0,P|201:203|201:171,2,44.999998626709,10|0|2,0:2|3:2|1:2,0:0:0:0:
136,287,51604,2,0,P|126:319|126:351,2,44.999998626709,10|10|2,0:0|0:0|0:0,0:0:0:0:
51,255,52204,2,0,L|36:197,1,44.999998626709,8|0,0:0|3:0,0:0:0:0:
50,167,52504,1,2,1:2:0:0:
139,178,52804,2,0,L|241:151,1,89.999997253418,10|2,0:0|0:0,0:0:0:0:
255,120,53254,2,0,L|239:75,2,44.999998626709,0|10|2,3:0|0:0|3:2,0:0:0:0:
298,132,53704,1,2,3:2:0:0:
474,250,54904,6,0,L|460:344,2,89.999997253418,8|10|2,3:2|0:0|0:0,0:0:0:0:
396,204,55804,2,0,L|383:152,1,44.999998626709,10|0,0:0|3:0,0:0:0:0:
399,117,56104,2,0,P|417:99|444:95,2,44.999998626709,2|2|8,3:2|0:0|0:0,0:0:0:0:
318,76,56704,1,2,0:0:0:0:
236,93,57004,1,10,0:0:0:0:
236,93,57154,1,0,3:0:0:0:
236,93,57304,6,0,P|204:141|194:185,1,99.9999999999999,12|2,0:0|3:2,0:0:0:0:
149,205,57754,2,0,P|144:259|114:318,1,99.9999999999999,8|0,0:0|3:2,0:0:0:0:
148,345,58204,1,10,0:0:0:0:
48,358,58504,6,0,P|31:337|27:304,1,50,6|8,3:2|0:0,0:0:0:0:
0,271,58804,2,0,P|3:245|23:219,1,50,8|0,0:0|3:0,0:0:0:0:
53,189,59104,2,0,B|141:195|141:195|150:206,1,99.9999999999999,10|8,0:0|0:0,0:0:0:0:
202,300,59704,6,0,L|323:309,2,110.000003356934,14|10|10,0:2|0:2|0:0,0:0:0:0:
175,252,60454,1,10,0:0:0:0:
148,204,60604,1,10,0:2:0:0:
255,178,60904,6,0,L|376:187,2,110.000003356934,14|10|10,0:2|0:2|0:0,0:0:0:0:
228,130,61654,1,10,0:0:0:0:
201,82,61804,1,10,0:0:0:0:
308,56,62104,6,0,L|429:65,1,110.000003356934,10|2,0:0|3:2,0:0:0:0:
452,107,62554,2,0,L|443:228,1,110.000003356934,8|2,0:0|3:2,0:0:0:0:
396,245,63004,1,10,0:0:0:0:
286,254,63304,6,0,L|265:198,2,55.0000016784668,14|2|2,0:0|3:2|3:2,0:0:0:0:
263,304,63754,2,0,L|281:358,2,55.0000016784668,10|2|2,0:0|3:2|3:2,0:0:0:0:
208,296,64204,2,0,L|187:240,1,55.0000016784668,10|0,0:0|3:0,0:0:0:0:
135,230,64504,6,0,L|14:239,2,110.000003356934,14|10|10,0:2|0:2|0:0,0:0:0:0:
162,182,65254,1,10,0:0:0:0:
189,134,65404,1,10,0:0:0:0:
135,38,65704,6,0,L|14:29,2,110.000003356934,14|10|10,0:2|0:2|0:0,0:0:0:0:
162,86,66454,1,10,0:0:0:0:
189,134,66604,1,10,0:0:0:0:
298,138,66892,6,0,L|426:138,2,110.000003356934,10|2|2,0:0|3:2|3:2,0:0:0:0:
212,207,67792,1,10,0:0:0:0:
102,194,68092,6,0,P|85:173|81:140,1,55.0000016784668,2|10,3:2|0:2,0:0:0:0:
30,120,68392,2,0,P|33:94|53:68,1,55.0000016784668,0|0,3:0|3:0,0:0:0:0:
46,16,68692,2,0,B|158:27,1,110.000003356934,8|8,3:2|0:0,0:0:0:0:
217,118,69292,6,0,P|222:148|223:174,2,55.0000016784668,14|2|10,0:0|3:2|0:0,0:0:0:0:
305,53,69892,2,0,P|368:38|421:10,1,110.000003356934,10|10,0:0|0:0,0:0:0:0:
462,26,70342,1,0,3:0:0:0:
462,26,70492,1,10,0:0:0:0:
417,126,70792,1,10,0:0:0:0:
483,213,71092,1,10,0:0:0:0:
427,308,71392,1,10,0:0:0:0:
427,308,71542,1,2,3:2:0:0:
427,308,71692,6,0,L|306:288,1,110.000003356934,10|10,0:0|0:0,0:0:0:0:
211,318,72292,2,0,L|153:327,1,55.0000016784668,10|0,0:0|3:0,0:0:0:0:
125,372,72592,1,10,0:0:0:0:
78,272,72892,2,0,L|97:152,2,110.000003356934,10|10|8,0:0|0:0|0:0,0:0:0:0:
2,352,73792,1,8,0:0:0:0:
109,375,74092,6,0,P|146:367|177:369,2,55.0000016784668,14|2|10,0:0|3:2|0:0,0:0:0:0:
78,272,74692,1,10,0:0:0:0:
144,184,74992,1,10,0:0:0:0:
80,93,75292,2,0,P|31:83|10:88,2,55.0000016784668,10|0|10,0:0|3:2|0:0,0:0:0:0:
125,62,75742,1,0,3:2:0:0:
125,62,75892,2,0,L|233:39,1,110.000003356934,10|8,0:0|0:0,0:0:0:0:
330,88,76492,6,0,L|337:157,1,55.0000016784668,12|0,0:0|1:0,0:0:0:0:
381,172,76792,2,0,L|371:234,1,55.0000016784668,2|8,3:2|0:0,0:0:0:0:
333,265,77092,1,2,3:2:0:0:
377,365,77392,1,10,0:0:0:0:
268,382,77692,2,0,P|249:352|252:311,1,55.0000016784668,6|8,3:2|0:0,0:0:0:0:
212,290,77992,2,0,P|228:258|265:240,1,55.0000016784668,8|0,0:0|3:0,0:0:0:0:
256,192,78292,1,8,0:0:0:0:
256,192,78892,5,8,0:0:0:0:
256,192,79792,6,0,L|195:176,2,50,8|8|2,0:0|0:0|3:2,0:0:0:0:
357,171,80392,1,8,0:0:0:0:
357,171,80542,2,0,L|326:276,1,99.9999999999999,2|0,3:2|3:0,0:0:0:0:
283,288,80992,1,8,0:0:0:0:
256,192,81292,1,12,0:0:0:0:
256,192,82192,6,0,L|317:176,2,50,4|4|2,3:0|3:0|3:2,0:0:0:0:
155,171,82792,1,8,0:0:0:0:
155,171,82942,2,0,L|185:276,1,99.9999999999999,2|0,3:2|3:0,0:0:0:0:
229,288,83392,1,0,3:0:0:0:
256,192,83692,1,8,0:0:0:0:
256,192,84592,6,0,L|256:128,2,50,8|8|2,0:0|0:0|3:2,0:0:0:0:
260,306,85192,1,8,0:0:0:0:
260,306,85342,2,0,L|372:333,1,99.9999999999999,2|0,3:2|3:0,0:0:0:0:
406,317,85792,2,0,L|432:259,1,50,8|0,0:0|3:0,0:0:0:0:
471,248,86092,5,6,3:2:0:0:
397,179,86392,1,10,0:0:0:0:
303,214,86692,1,2,0:0:0:0:
220,157,86992,1,10,0:2:0:0:
144,222,87292,2,0,P|140:280|152:331,1,99.9999999999999,2|8,3:2|0:0,0:0:0:0:
237,360,87892,2,8,P|256:330|253:289,1,55.0000016784668,2|8,0:0|0:0,0:0:0:0:
291,280,88192,2,8,P|274:248|237:230,1,55.0000016784668
256,192,88492,5,6,3:2:0:0:
339,120,88792,1,10,0:0:0:0:
447,140,89092,1,10,0:0:0:0:
487,242,89392,1,10,0:0:0:0:
409,320,89692,2,0,P|401:354|402:376,2,55.0000016784668,6|2|10,3:2|0:0|0:0,0:0:0:0:
301,294,90292,2,0,P|293:317|287:356,2,55.0000016784668,10|2|10,0:0|0:0|0:0,0:0:0:0:
256,192,90892,5,6,3:2:0:0:
173,120,91192,1,10,0:0:0:0:
65,140,91492,1,10,0:0:0:0:
25,242,91792,1,10,0:0:0:0:
103,320,92092,2,0,P|111:354|110:376,2,55.0000016784668,2|0|2,3:2|0:0|0:0,0:0:0:0:
211,294,92692,2,0,P|219:317|225:356,2,55.0000016784668,10|2|10,0:0|0:0|0:0,0:0:0:0:
256,192,93292,5,6,3:2:0:0:
332,112,93592,1,10,0:0:0:0:
254,34,93892,2,0,L|135:20,1,110.000003356934,10|10,0:0|0:0,0:0:0:0:
96,48,94342,2,0,L|82:109,2,55.0000016784668,2|6|2,3:2|3:2|0:0,0:0:0:0:
51,15,94792,1,10,0:2:0:0:
0,112,95092,1,10,0:0:0:0:
63,201,95392,1,10,0:0:0:0:
7,296,95692,6,0,P|22:339|91:368,1,110.000003356934,6|2,3:2|3:2,0:0:0:0:
177,322,96292,2,0,P|186:280|176:252,2,55.0000016784668,2|0|2,3:2|3:2|3:2,0:0:0:0:
281,358,96892,2,0,L|344:347,1,55.0000016784668,2|0,3:2|3:0,0:0:0:0:
387,330,97192,2,0,L|407:275,1,55.0000016784668,8|8,0:0|0:0,0:0:0:0:
459,247,97492,1,8,0:0:0:0:
104,229,98692,1,8,0:0:0:0:
17,268,99009,6,0,P|15:289|0:318,2,44.999998626709,6|0|10,3:2|0:0|0:0,0:0:0:0:
27,178,99609,2,0,P|17:127|43:81,1,89.999997253418,2|10,0:2|0:0,0:0:0:0:
26,46,100059,1,0,3:2:0:0:
26,46,100209,2,0,P|57:50|123:29,1,89.999997253418,2|10,3:2|0:0,0:0:0:0:
143,68,100659,1,10,0:0:0:0:
143,68,100809,1,2,0:0:0:0:
230,47,101109,6,0,P|259:28|272:11,1,44.999998626709,10|0,0:2|3:0,0:0:0:0:
308,35,101409,2,0,P|309:84|323:130,2,89.999997253418,2|10|2,3:2|0:0|0:0,0:0:0:0:
395,11,102309,1,8,0:0:0:0:
464,68,102609,2,0,P|440:118|402:153,1,89.999997253418,2|2,3:2|0:0,0:0:0:0:
434,184,103059,1,10,0:0:0:0:
434,184,103209,2,0,P|412:232|409:278,1,89.999997253418,2|8,0:0|0:0,0:0:0:0:
335,321,103809,5,8,0:0:0:0:
69,269,104709,2,0,L|75:317,1,44.999998626709,10|0,0:0|3:0,0:0:0:0:
113,337,105009,1,2,3:2:0:0:
160,260,105309,2,0,L|154:215,2,44.999998626709,8|8|2,0:0|0:0|0:0,0:0:0:0:
258,274,105909,1,10,0:0:0:0:
258,274,106059,1,2,3:2:0:0:
258,274,106209,6,0,L|360:258,1,99.9999999999999,12|2,0:0|3:2,0:0:0:0:
388,219,106659,2,0,L|372:120,1,99.9999999999999,8|0,0:0|3:0,0:0:0:0:
325,104,107109,1,8,0:0:0:0:
229,75,107409,6,0,P|212:96|208:129,1,50,6|8,3:2|0:0,0:0:0:0:
181,162,107709,2,0,P|184:188|204:214,1,50,8|0,0:0|3:0,0:0:0:0:
211,255,108009,2,0,B|299:261|299:261|308:272,1,99.9999999999999,10|8,0:0|0:0,0:0:0:0:
378,323,108609,6,0,P|383:350|383:368,2,44.999998626709,6|0|10,3:2|0:0|0:0,0:0:0:0:
441,258,109209,2,0,P|456:209|476:160,1,89.999997253418,2|10,0:2|0:0,0:0:0:0:
455,130,109659,1,0,3:2:0:0:
455,130,109809,2,0,P|480:71|487:34,2,89.999997253418,2|10|2,3:2|0:0|0:0,0:0:0:0:
367,151,110709,6,0,P|334:156|311:150,1,44.999998626709,8|0,0:0|3:0,0:0:0:0:
284,177,111009,1,2,3:2:0:0:
213,121,111309,1,10,0:0:0:0:
127,148,111609,2,0,P|115:181|107:240,1,89.999997253418,2|8,0:2|0:0,0:0:0:0:
72,263,112059,1,0,3:0:0:0:
72,263,112209,2,0,P|67:307|44:362,2,89.999997253418,2|8|2,3:2|0:0|3:2,0:0:0:0:
33,181,113109,6,0,P|16:154|12:124,1,44.999998626709,8|2,0:0|3:2,0:0:0:0:
31,100,113409,1,8,3:2:0:0:
97,39,113709,1,10,0:0:0:0:
172,87,114009,1,2,0:0:0:0:
257,58,114309,2,0,P|299:74|353:80,1,89.999997253418,10|2,0:0|3:2,0:0:0:0:
361,126,114759,1,0,0:0:0:0:
361,126,114909,2,0,P|417:153|449:177,1,89.999997253418,8|2,0:0|0:0,0:0:0:0:
395,247,115509,1,10,0:0:0:0:
401,342,115809,6,0,P|417:359|439:373,2,50,12|0|0,0:0|0:0|0:0,0:0:0:0:
356,338,116259,1,8,0:0:0:0:
356,338,116409,2,0,P|348:274|366:220,1,99.9999999999999,2|10,3:2|0:0,0:0:0:0:
443,191,117009,6,0,P|466:203|476:235,1,50,2|8,3:2|0:0,0:0:0:0:
507,262,117309,2,0,P|508:287|485:312,1,50,8|0,0:0|3:0,0:0:0:0:
483,355,117609,2,0,B|395:361|395:361|386:372,1,99.9999999999999,10|8,0:0|0:0,0:0:0:0:
319,282,118209,6,0,L|328:161,2,110.000003356934,14|10|10,0:2|0:2|0:0,0:0:0:0:
271,309,118959,1,10,0:0:0:0:
223,336,119109,1,10,0:2:0:0:
175,236,119409,6,0,L|184:115,2,110.000003356934,14|10|10,0:2|0:2|0:0,0:0:0:0:
127,263,120159,1,10,0:0:0:0:
81,287,120309,1,10,0:0:0:0:
26,191,120609,6,0,L|35:70,1,110.000003356934,10|2,0:0|3:2,0:0:0:0:
83,55,121059,2,0,L|200:68,1,110.000003356934,8|2,0:0|3:2,0:0:0:0:
237,34,121509,1,10,0:0:0:0:
312,113,121809,6,0,L|297:169,2,55.0000016784668,14|2|2,0:0|3:2|3:2,0:0:0:0:
364,94,122259,2,0,L|379:38,2,55.0000016784668,10|2|2,0:0|3:2|3:2,0:0:0:0:
399,136,122709,2,0,L|384:192,1,55.0000016784668,10|0,0:0|3:0,0:0:0:0:
341,224,123009,6,0,L|350:345,2,110.000003356934,14|10|10,0:2|0:2|0:0,0:0:0:0:
293,197,123759,1,10,0:0:0:0:
245,170,123909,1,10,0:0:0:0:
149,224,124209,6,0,L|140:345,2,110.000003356934,14|10|10,0:2|0:2|0:0,0:0:0:0:
197,197,124959,1,10,0:0:0:0:
245,170,125109,1,10,0:0:0:0:
311,82,125409,6,0,L|420:69,1,110.000003356934,10|2,0:0|3:2,0:0:0:0:
459,108,125859,2,0,L|471:217,1,110.000003356934,10|0,0:0|3:2,0:0:0:0:
440,263,126309,1,10,0:0:0:0:
331,246,126609,2,0,P|323:216|319:188,2,55.0000016784668,2|10|0,3:2|0:2|3:0,0:0:0:0:
296,288,127052,1,0,3:0:0:0:
296,288,127200,2,0,P|256:293|228:307,1,55.0000016784668,8|8,0:0|0:0,0:0:0:0:
188,284,127495,2,0,P|157:307|145:326,1,55.0000016784668,8|8,0:0|0:0,0:0:0:0:
105,356,127791,5,12,0:2:0:0:
13,295,128091,1,10,0:2:0:0:
52,192,128391,2,0,L|36:122,2,55.0000016784668,10|0|10,0:0|3:0|0:2,0:0:0:0:
159,217,128991,2,0,L|221:197,1,55.0000016784668,10|0,0:0|3:2,0:0:0:0:
262,219,129291,2,0,L|331:195,1,55.0000016784668,10|0,0:0|3:2,0:0:0:0:
366,217,129591,2,0,L|435:193,2,55.0000016784668,10|0|10,0:0|3:2|0:0,0:0:0:0:
402,320,130191,5,12,0:2:0:0:
494,259,130491,1,10,0:2:0:0:
455,156,130791,2,0,L|471:86,2,55.0000016784668,10|0|10,0:0|3:0|0:2,0:0:0:0:
348,181,131391,2,0,L|286:161,1,55.0000016784668,10|0,0:0|3:2,0:0:0:0:
245,183,131691,2,0,L|176:159,1,55.0000016784668,10|0,0:0|3:2,0:0:0:0:
141,181,131991,2,0,L|72:157,2,55.0000016784668,10|0|10,0:0|3:2|0:0,0:0:0:0:
102,284,132591,5,12,0:2:0:0:
12,223,132891,1,10,0:2:0:0:
49,120,133191,2,0,L|33:50,2,55.0000016784668,10|0|10,0:0|3:0|0:2,0:0:0:0:
156,145,133791,2,0,L|218:125,1,55.0000016784668,10|0,0:0|3:2,0:0:0:0:
259,147,134091,2,0,L|328:123,1,55.0000016784668,10|0,0:0|3:2,0:0:0:0:
363,145,134391,2,0,L|432:121,2,55.0000016784668,10|0|10,0:0|3:2|0:0,0:0:0:0:
343,253,134991,5,6,3:2:0:0:
247,199,135291,1,0,3:2:0:0:
256,89,135591,1,2,3:2:0:0:
351,33,135891,1,2,3:2:0:0:
450,79,136191,2,0,P|468:110|465:136,1,55.0000016784668,10|8,0:0|0:0,0:0:0:0:
496,174,136491,2,0,P|478:205|454:215,1,55.0000016784668,8|8,0:0|0:0,0:0:0:0:
456,268,136791,1,8,0:0:0:0:
360,322,137091,1,8,0:0:0:0:
253,293,137391,1,4,3:2:0:0:
256,192,137466,12,0,142791,0:0:0:0:
