osu file format v14

[General]
AudioFilename: audio.mp3
AudioLeadIn: 0
PreviewTime: 30817
Countdown: 0
SampleSet: Soft
StackLeniency: 0.7
Mode: 0
LetterboxInBreaks: 0
WidescreenStoryboard: 1

[Editor]
DistanceSpacing: 3.1
BeatDivisor: 4
GridSize: 32
TimelineZoom: 2.08

[Metadata]
Title:EVERYBODY DO THE FLOP
TitleUnicode:EVERYBODY DO THE FLOP
Artist:LilDeuceDeuce
ArtistUnicode:LilDeuceDeuce
Creator:wafer
Version:Akitoshi's Extra
Source:asdfmovie
Tags:english rock novelty meme mine turtle tomska goopert kami no kotoba todd bryanton akitoshi kowari tilda dragonicz john mapping pepekcz
BeatmapID:3972806
BeatmapSetID:1920362

[Difficulty]
HPDrainRate:5.5
CircleSize:3.6
OverallDifficulty:8.8
ApproachRate:9.3
SliderMultiplier:1.75
SliderTickRate:1

[Events]
//Background and Video events
0,0,"do the flop guyu.png",0,0
//Break Periods
//Storyboard Layer 0 (Background)
//Storyboard Layer 1 (Fail)
//Storyboard Layer 2 (Pass)
//Storyboard Layer 3 (Foreground)
//Storyboard Layer 4 (Overlay)
//Storyboard Sound Samples

[TimingPoints]
892,300,4,2,1,50,1,0
1792,-71.4285714285714,4,2,3,50,0,0
2017,-71.4285714285714,4,2,1,5,0,0
2092,300,4,2,1,70,1,0
2092,-100,4,2,1,70,0,0
11392,-71.4285714285714,4,2,3,70,0,0
11617,-71.4285714285714,4,2,1,5,0,0
11692,-125,4,2,1,60,0,0
18892,-100,4,2,1,70,0,0
20992,-71.4285714285714,4,2,3,70,0,0
21217,-71.4285714285714,4,2,1,5,0,0
21292,-125,4,2,1,60,0,0
28492,-100,4,2,1,70,0,0
30592,-71.4285714285714,4,2,3,70,0,0
30817,-71.4285714285714,4,2,1,5,0,0
30892,-90.9090909090909,4,2,1,80,0,0
40192,-71.4285714285714,4,2,3,80,0,0
40417,-71.4285714285714,4,2,1,5,0,0
40504,300,4,2,1,60,1,0
40504,-125,4,2,1,60,0,0
47692,-100,4,2,1,60,0,0
48292,-100,4,2,1,70,0,0
49642,-100,4,2,1,60,0,0
49792,-71.4285714285714,4,2,3,70,0,0
50017,-71.4285714285714,4,2,1,5,0,0
50092,-125,4,2,1,60,0,0
54592,-83.3333333333333,4,2,1,60,0,0
54817,-83.3333333333333,4,2,1,60,0,0
54892,-125,4,2,1,60,0,0
57292,-100,4,2,1,70,0,0
59392,-71.4285714285714,4,2,3,70,0,0
59617,-71.4285714285714,4,2,1,5,0,0
59692,-90.9090909090909,4,2,1,80,0,0
66892,300,4,2,1,80,1,0
66892,-90.9090909090909,4,2,1,80,0,0
68692,-100,4,2,1,80,0,0
68992,-111.111111111111,4,2,1,60,0,0
69292,300,4,2,1,75,1,0
69292,-90.9090909090909,4,2,1,75,0,0
70117,-90.9090909090909,4,2,1,5,0,0
70192,-90.9090909090909,4,2,1,75,0,0
78892,-111.111111111111,4,2,1,75,0,0
79792,-111.111111111111,4,2,1,70,0,0
88492,-100,4,2,1,80,0,0
95692,-100,4,2,1,85,0,0
98692,-71.4285714285714,4,2,3,85,0,0
98917,-71.4285714285714,4,2,1,5,0,0
99009,300,4,2,1,60,1,0
99009,-125,4,2,1,60,0,0
106209,-100,4,2,1,70,0,0
108309,-71.4285714285714,4,2,3,70,0,0
108534,-71.4285714285714,4,2,1,5,0,0
108609,-125,4,2,1,60,0,0
109434,-125,4,2,1,5,0,0
109509,-125,4,2,1,60,0,0
115809,-100,4,2,1,70,0,0
117909,-71.4285714285714,4,2,3,70,0,0
118134,-71.4285714285714,4,2,1,5,0,0
118209,-90.9090909090909,4,2,1,80,0,0
126609,295.566502463054,4,2,1,80,1,0
126609,-90.9090909090909,4,2,1,80,0,0
127791,300,4,2,1,80,1,0
127791,-83.3333333333333,4,2,1,85,0,0
130116,-83.3333333333333,4,2,1,5,0,0
130191,-83.3333333333333,4,2,1,85,0,0
132516,-83.3333333333333,4,2,1,5,0,0
132591,-83.3333333333333,4,2,1,85,0,0
135591,-83.3333333333333,4,2,1,90,0,0
136191,-83.3333333333333,4,2,1,100,0,0
136791,-100,4,2,1,60,0,0
137091,-111.111111111111,4,2,1,60,0,0
137391,-250,4,2,1,60,0,0
138591,-250,4,2,2,50,0,0
139491,-250,4,2,1,40,0,0
140691,-250,4,2,2,30,0,0
141891,-250,4,2,2,20,0,0
142491,-250,4,2,2,10,0,0
142791,-250,4,2,1,5,0,0

[Colours]
Combo1 : 136,184,198
Combo2 : 184,184,220
Combo3 : 154,188,245
Combo4 : 174,140,189

[HitObjects]
326,203,892,5,8,0:0:0:0:
326,203,1792,2,0,B|202:174|202:174|234:236,1,183.749994392395,8|0,3:2|0:0,0:0:0:0:
260,297,2092,6,0,B|251:333|251:333|255:349|255:349|246:389,1,87.5,4|0,3:2|0:0,0:0:0:0:
422,236,2392,2,0,P|416:198|404:144,1,87.5,8|0,0:2|0:0,0:0:0:0:
261,51,2692,1,8,0:0:0:0:
227,224,2842,1,8,0:0:0:0:
84,124,2992,2,0,P|40:123|0:142,1,87.5,8|0,0:0|3:0,0:0:0:0:
75,305,3292,6,0,P|68:262|61:218,1,87.5,4|0,3:2|0:0,0:0:0:0:
221,138,3592,2,0,P|213:181|206:224,1,87.5,8|0,0:2|0:0,0:0:0:0:
283,382,3892,1,8,0:0:0:0:
339,216,4042,1,8,0:0:0:0:
416,374,4192,2,0,P|461:379|505:364,1,87.5,8|0,0:0|3:0,0:0:0:0:
501,181,4492,6,0,B|398:153|398:153|361:164|344:202,1,175,12|0,0:0|3:0,0:0:0:0:
196,240,4942,2,0,P|181:199|188:150,1,87.5,12|0,0:0|3:0,0:0:0:0:
302,299,5242,1,0,3:0:0:0:
95,258,5392,2,0,P|47:265|-2:276,1,87.5,8|0,0:2|3:0,0:0:0:0:
93,89,5692,5,14,0:0:0:0:
196,240,5842,1,2,3:2:0:0:
256,66,5992,1,2,3:2:0:0:
383,274,6142,5,10,0:0:0:0:
270,176,6292,1,2,3:2:0:0:
418,163,6442,1,2,3:2:0:0:
281,311,6592,5,10,0:0:0:0:
186,153,6742,1,0,3:0:0:0:
91,330,6892,6,0,B|58:342|58:342|5:331,1,87.5,4|0,3:2|0:0,0:0:0:0:
2,156,7192,2,0,P|44:148|101:138,1,87.5,8|0,0:2|0:0,0:0:0:0:
278,74,7492,1,8,0:0:0:0:
97,6,7642,1,8,0:0:0:0:
197,170,7792,2,0,P|187:225|182:259,1,87.5,8|0,0:0|3:0,0:0:0:0:
367,250,8092,6,0,P|323:244|279:260,1,87.5,4|0,3:2|0:0,0:0:0:0:
411,125,8392,2,0,P|452:137|495:133,1,87.5,8|0,0:2|0:0,0:0:0:0:
363,3,8692,1,8,0:0:0:0:
282,168,8842,1,8,0:0:0:0:
175,17,8992,2,0,P|131:12|90:24,1,87.5,8|0,0:0|3:0,0:0:0:0:
11,200,9292,6,0,B|75:185|75:185|115:208|115:208|194:186,1,175,12|0,0:0|3:0,0:0:0:0:
350,309,9742,2,0,B|286:294|286:294|246:317|246:317|167:295,1,175,8|0,0:0|3:0,0:0:0:0:
249,89,10192,2,0,P|268:135|261:184,1,87.5,8|0,0:0|3:0,0:0:0:0:
60,268,10492,5,0,3:0:0:0:
144,61,10642,1,8,0:0:0:0:
144,61,10717,1,8,0:0:0:0:
144,61,10792,2,0,L|137:11,1,43.75,0|0,3:0|3:0,0:0:0:0:
32,17,10942,2,0,L|25:67,1,43.75,0|0,3:0|3:0,0:0:0:0:
11,164,11092,2,0,P|57:175|99:166,1,87.5,8|0,3:2|0:0,0:0:0:0:
342,58,11392,6,0,B|371:65|387:75|387:75|422:53|473:41|473:41|455:62|452:82,1,183.749994392395,8|0,0:0|0:0,0:0:0:0:
469,157,11692,6,0,P|461:196|456:228,1,70,6|0,3:2|0:0,0:0:0:0:
396,304,11992,1,10,0:0:0:0:
352,215,12142,1,8,0:0:0:0:
292,294,12292,2,0,B|214:277|230:328|145:308,1,140,2|10,0:2|0:0,0:0:0:0:
62,279,12742,1,0,3:2:0:0:
139,218,12892,6,0,P|129:162|123:135,1,70,2|0,3:2|0:0,0:0:0:0:
110,52,13192,1,10,0:0:0:0:
110,52,13342,1,10,0:0:0:0:
201,86,13492,2,0,P|247:90|283:82,1,70,2|0,0:0|0:0,0:0:0:0:
356,37,13792,1,10,0:2:0:0:
418,112,13942,1,0,3:0:0:0:
333,161,14092,6,0,P|339:198|344:236,1,70,2|0,3:2|0:0,0:0:0:0:
356,328,14392,1,10,0:0:0:0:
425,259,14542,1,8,0:0:0:0:
282,286,14692,2,0,P|245:280|207:275,1,70,2|0,0:0|3:0,0:0:0:0:
115,265,14992,1,8,0:0:0:0:
168,346,15142,1,0,3:0:0:0:
168,202,15292,6,0,P|106:183|43:224,1,140,2|8,3:2|0:0,0:0:0:0:
12,313,15742,1,10,0:0:0:0:
99,358,15892,2,0,P|133:352|168:346,1,70,2|2,0:0|3:2,0:0:0:0:
282,286,16192,2,0,P|245:280|207:275,1,70,8|0,0:0|0:0,0:0:0:0:
96,153,16492,5,8,3:2:0:0:
96,153,17242,1,0,3:0:0:0:
181,104,17392,2,0,P|215:115|264:107,1,70,10|0,0:0|3:0,0:0:0:0:
336,69,17692,6,0,P|350:140|357:192,1,105,2|0,3:2|0:0,0:0:0:0:
358,196,17992,1,8,0:0:0:0:
283,270,18142,1,8,0:0:0:0:
184,234,18292,2,0,P|149:229|115:238,1,70,2|0,0:0|3:0,0:0:0:0:
217,362,18592,2,0,P|251:366|285:357,1,70,10|0,0:0|3:0,0:0:0:0:
444,235,18892,5,12,0:0:0:0:
274,191,19042,1,0,3:0:0:0:
437,128,19192,1,2,3:2:0:0:
367,307,19342,1,8,0:0:0:0:
437,128,19492,2,0,P|428:83|418:28,1,87.5,2|0,3:2|3:0,0:0:0:0:
247,7,19792,2,0,P|239:50|230:92,1,87.5,8|0,0:0|3:0,0:0:0:0:
185,297,20092,5,6,3:2:0:0:
42,157,20242,1,8,0:0:0:0:
42,157,20317,1,8,0:0:0:0:
42,157,20392,2,0,L|-22:168,1,43.75,8|0,0:0|3:0,0:0:0:0:
78,65,20542,2,0,L|142:76,1,43.75,0|0,3:0|3:0,0:0:0:0:
230,93,20692,2,0,P|272:84|326:72,1,87.5,10|0,0:0|0:0,0:0:0:0:
509,203,20992,6,0,B|470:229|419:219|392:179|392:179|370:202|335:211,1,183.749994392395,8|0,0:0|0:0,0:0:0:0:
268,205,21292,6,0,P|259:249|255:276,1,70,6|0,3:2|0:0,0:0:0:0:
236,369,21592,1,10,0:0:0:0:
160,306,21742,1,8,0:0:0:0:
83,367,21892,2,0,P|55:323|78:233,1,140,2|10,0:2|0:0,0:0:0:0:
137,168,22342,1,0,3:2:0:0:
75,92,22492,6,0,P|40:98|6:105,1,70,2|0,3:2|0:0,0:0:0:0:
125,5,22792,1,10,0:0:0:0:
125,5,22942,1,10,0:0:0:0:
211,51,23092,2,0,P|225:90|226:128,1,70,2|0,0:0|0:0,0:0:0:0:
218,215,23392,1,8,0:0:0:0:
144,150,23542,1,0,3:0:0:0:
296,174,23692,6,0,P|329:166|378:157,1,70,2|0,3:2|0:0,0:0:0:0:
460,138,23992,1,10,0:0:0:0:
383,76,24142,1,8,0:0:0:0:
433,221,24292,2,0,P|425:254|416:303,1,70,2|0,0:2|3:0,0:0:0:0:
362,369,24592,1,8,0:0:0:0:
320,280,24742,1,0,3:0:0:0:
240,337,24892,6,0,P|194:340|153:330,1,70,2|2,3:2|0:0,0:0:0:0:
83,290,25192,1,10,0:0:0:0:
171,247,25342,1,10,0:0:0:0:
55,197,25492,1,2,0:0:0:0:
143,154,25642,1,2,3:2:0:0:
92,276,25792,1,8,0:0:0:0:
42,188,25942,1,2,3:2:0:0:
181,233,26092,6,0,P|215:227|334:209,1,140,8|10,3:2|0:0,0:0:0:0:
417,197,26542,1,8,0:0:0:0:
358,118,26692,2,0,P|322:109|280:117,1,70,2|0,0:0|3:0,0:0:0:0:
441,83,26992,2,0,P|430:47|402:14,1,70,10|0,0:0|3:0,0:0:0:0:
291,9,27292,6,0,P|252:17|211:26,1,70,2|2,3:2|0:0,0:0:0:0:
127,47,27592,1,8,0:0:0:0:
203,108,27742,1,8,0:0:0:0:
108,132,27892,2,0,P|73:124|39:117,1,70,2|2,0:0|3:2,0:0:0:0:
85,242,28192,2,0,P|120:234|154:227,1,70,10|0,0:0|3:0,0:0:0:0:
341,181,28492,5,12,0:0:0:0:
303,351,28642,1,0,0:0:0:0:
451,257,28792,1,2,3:2:0:0:
248,201,28942,5,8,0:0:0:0:
383,312,29092,1,2,3:2:0:0:
209,335,29242,1,0,3:2:0:0:
271,122,29392,5,8,0:0:0:0:
298,326,29542,1,0,3:0:0:0:
404,127,29692,5,6,3:2:0:0:
157,228,29842,1,8,0:0:0:0:
157,228,29917,1,8,0:0:0:0:
157,228,29992,2,0,L|85:215,1,43.75,8|0,0:0|3:0,0:0:0:0:
166,343,30142,2,0,L|238:330,1,43.75,0|0,3:0|3:0,0:0:0:0:
328,255,30292,2,0,P|338:219|324:158,1,87.5,10|0,0:0|0:0,0:0:0:0:
78,118,30592,6,0,B|41:164|65:242|65:242|118:218,1,183.749994392395,8|0,0:0|0:0,0:0:0:0:
160,146,30892,6,0,B|167:110|167:110|160:89|160:89|170:50,1,96.250002937317,14|0,0:2|3:0,0:0:0:0:
376,8,31192,2,0,P|397:62|391:111,1,96.250002937317,10|0,0:2|3:0,0:0:0:0:
240,230,31492,1,10,0:0:0:0:
274,30,31642,1,10,0:0:0:0:
78,118,31792,1,10,0:0:0:0:
269,142,31942,1,0,3:0:0:0:
93,228,32092,6,0,P|101:276|108:337,1,96.250002937317,14|0,0:2|3:0,0:0:0:0:
293,379,32392,2,0,P|298:331|306:283,1,96.250002937317,10|0,0:2|3:0,0:0:0:0:
472,183,32692,1,10,0:0:0:0:
445,373,32842,1,10,0:0:0:0:
356,150,32992,2,0,P|310:140|263:148,1,96.250002937317,10|0,0:0|3:0,3:0:0:0:
4,252,33292,5,10,0:0:0:0:
112,92,33442,1,2,3:2:0:0:
137,282,33592,1,2,3:2:0:0:
0,95,33742,1,8,0:0:0:0:
241,161,33892,5,2,3:2:0:0:
29,260,34042,1,2,3:2:0:0:
251,345,34192,2,0,P|298:333|348:326,1,96.250002937317,10|0,0:0|3:0,3:0:0:0:
467,104,34492,5,14,0:0:0:0:
301,236,34642,1,2,3:2:0:0:
336,27,34792,1,2,3:2:0:0:
454,236,34942,5,10,0:0:0:0:
262,148,35092,1,2,3:2:0:0:
463,82,35242,1,2,3:2:0:0:
365,309,35392,5,10,0:0:0:0:
329,103,35542,1,0,3:0:0:0:
126,249,35692,6,0,B|92:263|92:263|55:262|13:238,1,96.250002937317,14|0,0:2|3:0,0:0:0:0:
34,55,35992,2,0,P|84:46|132:60,1,96.250002937317,10|0,0:2|3:0,0:0:0:0:
281,231,36292,1,10,0:0:0:0:
79,156,36442,1,10,0:0:0:0:
211,345,36592,1,10,0:0:0:0:
242,145,36742,1,0,3:0:0:0:
390,281,36892,6,0,P|378:323|370:383,1,96.250002937317,14|0,0:2|3:0,0:0:0:0:
500,219,37192,2,0,P|493:171|480:125,1,96.250002937317,10|0,0:2|3:0,0:0:0:0:
337,2,37492,1,10,0:0:0:0:
363,192,37642,1,10,0:0:0:0:
179,51,37792,2,0,P|117:53|76:71,1,96.250002937317,10|0,0:0|3:0,3:0:0:0:
19,246,38092,5,10,0:0:0:0:
194,166,38242,1,2,3:2:0:0:
6,122,38392,1,2,3:2:0:0:
133,266,38542,1,10,0:0:0:0:
271,106,38692,6,0,P|259:55|247:-1,1,96.250002937317,2|0,3:2|3:2,0:0:0:0:
465,192,38992,2,0,P|454:239|443:285,1,96.250002937317,10|0,0:0|3:2,0:0:0:0:
175,184,39292,5,2,3:2:0:0:
376,94,39442,1,8,0:0:0:0:
376,94,39517,1,8,0:0:0:0:
376,94,39592,2,0,L|441:109,1,48.1250014686585,8|0,0:0|3:0,0:0:0:0:
297,1,39742,2,0,L|250:11,1,48.1250014686585,0|0,3:0|3:0,0:0:0:0:
131,29,39892,2,0,P|112:79|127:133,1,96.250002937317,8|0,3:2|0:0,0:0:0:0:
324,231,40192,6,0,B|354:226|371:216|371:216|388:224|408:233|408:233|426:214|461:200|461:200|442:224|439:247,1,183.749994392395,8|0,0:0|0:0,0:0:0:0:
451,307,40504,6,0,P|419:326|374:327,1,70,6|0,3:2|0:0,0:0:0:0:
289,321,40804,1,10,0:0:0:0:
324,231,40954,1,8,0:0:0:0:
226,243,41104,2,0,B|144:229|163:232|69:218,1,140,2|10,0:2|0:0,0:0:0:0:
5,165,41554,1,0,3:2:0:0:
73,95,41704,6,0,P|106:93|150:108,1,70,2|0,3:2|0:0,0:0:0:0:
232,152,42004,1,10,0:0:0:0:
232,152,42154,1,8,0:0:0:0:
276,64,42304,2,0,P|309:56|356:50,1,70,2|0,0:0|3:0,0:0:0:0:
442,39,42604,1,10,0:2:0:0:
406,130,42754,1,0,3:0:0:0:
501,152,42904,6,0,P|510:188|503:230,1,70,2|0,3:2|0:0,0:0:0:0:
459,306,43204,1,10,0:0:0:0:
401,226,43354,1,8,0:0:0:0:
354,312,43504,2,0,P|316:305|278:300,1,70,2|0,0:0|3:0,0:0:0:0:
187,288,43804,1,8,0:0:0:0:
236,372,43954,1,0,3:0:0:0:
240,218,44104,6,0,B|227:142|232:169|216:63,1,140,2|8,3:2|0:0,0:0:0:0:
142,16,44554,1,10,0:0:0:0:
62,72,44704,2,0,P|51:101|55:150,1,70,2|2,0:0|3:2,0:0:0:0:
87,230,45004,1,8,0:0:0:0:
140,147,45154,1,2,0:0:0:0:
176,274,45304,5,10,3:2:0:0:
176,274,45604,2,0,P|171:307|166:351,1,70,10|8,0:0|0:0,0:0:0:0:
272,260,45904,2,0,P|267:225|262:190,1,70,2|0,0:0|3:0,0:0:0:0:
250,93,46204,1,8,0:0:0:0:
334,141,46354,1,0,3:0:0:0:
419,93,46504,6,0,P|417:57|395:17,1,70,2|0,3:2|0:0,0:0:0:0:
305,10,46804,1,8,0:0:0:0:
250,93,46954,1,8,0:0:0:0:
190,14,47104,2,0,P|153:19|114:25,1,70,2|0,0:2|3:0,0:0:0:0:
73,110,47404,2,0,P|110:115|149:121,1,70,10|0,0:0|3:0,0:0:0:0:
307,219,47704,5,12,0:0:0:0:
117,252,47854,1,2,3:2:0:0:
257,92,48004,1,2,3:2:0:0:
225,308,48154,1,8,0:0:0:0:
381,154,48304,2,0,P|372:109|362:54,1,87.5,2|0,3:2|3:0,0:0:0:0:
501,240,48604,2,0,P|492:285|482:340,1,87.5,10|0,0:0|3:0,0:0:0:0:
298,207,48904,5,6,3:2:0:0:
487,110,49054,1,8,0:0:0:0:
487,110,49129,1,8,0:0:0:0:
487,110,49204,2,0,P|484:80|471:47,1,43.75,8|0,0:0|3:0,0:0:0:0:
371,25,49354,2,0,P|365:46|364:67,1,43.75,0|0,3:0|3:0,0:0:0:0:
261,120,49504,2,0,P|219:105|168:112,1,87.5,10|0,0:0|0:0,0:0:0:0:
11,292,49804,6,0,B|37:291|61:311|61:311|85:293|110:271|110:271|137:289|172:290,1,183.749994392395,8|0,0:0|0:0,0:0:0:0:
252,305,50104,6,0,B|287:314|287:314|328:303,1,70,6|0,3:2|0:0,0:0:0:0:
412,273,50404,1,10,0:0:0:0:
379,365,50554,1,8,0:0:0:0:
348,221,50704,2,0,B|355:161|352:183|366:75,1,140,2|10,0:2|0:2,0:0:0:0:
302,6,51154,1,0,3:2:0:0:
234,77,51304,6,0,P|199:85|148:69,1,70,2|2,1:2|0:0,0:0:0:0:
79,41,51604,1,10,0:0:0:0:
79,41,51754,1,10,0:0:0:0:
15,115,51904,2,0,P|22:151|30:192,1,70,2|0,0:0|0:0,0:0:0:0:
92,257,52204,1,8,0:0:0:0:
123,164,52354,1,0,3:0:0:0:
220,253,52504,5,2,1:2:0:0:
220,253,52804,2,0,P|265:243|295:239,1,70,10|8,0:0|0:0,0:0:0:0:
363,176,53104,2,0,P|408:186|438:190,1,70,2|0,0:0|3:0,0:0:0:0:
502,256,53404,1,10,0:0:0:0:
405,275,53554,1,2,3:2:0:0:
458,108,53704,5,2,3:2:0:0:
458,108,54604,6,0,B|401:117|369:71|369:71|350:95|317:103,1,157.499995193482,12|0,0:0|0:0,0:0:0:0:
242,100,54904,6,0,B|235:126|235:126|245:179,1,70,8|0,3:2|0:0,0:0:0:0:
257,265,55204,1,10,0:0:0:0:
165,228,55354,1,8,0:0:0:0:
116,313,55504,2,0,P|121:347|126:382,1,70,2|0,0:0|3:0,0:0:0:0:
25,284,55804,2,0,P|30:249|35:214,1,70,10|0,0:0|3:0,0:0:0:0:
47,116,56104,5,2,3:2:0:0:
115,46,56254,1,2,0:0:0:0:
147,138,56404,1,8,0:0:0:0:
115,46,56554,1,8,0:0:0:0:
209,70,56704,2,0,P|241:58|281:51,1,70,2|0,0:0|3:0,0:0:0:0:
336,162,57004,2,0,P|301:154|268:143,1,70,10|0,0:0|3:0,0:0:0:0:
460,123,57304,5,12,0:0:0:0:
338,249,57454,1,0,3:0:0:0:
366,76,57604,1,2,3:2:0:0:
454,246,57754,5,8,0:0:0:0:
302,154,57904,1,2,3:2:0:0:
313,337,58054,1,0,3:2:0:0:
170,195,58204,5,10,0:0:0:0:
338,249,58354,1,0,3:0:0:0:
123,326,58504,5,6,3:2:0:0:
219,114,58654,1,8,0:0:0:0:
219,114,58729,1,8,0:0:0:0:
219,114,58804,2,0,L|203:39,1,43.75,8|0,0:0|3:0,0:0:0:0:
352,28,58954,2,0,L|342:70,1,43.75,0|0,3:0|3:0,0:0:0:0:
422,174,59104,2,0,P|464:160|508:165,1,87.5,10|0,0:0|0:0,0:0:0:0:
292,313,59404,6,0,B|263:322|237:313|237:313|217:342|190:342|190:342|163:323|124:326,1,183.749994392395,8|0,0:0|0:0,0:0:0:0:
51,276,59704,6,0,B|34:215|34:215|61:180,1,96.250002937317,14|0,0:2|3:0,0:0:0:0:
244,120,60004,2,0,P|260:170|248:222,1,96.250002937317,10|0,0:2|3:0,0:0:0:0:
152,13,60304,1,10,0:0:0:0:
346,66,60454,1,10,0:0:0:0:
157,177,60604,1,10,0:2:0:0:
252,9,60754,1,0,3:0:0:0:
364,164,60904,6,0,P|411:155|480:140,1,96.250002937317,14|0,0:2|3:0,0:0:0:0:
387,332,61204,2,0,P|340:323|271:308,1,96.250002937317,10|0,0:2|3:0,0:0:0:0:
104,274,61504,1,10,0:0:0:0:
277,190,61654,1,10,0:0:0:0:
175,365,61804,2,0,P|128:375|82:363,1,96.250002937317,10|0,0:0|3:0,3:0:0:0:
7,184,62104,5,10,0:0:0:0:
193,233,62254,1,2,3:2:0:0:
13,302,62404,1,2,3:2:0:0:
128,124,62554,1,8,0:0:0:0:
180,348,62704,5,2,3:2:0:0:
265,175,62854,1,2,3:2:0:0:
361,363,63004,2,0,P|410:368|457:349,1,96.250002937317,10|0,0:0|3:0,3:0:0:0:
498,113,63304,5,14,0:0:0:0:
336,250,63454,1,2,3:2:0:0:
353,38,63604,1,2,3:2:0:0:
463,251,63754,5,10,0:0:0:0:
265,175,63904,1,2,3:2:0:0:
361,363,64054,1,2,3:2:0:0:
399,125,64204,5,10,0:0:0:0:
260,285,64354,1,0,3:0:0:0:
132,81,64504,6,0,B|84:69|84:69|33:86,1,96.250002937317,14|0,0:2|3:0,0:0:0:0:
5,293,64804,2,0,P|48:308|107:298,1,96.250002937317,10|0,0:2|3:0,0:0:0:0:
265,175,65104,1,10,0:0:0:0:
61,206,65254,1,10,0:0:0:0:
227,42,65404,1,10,0:0:0:0:
40,84,65554,1,0,3:0:0:0:
174,222,65704,6,0,P|180:264|188:320,1,96.250002937317,14|0,0:2|3:0,0:0:0:0:
380,317,66004,2,0,P|386:269|392:221,1,96.250002937317,10|0,0:2|3:0,0:0:0:0:
417,29,66304,1,10,0:0:0:0:
511,196,66454,1,10,0:0:0:0:
313,95,66604,2,0,P|263:105|212:117,1,96.250002937317,10|0,0:0|3:0,3:0:0:0:
36,257,66892,5,10,0:0:0:0:
225,223,67042,1,2,3:2:0:0:
49,143,67192,1,2,3:2:0:0:
138,313,67342,1,10,0:0:0:0:
219,115,67492,6,0,P|205:62|213:2,1,96.250002937317,2|0,3:2|3:2,0:0:0:0:
404,127,67792,2,0,P|406:174|392:220,1,96.250002937317,10|0,0:0|3:2,0:0:0:0:
216,372,68092,5,2,3:2:0:0:
143,162,68242,1,10,0:2:0:0:
334,293,68392,1,0,3:0:0:0:
334,293,68467,1,0,3:0:0:0:
334,293,68542,1,0,3:0:0:0:
380,43,68692,5,8,3:2:0:0:
259,204,68842,1,0,3:0:0:0:
207,21,68992,2,0,P|163:20|121:37,1,78.7499975967408,8|0,0:0|3:0,0:0:0:0:
16,199,69292,5,14,0:0:0:0:
184,126,69442,1,2,3:2:0:0:
122,308,69592,2,0,P|72:297|23:288,1,96.250002937317,10|0,0:0|3:0,0:0:0:0:
259,204,69892,2,0,P|332:227|401:184,1,144.375004405975,10|0,0:0|0:0,0:0:0:0:
467,170,70192,2,0,P|482:217|475:266,1,96.250002937317,10|0,0:0|3:0,0:0:0:0:
272,320,70492,5,10,0:0:0:0:
322,134,70642,1,0,3:2:0:0:
153,226,70792,2,0,P|102:225|55:206,1,96.250002937317,10|0,0:0|3:0,0:0:0:0:
212,34,71092,2,0,P|256:17|304:17,1,96.250002937317,10|0,0:0|0:0,0:0:0:0:
241,220,71392,1,10,0:0:0:0:
122,106,71542,1,2,3:2:0:0:
322,134,71692,6,0,P|366:121|415:110,1,96.250002937317,10|0,0:0|3:0,0:0:0:0:
499,305,71992,2,0,P|452:293|405:280,1,96.250002937317,10|0,0:0|3:0,0:0:0:0:
231,199,72292,1,10,0:0:0:0:
339,358,72442,1,0,3:0:0:0:
454,195,72592,2,0,P|457:141|434:93,1,96.250002937317,10|0,0:0|3:0,0:0:0:0:
222,181,72892,6,0,P|207:268|186:384,1,192.500005874634,10|10,0:0|0:0,0:0:0:0:
15,284,73342,2,0,P|11:239|31:179,1,96.250002937317,0|8,3:0|0:0,0:0:0:0:
117,42,73642,1,0,3:0:0:0:
222,181,73792,2,0,P|267:173|327:162,1,96.250002937317,8|2,0:0|3:2,0:0:0:0:
113,251,74092,5,14,0:0:0:0:
212,63,74242,1,2,3:2:0:0:
328,262,74392,2,0,P|384:264|433:244,1,96.250002937317,10|0,0:0|3:0,0:0:0:0:
313,66,74692,1,10,0:0:0:0:
217,210,74842,1,2,3:2:0:0:
422,158,74992,2,0,P|413:111|401:43,1,96.250002937317,10|0,0:0|3:0,0:0:0:0:
305,252,75292,5,10,0:0:0:0:
501,205,75442,1,0,3:2:0:0:
356,346,75592,1,10,0:0:0:0:
320,147,75742,1,0,3:2:0:0:
476,303,75892,1,10,0:0:0:0:
256,334,76042,2,0,P|207:322|141:311,1,96.250002937317,0|8,3:2|0:0,0:0:0:0:
43,229,76342,1,0,3:0:0:0:
199,114,76492,6,0,B|220:176|220:176|206:211,1,96.250002937317,12|0,0:0|1:0,0:0:0:0:
44,321,76792,2,0,P|32:275|43:228,1,96.250002937317,2|8,3:2|0:0,0:0:0:0:
121,42,77092,1,2,3:2:0:0:
200,227,77242,1,0,3:2:0:0:
278,41,77392,2,0,P|328:49|384:57,1,96.250002937317,10|0,0:0|3:0,0:0:0:0:
285,269,77692,5,6,3:2:0:0:
112,131,77842,1,8,0:0:0:0:
112,131,77917,1,8,0:0:0:0:
112,131,77992,2,0,L|35:143,1,48.1250014686585,8|0,0:0|3:0,0:0:0:0:
120,19,78142,2,0,L|167:26,1,48.1250014686585,0|0,3:0|3:0,0:0:0:0:
326,49,78292,5,8,0:0:0:0:
102,269,78892,1,8,0:0:0:0:
102,269,79792,5,8,0:0:0:0:
112,131,79942,1,8,0:0:0:0:
235,200,80092,6,0,B|281:288|217:276|248:363,1,157.499995193482,2|8,3:2|0:0,0:0:0:0:
418,257,80542,2,0,P|377:255|328:277,1,78.7499975967408,2|0,3:2|0:0,0:0:0:0:
467,352,80842,1,0,3:0:0:0:
508,191,80992,2,0,P|489:154|445:123,1,78.7499975967408,8|0,0:0|3:0,0:0:0:0:
286,76,81292,5,12,0:0:0:0:
286,76,82192,5,4,3:0:0:0:
421,33,82342,1,4,3:0:0:0:
344,152,82492,6,0,P|266:169|199:115,1,157.499995193482,2|8,3:2|0:0,0:0:0:0:
92,237,82942,2,0,P|127:238|170:220,1,78.7499975967408,2|0,3:2|0:0,0:0:0:0:
0,180,83242,1,0,3:0:0:0:
67,339,83392,1,0,3:0:0:0:
114,146,83542,1,0,3:0:0:0:
114,146,83617,1,0,3:0:0:0:
114,146,83692,5,8,0:0:0:0:
114,146,84442,1,0,3:0:0:0:
235,218,84592,5,8,0:0:0:0:
101,265,84742,1,8,0:0:0:0:
222,337,84892,6,0,P|306:317|386:297,1,157.499995193482,2|8,3:2|0:0,0:0:0:0:
474,196,85342,2,0,P|477:156|466:119,1,78.7499975967408,2|0,3:2|0:0,0:0:0:0:
381,6,85642,1,0,3:0:0:0:
275,100,85792,2,0,P|231:91|185:82,1,78.7499975967408,8|0,0:0|3:0,0:0:0:0:
57,158,86092,5,6,3:2:0:0:
209,196,86242,1,2,3:2:0:0:
109,73,86392,1,10,0:0:0:0:
112,246,86542,1,10,0:0:0:0:
299,186,86692,2,0,P|340:188|387:205,1,78.7499975967408,2|0,0:0|3:0,0:0:0:0:
283,364,86992,1,10,0:2:0:0:
205,217,87142,1,2,3:2:0:0:
374,301,87292,6,0,P|414:291|460:283,1,78.7499975967408,2|0,3:2|3:0,0:0:0:0:
294,163,87592,1,8,0:0:0:0:
226,296,87742,1,0,3:0:0:0:
188,110,87892,1,2,0:0:0:0:
385,189,88042,1,8,0:0:0:0:
407,196,88117,1,8,0:0:0:0:
431,197,88192,1,8,0:0:0:0:
453,190,88267,1,8,0:0:0:0:
473,177,88342,1,8,0:0:0:0:
488,158,88417,1,8,0:0:0:0:
496,136,88492,6,0,L|486:83,1,43.75,6|0,3:2|0:0,0:0:0:0:
387,39,88642,2,0,L|377:92,1,43.75,2|0,0:2|0:0,0:0:0:0:
282,142,88792,2,0,P|240:149|195:135,1,87.5,10|2,0:0|0:0,0:0:0:0:
51,37,89092,1,10,0:0:0:0:
205,9,89242,1,2,3:2:0:0:
76,140,89392,2,0,P|84:206|89:238,1,87.5,10|0,0:0|0:0,0:0:0:0:
204,380,89692,5,6,3:2:0:0:
263,233,89842,1,2,0:0:0:0:
381,373,89992,2,0,P|437:363|467:352,1,87.5,10|0,0:0|3:0,0:0:0:0:
372,194,90292,1,10,0:0:0:0:
274,323,90442,1,2,0:0:0:0:
189,159,90592,2,0,P|173:95|220:24,1,131.25,10|0,0:0|0:0,0:0:0:0:
281,16,90892,6,0,L|331:26,1,43.75,6|0,3:2|0:0,0:0:0:0:
425,78,91042,2,0,L|382:86,1,43.75,2|0,0:2|0:0,0:0:0:0:
279,140,91192,2,0,P|292:187|277:240,1,87.5,10|2,0:0|0:0,0:0:0:0:
145,358,91492,1,10,0:0:0:0:
184,188,91642,1,2,3:2:0:0:
354,294,91792,2,0,P|402:298|453:284,1,87.5,10|0,0:0|0:0,0:0:0:0:
442,90,92092,6,0,P|429:145|424:176,1,87.5,2|0,3:2|0:0,0:0:0:0:
372,379,92392,2,0,P|364:335|354:293,1,87.5,2|0,0:0|3:0,0:0:0:0:
266,122,92692,1,10,0:0:0:0:
206,305,92842,1,2,0:0:0:0:
109,138,92992,2,0,P|58:135|16:155,1,87.5,10|0,0:0|3:0,0:0:0:0:
3,330,93292,6,0,L|11:376,1,43.75,6|0,3:2|0:0,0:0:0:0:
119,373,93442,2,0,L|127:327,1,43.75,2|0,0:2|0:0,0:0:0:0:
175,225,93592,2,0,P|226:222|268:242,1,87.5,10|2,0:0|0:0,0:0:0:0:
418,346,93892,1,10,0:0:0:0:
360,180,94042,1,2,3:2:0:0:
296,361,94192,2,0,P|243:349|206:342,1,87.5,10|2,0:0|3:2,0:0:0:0:
66,214,94492,5,6,3:2:0:0:
258,235,94642,1,2,0:0:0:0:
110,110,94792,1,10,0:2:0:0:
128,301,94942,1,2,3:2:0:0:
228,136,95092,2,0,P|219:93|209:41,1,87.5,10|2,0:0|0:0,0:0:0:0:
398,98,95392,2,0,P|389:140|380:183,1,87.5,10|0,0:0|3:2,0:0:0:0:
321,367,95692,5,6,3:2:0:0:
272,227,95842,1,2,3:2:0:0:
412,293,95992,1,2,3:2:0:0:
232,319,96142,1,2,3:2:0:0:
375,206,96292,2,0,P|418:198|477:190,1,87.5,2|0,3:2|3:2,0:0:0:0:
247,138,96592,1,2,3:2:0:0:
328,292,96742,1,0,3:2:0:0:
398,98,96892,5,2,3:2:0:0:
185,237,97042,1,8,0:0:0:0:
272,8,97192,1,8,0:0:0:0:
373,224,97342,1,8,0:0:0:0:
117,132,97492,5,8,0:0:0:0:
117,132,98692,6,0,B|81:139|46:122|46:122|102:166|84:229,1,183.749994392395,8|0,0:0|0:0,0:0:0:0:
17,263,99009,6,0,B|5:300|5:300|17:340,1,70,4|0,0:0|0:0,0:0:0:0:
92,379,99309,1,10,0:0:0:0:
157,306,99459,1,8,0:0:0:0:
249,338,99609,2,0,B|329:323|309:376|395:354,1,140,2|10,0:2|0:0,0:0:0:0:
474,320,100059,1,0,3:2:0:0:
405,250,100209,6,0,P|403:217|418:173,1,70,2|0,3:2|0:0,0:0:0:0:
472,104,100509,1,10,0:0:0:0:
472,104,100659,1,10,0:0:0:0:
378,76,100809,2,0,P|345:82|304:88,1,70,2|0,0:0|3:0,0:0:0:0:
212,106,101109,1,10,0:2:0:0:
173,16,101259,1,0,3:0:0:0:
93,72,101409,6,0,P|98:108|104:149,1,70,2|0,3:2|0:0,0:0:0:0:
115,239,101709,1,10,0:0:0:0:
206,204,101859,1,8,0:0:0:0:
266,281,102009,2,0,P|254:313|254:357,1,70,2|0,0:0|3:0,0:0:0:0:
348,367,102309,2,0,P|360:334|361:299,1,70,8|0,0:0|3:0,0:0:0:0:
336,203,102609,6,0,P|416:204|464:164,1,140,2|2,3:2|0:0,0:0:0:0:
467,70,103059,1,10,0:0:0:0:
377,110,103209,2,0,P|343:104|295:95,1,70,2|0,0:0|0:0,0:0:0:0:
211,80,103509,1,8,0:0:0:0:
283,14,103659,1,2,0:0:0:0:
241,169,103809,5,8,0:0:0:0:
241,169,104559,1,0,3:0:0:0:
147,139,104709,2,0,P|100:142|80:151,1,70,10|0,0:0|3:0,0:0:0:0:
44,242,105009,6,0,B|130:256|102:250|202:267,1,140,2|8,3:2|0:0,0:0:0:0:
279,275,105459,1,8,0:0:0:0:
356,214,105609,2,0,P|359:181|347:145,1,70,2|0,0:0|3:0,0:0:0:0:
270,46,105909,1,10,0:0:0:0:
241,169,106059,1,2,3:2:0:0:
388,58,106209,6,0,P|432:64|492:73,1,87.5,12|0,0:0|3:0,0:0:0:0:
356,214,106509,1,2,3:2:0:0:
270,46,106659,1,8,0:0:0:0:
176,243,106809,2,0,P|131:253|80:242,1,87.5,2|0,3:2|3:0,0:0:0:0:
259,153,107109,1,8,0:0:0:0:
233,343,107259,1,0,3:0:0:0:
130,149,107409,5,6,3:2:0:0:
356,214,107559,1,8,0:0:0:0:
356,214,107634,1,8,0:0:0:0:
356,214,107709,2,0,P|383:208|418:202,1,43.75,8|0,0:0|3:0,0:0:0:0:
443,98,107859,2,0,P|421:93|400:89,1,43.75,0|0,3:0|3:0,0:0:0:0:
296,21,108009,2,0,P|240:20|200:41,1,87.5,10|0,0:0|0:0,0:0:0:0:
9,197,108309,6,0,B|56:176|107:209|107:209|135:191|135:191|156:198|185:202,1,183.749994392395,8|0,0:0|0:0,0:0:0:0:
261,215,108609,6,0,B|254:249|254:249|257:258|257:258|250:296,1,70,6|0,3:2|0:0,0:0:0:0:
308,364,108909,1,10,0:0:0:0:
367,286,109059,1,8,0:0:0:0:
451,335,109209,2,0,P|464:288|444:229,1,105,2|0,0:2|0:0,0:0:0:0:
434,210,109509,2,0,P|437:173|441:129,1,70,10|0,0:0|3:2,0:0:0:0:
392,53,109809,5,2,3:2:0:0:
346,139,109959,1,0,0:0:0:0:
292,32,110109,1,10,0:0:0:0:
246,118,110259,1,10,0:0:0:0:
164,63,110409,2,0,P|89:59|29:104,1,140,2|8,0:0|0:0,0:0:0:0:
0,185,110859,1,0,3:0:0:0:
121,160,111009,6,0,P|157:165|203:174,1,70,2|0,3:2|0:0,0:0:0:0:
286,186,111309,1,10,0:0:0:0:
226,263,111459,1,8,0:0:0:0:
322,278,111609,2,0,P|358:273|404:264,1,70,2|0,0:2|3:0,0:0:0:0:
486,243,111909,1,8,0:0:0:0:
442,330,112059,1,0,3:0:0:0:
409,179,112209,6,0,P|416:114|428:33,1,140,2|8,3:2|0:0,0:0:0:0:
335,2,112659,1,10,0:0:0:0:
257,61,112809,2,0,P|217:45|185:43,1,70,2|0,3:2|0:0,0:0:0:0:
92,47,113109,1,8,0:0:0:0:
92,47,113259,1,2,3:2:0:0:
140,132,113409,6,0,P|133:169|127:214,1,70,8|0,3:2|0:0,0:0:0:0:
115,298,113709,1,10,0:0:0:0:
206,263,113859,1,8,0:0:0:0:
206,361,114009,2,0,P|241:367|285:358,1,70,2|0,0:0|3:0,0:0:0:0:
275,262,114309,2,0,P|240:256|206:262,1,70,10|2,0:0|3:2,0:0:0:0:
374,298,114609,5,2,3:2:0:0:
367,200,114759,1,0,0:0:0:0:
473,290,114909,1,8,0:0:0:0:
466,192,115059,1,8,0:0:0:0:
359,314,115209,5,2,0:0:0:0:
350,185,115359,1,2,3:2:0:0:
489,304,115509,2,0,P|479:352|474:382,1,70,10|0,0:0|3:0,0:0:0:0:
336,173,115809,5,12,0:0:0:0:
262,335,115959,1,0,0:0:0:0:
262,335,116034,1,0,0:0:0:0:
262,335,116109,1,2,3:2:0:0:
152,155,116259,5,8,0:0:0:0:
298,250,116409,1,2,3:2:0:0:
268,77,116559,1,0,3:2:0:0:
175,265,116709,5,10,0:0:0:0:
322,159,116859,1,0,3:0:0:0:
262,335,117009,5,2,3:2:0:0:
75,223,117159,1,8,0:0:0:0:
75,223,117234,1,8,0:0:0:0:
75,223,117309,2,0,L|0:239,1,43.75,8|0,0:0|3:0,0:0:0:0:
113,123,117459,2,0,L|188:139,1,43.75,0|0,3:0|3:0,0:0:0:0:
287,84,117609,2,0,P|297:42|284:-2,1,87.5,10|0,0:0|0:0,0:0:0:0:
184,239,117909,6,0,B|180:271|165:293|165:293|168:343|206:367|206:367|239:346,1,183.749994392395,8|0,0:0|0:0,0:0:0:0:
313,304,118209,6,0,B|356:310|356:310|367:319|367:319|413:326,1,96.250002937317,14|0,0:2|3:0,0:0:0:0:
454,137,118509,2,0,P|407:121|341:133,1,96.250002937317,10|0,0:2|3:0,0:0:0:0:
190,218,118809,1,10,0:0:0:0:
267,31,118959,1,10,0:0:0:0:
395,233,119109,1,10,0:2:0:0:
456,40,119259,1,0,3:0:0:0:
274,128,119409,6,0,P|222:119|161:113,1,96.250002937317,14|0,0:2|3:0,0:0:0:0:
5,220,119709,2,0,P|52:214|100:206,1,96.250002937317,10|0,0:2|3:0,0:0:0:0:
176,27,120009,1,10,0:0:0:0:
6,117,120159,1,10,0:0:0:0:
199,201,120309,2,0,P|216:255|201:309,1,96.250002937317,10|0,0:0|3:0,3:0:0:0:
92,93,120609,5,10,0:0:0:0:
274,128,120759,1,2,3:2:0:0:
100,206,120909,1,2,3:2:0:0:
198,18,121059,1,8,0:0:0:0:
300,214,121209,5,2,3:2:0:0:
112,96,121359,1,2,3:2:0:0:
326,40,121509,2,0,P|372:33|435:56,1,96.250002937317,10|0,0:0|3:0,3:0:0:0:
498,242,121809,5,14,0:0:0:0:
318,206,121959,1,2,3:2:0:0:
480,122,122109,1,2,3:2:0:0:
378,329,122259,5,10,0:0:0:0:
221,217,122409,1,2,3:2:0:0:
405,162,122559,1,2,3:2:0:0:
239,323,122709,5,10,0:0:0:0:
200,124,122859,1,0,3:0:0:0:
89,315,123009,6,0,B|55:333|55:333|-6:319,1,96.250002937317,14|0,0:2|3:0,0:0:0:0:
107,129,123309,2,0,P|153:116|200:123,1,96.250002937317,10|0,0:2|3:0,0:0:0:0:
394,181,123609,1,10,0:0:0:0:
254,35,123759,1,10,0:0:0:0:
300,251,123909,1,10,0:0:0:0:
391,70,124059,1,0,3:0:0:0:
500,228,124209,6,0,P|488:277|483:326,1,96.250002937317,14|0,0:2|3:0,0:0:0:0:
302,357,124509,2,0,P|296:309|285:262,1,96.250002937317,10|0,0:2|3:0,0:0:0:0:
115,150,124809,1,10,0:0:0:0:
177,332,124959,1,10,0:0:0:0:
300,158,125109,2,0,P|348:166|393:180,1,96.250002937317,10|0,0:0|3:0,3:0:0:0:
290,365,125409,5,10,0:0:0:0:
199,195,125559,1,2,3:2:0:0:
377,267,125709,1,2,3:2:0:0:
169,308,125859,1,10,0:0:0:0:
296,138,126009,6,0,P|285:84|277:28,1,96.250002937317,2|0,3:2|3:2,0:0:0:0:
498,163,126309,2,0,P|487:216|479:273,1,96.250002937317,10|0,0:0|3:2,0:0:0:0:
272,376,126609,5,2,3:2:0:0:
398,171,126756,2,0,P|396:146|388:113,1,48.1250014686585,10|0,0:2|0:0,0:0:0:0:
279,43,126904,1,0,3:0:0:0:
279,43,126978,1,0,3:0:0:0:
279,43,127052,2,0,P|274:66|272:90,1,48.1250014686585,0|0,3:0|3:0,0:0:0:0:
154,138,127200,6,0,P|129:129|100:122,1,48.1250014686585,8|0,0:0|0:0,0:0:0:0:
0,191,127347,1,8,0:0:0:0:
5,220,127421,1,8,0:0:0:0:
10,248,127495,1,8,0:0:0:0:
14,277,127569,1,8,0:0:0:0:
19,305,127643,1,8,0:0:0:0:
23,334,127717,1,8,0:0:0:0:
28,362,127791,6,0,B|71:351|71:351|88:357|88:357|134:346,1,104.999996795654,12|0,0:2|3:0,0:0:0:0:
315,210,128091,2,0,P|255:199|204:218,1,104.999996795654,10|0,0:2|3:0,0:0:0:0:
446,312,128391,1,10,0:0:0:0:
349,113,128541,1,0,3:0:0:0:
198,293,128691,2,0,P|250:301|302:311,1,104.999996795654,10|0,0:2|0:0,0:0:0:0:
123,179,128991,5,10,0:0:0:0:
78,353,129141,1,0,3:2:0:0:
123,179,129291,1,10,0:0:0:0:
78,353,129441,1,0,3:2:0:0:
10,143,129591,5,10,0:0:0:0:
175,289,129741,1,0,3:2:0:0:
235,77,129891,2,0,B|326:53|302:118|399:91,1,157.499995193482,10|0,0:0|0:0,0:0:0:0:
480,80,130191,6,0,P|467:139|457:199,1,104.999996795654,12|0,0:2|3:0,0:0:0:0:
306,358,130491,2,0,P|296:306|285:255,1,104.999996795654,10|0,0:2|3:0,0:0:0:0:
131,82,130791,1,10,0:0:0:0:
161,311,130941,1,0,3:0:0:0:
353,191,131091,2,0,P|401:210|453:203,1,104.999996795654,10|0,0:2|0:0,0:0:0:0:
339,4,131391,5,10,0:0:0:0:
233,173,131541,1,0,3:2:0:0:
339,4,131691,1,10,0:0:0:0:
233,173,131841,1,0,3:2:0:0:
428,71,131991,5,10,0:0:0:0:
214,17,132141,1,0,3:2:0:0:
353,192,132291,2,0,P|333:279|323:352,1,157.499995193482,10|0,0:0|0:0,0:0:0:0:
228,352,132591,6,0,B|199:333|199:333|161:333|132:350,1,104.999996795654,12|0,0:2|3:0,0:0:0:0:
6,154,132891,2,0,P|59:175|122:166,1,104.999996795654,10|0,0:2|3:0,0:0:0:0:
321,84,133191,1,10,0:0:0:0:
97,24,133341,1,0,3:0:0:0:
250,211,133491,2,0,P|301:200|353:191,1,104.999996795654,10|0,0:2|0:0,0:0:0:0:
180,89,133791,5,10,0:0:0:0:
91,267,133941,1,0,3:2:0:0:
180,89,134091,1,10,0:0:0:0:
91,267,134241,1,0,3:2:0:0:
2,64,134391,5,10,0:0:0:0:
175,209,134541,1,0,3:2:0:0:
271,10,134691,2,0,P|319:7|381:29,1,104.999996795654,10|0,0:0|3:2,0:0:0:0:
487,226,134991,5,6,3:2:0:0:
291,184,135141,1,2,3:2:0:0:
470,97,135291,1,0,3:2:0:0:
365,290,135441,1,0,3:2:0:0:
236,97,135591,2,0,P|185:106|128:118,1,104.999996795654,2|0,3:2|3:2,0:0:0:0:
12,288,135891,2,0,P|63:298|115:307,1,104.999996795654,2|0,3:2|3:2,0:0:0:0:
313,186,136191,5,10,0:0:0:0:
129,28,136341,1,8,0:0:0:0:
197,259,136491,1,8,0:0:0:0:
304,8,136641,1,8,0:0:0:0:
403,269,136791,5,8,0:0:0:0:
184,106,136941,1,0,3:0:0:0:
434,128,137091,2,0,P|472:118|510:110,1,78.7499975967408,8|0,0:0|3:0,0:0:0:0:
283,5,137391,5,4,3:2:0:0:
256,192,137466,12,0,142791,0:0:0:0:
