osu file format v14

[General]
AudioFilename: audio.mp3
AudioLeadIn: 0
PreviewTime: -1
Countdown: 0
SampleSet: Normal
StackLeniency: 0.7
Mode: 0
LetterboxInBreaks: 0
WidescreenStoryboard: 0

[Editor]
DistanceSpacing: 0.2
BeatDivisor: 16
GridSize: 32
TimelineZoom: 0.8

[Metadata]
Title:TOKYO Cypher
TitleUnicode:TOKYO Cypher
Artist:Lil Wuyn, 16 BrT, 16 Typh
ArtistUnicode:Lil Wuyn, 16 BrT, 16 Typh
Creator:Sushi1120
Version:Insane
Source:
Tags:#hiphop #rap
BeatmapID:4536912
BeatmapSetID:2153185

[Difficulty]
HPDrainRate:5
CircleSize:6
OverallDifficulty:10
ApproachRate:10
SliderMultiplier:1.4
SliderTickRate:1

[Events]
//Background and Video events
0,0,"9953.jpg",0,0
//Break Periods
//Storyboard Layer 0 (Background)
//Storyboard Layer 1 (Fail)
//Storyboard Layer 2 (Pass)
//Storyboard Layer 3 (Foreground)
//Storyboard Layer 4 (Overlay)
//Storyboard Sound Samples

[TimingPoints]
17.1654558333172,392.156862745098,4,1,0,100,1,0

[HitObjects]
314,125,5017,6,0,P|284:186|277:189,1,78.75
220,226,5458,1,0,0:0:0:0:
219,133,5899,1,0,0:0:0:0:
218,64,6316,1,0,0:0:0:0:
204,150,8276,5,0,0:0:0:0:
247,207,8473,1,0,0:0:0:0:
295,148,8987,1,0,0:0:0:0:
178,137,9428,1,0,0:0:0:0:
210,156,10654,6,0,P|227:171|396:167,2,201.25
124,193,12149,5,0,0:0:0:0:
164,248,12370,1,0,0:0:0:0:
223,224,12541,1,0,0:0:0:0:
347,166,12909,2,0,B|378:142|397:116|404:121,3,70
331,233,13669,2,0,P|344:289|389:249,1,140
442,208,14306,1,0,0:0:0:0:
478,155,14502,1,0,0:0:0:0:
445,104,14968,5,0,0:0:0:0:
368,125,15188,2,0,P|383:212|404:186,1,210
385,300,16120,1,0,0:0:0:0:
297,318,16316,1,0,0:0:0:0:
232,279,16512,1,0,0:0:0:0:
187,227,16732,1,0,0:0:0:0:
168,173,16928,1,0,0:0:0:0:
235,156,17026,2,0,B|273:155|275:133|303:139|303:165|328:148|309:121|337:117,1,113.75
213,265,18056,5,0,0:0:0:0:
261,231,18276,1,0,0:0:0:0:
261,231,18473,1,0,0:0:0:0:
297,181,18865,1,0,0:0:0:0:
209,173,19257,1,0,0:0:0:0:
205,120,19649,1,0,0:0:0:0:
279,146,19894,2,0,B|295:178|300:179|327:169|258:195|403:165|344:194|382:257|283:200|249:280,1,218.75
239,211,21267,5,0,0:0:0:0:
239,211,21463,1,0,0:0:0:0:
279,155,21634,1,0,0:0:0:0:
268,91,21879,1,0,0:0:0:0:
197,80,22296,1,0,0:0:0:0:
197,165,22713,1,0,0:0:0:0:
289,128,22958,1,0,0:0:0:0:
366,114,23129,2,0,B|403:149|402:156|358:185,2,96.25
257,198,24747,5,0,0:0:0:0:
257,198,24919,1,0,0:0:0:0:
257,198,25139,1,0,0:0:0:0:
227,94,25924,5,0,0:0:0:0:
176,156,26095,1,0,0:0:0:0:
164,223,26267,1,0,0:0:0:0:
250,254,26438,1,0,0:0:0:0:
311,208,26659,1,0,0:0:0:0:
320,138,27051,1,0,0:0:0:0:
257,116,27419,1,0,0:0:0:0:
190,111,27762,1,0,0:0:0:0:
175,179,27933,1,0,0:0:0:0:
228,241,28178,1,0,0:0:0:0:
296,263,29061,5,0,0:0:0:0:
233,231,29257,1,0,0:0:0:0:
163,176,29526,1,0,0:0:0:0:
190,109,29723,1,0,0:0:0:0:
271,116,30041,1,0,0:0:0:0:
324,147,30213,1,0,0:0:0:0:
369,108,30482,1,0,0:0:0:0:
425,162,30678,1,0,0:0:0:0:
411,232,30899,1,0,0:0:0:0:
277,282,31120,1,0,0:0:0:0:
277,282,31340,1,0,0:0:0:0:
212,283,32149,5,0,0:0:0:0:
188,228,32345,1,0,0:0:0:0:
243,183,32590,1,0,0:0:0:0:
281,127,32762,1,0,0:0:0:0:
221,104,32958,1,0,0:0:0:0:
163,139,33399,1,0,0:0:0:0:
95,200,33767,1,0,0:0:0:0:
98,262,34036,1,0,0:0:0:0:
200,263,34232,1,0,0:0:0:0:
277,208,34453,1,0,0:0:0:0:
309,130,35703,5,0,0:0:0:0:
233,125,35875,1,0,0:0:0:0:
171,160,36095,1,0,0:0:0:0:
253,169,37394,6,0,B|369:160|281:254|198:247,2,192.5
195,140,38816,2,0,B|230:137|228:116|213:97|180:82|213:100,1,78.75
148,80,39281,1,0,0:0:0:0:
96,127,39526,2,0,B|45:168|37:150|50:192|100:186,1,113.75
187,231,40409,6,0,B|329:217|314:178|358:283|395:175,2,236.25
129,236,42075,5,0,0:0:0:0:
117,174,42272,1,0,0:0:0:0:
165,133,42443,1,0,0:0:0:0:
228,138,42737,1,0,0:0:0:0:
302,142,42933,1,0,0:0:0:0:
311,209,43595,5,0,0:0:0:0:
280,274,43767,1,0,0:0:0:0:
201,264,43963,1,0,0:0:0:0:
189,188,44257,1,0,0:0:0:0:
132,171,44575,1,0,0:0:0:0:
156,112,45115,5,0,0:0:0:0:
230,116,45286,1,0,0:0:0:0:
277,155,45433,1,0,0:0:0:0:
345,192,45605,1,0,0:0:0:0:
308,258,45801,1,0,0:0:0:0:
236,241,45997,1,0,0:0:0:0:
165,220,46683,5,0,0:0:0:0:
200,163,46855,1,0,0:0:0:0:
253,118,47051,1,0,0:0:0:0:
210,65,47419,1,0,0:0:0:0:
210,65,47688,1,0,0:0:0:0:
124,123,48448,1,0,0:0:0:0:
164,177,49110,5,0,0:0:0:0:
215,223,49281,1,0,0:0:0:0:
267,166,49453,1,0,0:0:0:0:
290,81,49772,6,0,B|335:67|335:39|371:73,2,87.5
322,159,50458,1,0,0:0:0:0:
254,211,50629,1,0,0:0:0:0:
305,256,50850,2,0,P|325:302|336:294,1,87.5
370,225,51389,1,0,0:0:0:0:
446,232,51683,2,0,P|492:233|478:204,3,96.25
459,151,52786,5,0,0:0:0:0:
400,114,53080,1,0,0:0:0:0:
320,109,53301,1,0,0:0:0:0:
286,149,53497,1,0,0:0:0:0:
294,212,53644,2,0,L|252:227,2,43.75
191,287,54159,1,0,0:0:0:0:
133,243,54330,1,0,0:0:0:0:
137,178,54526,1,0,0:0:0:0:
193,147,54698,2,0,L|263:138,2,70
319,140,55335,1,0,0:0:0:0:
392,116,55678,1,0,0:0:0:0:
462,119,55973,5,0,0:0:0:0:
499,191,56144,1,0,0:0:0:0:
458,251,56316,1,0,0:0:0:0:
420,301,56536,1,0,0:0:0:0:
374,243,56732,1,0,0:0:0:0:
326,191,56879,2,0,B|272:166|258:168|233:180,1,96.25
216,102,57394,1,0,0:0:0:0:
133,119,57590,1,0,0:0:0:0:
99,178,57737,2,0,B|133:250|132:248,2,70
185,286,58399,2,0,P|223:245|246:231,2,78.75
322,233,58987,5,0,0:0:0:0:
434,213,59183,1,0,0:0:0:0:
507,249,59355,1,0,0:0:0:0:
512,168,59600,1,0,0:0:0:0:
504,103,59796,1,0,0:0:0:0:
438,71,59992,1,0,0:0:0:0:
355,58,60213,1,0,0:0:0:0:
297,71,60335,2,0,B|294:122|254:126|219:95,1,105
170,120,60776,1,0,0:0:0:0:
105,162,60948,1,0,0:0:0:0:
97,231,61169,1,0,0:0:0:0:
170,273,61316,2,0,P|192:291|226:242,1,105
2,37,62247,5,0,0:0:0:0:
29,98,62468,1,0,0:0:0:0:
45,163,62664,1,0,0:0:0:0:
94,226,62811,2,0,B|139:224|147:211|169:236|181:206,2,87.5
243,202,63497,1,0,0:0:0:0:
298,267,63718,1,0,0:0:0:0:
394,284,63914,1,0,0:0:0:0:
466,221,64110,1,0,0:0:0:0:
433,146,64306,1,0,0:0:0:0:
373,115,64526,1,0,0:0:0:0:
302,107,64723,1,0,0:0:0:0:
255,146,64845,2,0,P|222:180|184:167,2,87.5
141,125,65556,5,0,0:0:0:0:
53,178,65727,1,0,0:0:0:0:
49,264,65875,1,0,0:0:0:0:
118,290,66046,1,0,0:0:0:0:
186,281,66242,1,0,0:0:0:0:
248,299,66389,2,0,P|300:312|335:269,1,113.75
403,245,66806,1,0,0:0:0:0:
451,190,67002,1,0,0:0:0:0:
449,127,67174,1,0,0:0:0:0:
352,160,67321,2,0,P|301:149|289:153,2,61.25
160,256,67884,1,0,0:0:0:0:
155,260,68080,2,0,L|199:315,2,70
260,302,68693,5,0,0:0:0:0:
327,296,68889,1,0,0:0:0:0:
393,280,69061,2,0,L|389:245,2,35
236,80,70115,5,0,0:0:0:0:
191,144,70311,1,0,0:0:0:0:
135,167,70482,2,0,L|98:197,1,43.75
67,245,70776,1,0,0:0:0:0:
110,296,71046,2,0,B|170:299|178:264|168:251,2,87.5
238,234,71732,5,0,0:0:0:0:
302,203,71928,1,0,0:0:0:0:
317,140,72075,1,0,0:0:0:0:
257,115,72272,1,0,0:0:0:0:
195,111,72443,2,0,P|161:100|160:77,2,61.25
106,144,73031,1,0,0:0:0:0:
96,220,73252,1,0,0:0:0:0:
129,279,73448,1,0,0:0:0:0:
195,297,73669,1,0,0:0:0:0:
267,295,73865,1,0,0:0:0:0:
314,255,74085,2,0,L|346:238,3,35
302,194,74575,6,0,L|301:150,6,43.75
363,123,75556,5,0,0:0:0:0:
423,159,75727,1,0,0:0:0:0:
465,232,75899,1,0,0:0:0:0:
391,266,76095,1,0,0:0:0:0:
327,265,76242,2,0,L|263:265,3,61.25
119,83,77713,5,0,0:0:0:0:
185,99,77884,1,0,0:0:0:0:
258,103,78080,1,0,0:0:0:0:
238,170,78252,1,0,0:0:0:0:
298,214,78424,1,0,0:0:0:0:
258,281,78644,1,0,0:0:0:0:
183,313,78816,1,0,0:0:0:0:
120,305,78987,2,0,L|104:268,2,35
99,196,79330,1,0,0:0:0:0:
143,128,79526,1,0,0:0:0:0:
204,163,79674,2,0,P|238:161|256:132,1,70
247,223,80164,6,0,L|320:279,2,87.5
247,146,80850,5,0,0:0:0:0:
263,89,81022,1,0,0:0:0:0:
339,85,81169,1,0,0:0:0:0:
405,114,81365,1,0,0:0:0:0:
445,178,81561,1,0,0:0:0:0:
408,230,81708,2,0,P|386:245|366:247,1,43.75
308,273,82051,1,0,0:0:0:0:
230,253,82296,1,0,0:0:0:0:
174,217,82517,1,0,0:0:0:0:
140,158,82639,2,0,L|202:143,3,61.25
209,110,83987,5,0,0:0:0:0:
305,115,84183,1,0,0:0:0:0:
328,174,84355,1,0,0:0:0:0:
294,224,84526,2,0,L|250:249,3,43.75
202,260,85090,1,0,0:0:0:0:
181,201,85262,1,0,0:0:0:0:
236,159,85433,1,0,0:0:0:0:
306,135,85654,2,0,L|375:117,3,70
254,192,86659,5,0,0:0:0:0:
254,192,87075,1,0,0:0:0:0:
254,192,87492,1,0,0:0:0:0:
206,119,87982,6,0,L|287:118,1,78.75
202,190,89012,2,0,L|269:189,1,61.25
187,285,90997,2,0,L|258:283,1,70
181,188,92615,2,0,L|252:186,1,70
226,163,94110,2,0,L|227:224,1,61.25
209,175,95311,2,0,L|293:223,2,96.25
193,189,97125,2,0,L|281:185,1,87.5
256,192,98350,12,0,99919,0:0:0:0:
154,105,100482,5,0,0:0:0:0:
153,181,100654,1,0,0:0:0:0:
198,243,100850,1,0,0:0:0:0:
277,236,101022,1,0,0:0:0:0:
321,183,101193,2,0,P|339:135|327:119,2,70
394,245,102075,5,0,0:0:0:0:
428,192,102247,1,0,0:0:0:0:
405,128,102419,1,0,0:0:0:0:
332,131,102566,1,0,0:0:0:0:
263,164,102713,2,0,L|224:182,2,43.75
282,239,103522,5,0,0:0:0:0:
214,261,103693,1,2,0:0:0:0:
157,236,103889,1,0,0:0:0:0:
139,171,104061,1,0,0:0:0:0:
78,179,104281,2,0,P|48:155|50:141,2,52.5
138,91,105164,5,0,0:0:0:0:
199,96,105335,1,0,0:0:0:0:
260,133,105507,1,0,0:0:0:0:
309,186,105654,1,0,0:0:0:0:
275,236,105825,2,0,L|229:245,2,43.75
201,195,106585,5,0,0:0:0:0:
201,195,106732,1,0,0:0:0:0:
201,195,106879,1,0,0:0:0:0:
201,195,107051,1,0,0:0:0:0:
236,256,107272,1,0,0:0:0:0:
296,211,107443,1,0,0:0:0:0:
177,148,108301,5,0,0:0:0:0:
171,222,108497,1,0,0:0:0:0:
235,234,108693,1,0,0:0:0:0:
301,248,108767,2,0,L|326:253,3,26.25
238,258,109649,5,0,0:0:0:0:
250,188,109845,1,0,0:0:0:0:
279,134,110041,1,0,0:0:0:0:
344,118,110262,1,0,0:0:0:0:
368,170,110384,2,0,L|381:202,2,35
402,280,111022,5,0,0:0:0:0:
338,293,111218,1,0,0:0:0:0:
276,297,111414,1,0,0:0:0:0:
207,279,111634,1,0,0:0:0:0:
156,237,111830,1,0,0:0:0:0:
177,180,111977,2,0,L|211:155,2,35
382,247,112639,5,0,0:0:0:0:
398,180,112811,2,0,L|374:127,2,52.5
333,149,113276,1,0,0:0:0:0:
262,123,113448,1,0,0:0:0:0:
188,173,113595,2,0,L|168:241,1,70
98,234,113987,5,0,0:0:0:0:
98,234,114232,1,0,0:0:0:0:
98,234,114453,1,0,0:0:0:0:
122,142,114674,1,0,0:0:0:0:
206,94,114845,1,0,0:0:0:0:
283,107,114992,1,0,0:0:0:0:
334,167,115188,1,0,0:0:0:0:
340,253,115433,5,0,0:0:0:0:
451,264,115654,1,0,0:0:0:0:
489,173,115850,1,0,0:0:0:0:
412,102,116071,1,0,0:0:0:0:
324,91,116316,1,0,0:0:0:0:
286,188,116536,1,0,0:0:0:0:
223,238,116683,2,0,L|181:213,2,43.75
131,156,117688,5,0,0:0:0:0:
131,156,117909,1,0,0:0:0:0:
135,153,118129,1,0,0:0:0:0:
232,149,118424,2,0,L|304:143,2,70
462,117,119281,5,0,0:0:0:0:
512,193,119526,1,0,0:0:0:0:
456,249,119723,1,0,0:0:0:0:
372,258,119919,1,0,0:0:0:0:
289,252,120066,2,0,L|231:214,2,70
162,244,120899,5,0,0:0:0:0:
133,170,121095,1,0,0:0:0:0:
224,154,121291,1,0,0:0:0:0:
321,143,121512,1,0,0:0:0:0:
309,71,121659,2,0,P|253:66|249:51,2,78.75
95,145,122419,5,0,0:0:0:0:
135,199,122639,1,0,0:0:0:0:
207,240,122835,1,0,0:0:0:0:
272,252,122982,2,0,P|305:230|322:211,2,61.25
391,193,123497,1,0,0:0:0:0:
481,226,123742,5,8,0:0:0:0:
512,146,123963,1,0,0:0:0:0:
445,75,124183,1,0,0:0:0:0:
363,83,124404,1,0,0:0:0:0:
287,113,124625,1,0,0:0:0:0:
229,55,124772,1,0,0:0:0:0:
170,134,124992,1,0,0:0:0:0:
223,201,125213,1,0,0:0:0:0:
181,271,125458,5,0,0:0:0:0:
97,290,125605,1,0,0:0:0:0:
47,206,125801,1,0,0:0:0:0:
24,133,126022,1,0,0:0:0:0:
92,98,126267,1,0,0:0:0:0:
159,130,126365,2,0,P|193:148|194:139,1,70
228,182,127149,5,0,0:0:0:0:
213,248,127419,1,0,0:0:0:0:
275,296,127566,1,0,0:0:0:0:
349,265,127762,1,0,0:0:0:0:
376,200,127884,2,0,L|335:188,2,35
512,174,128644,5,0,0:0:0:0:
438,129,128889,1,0,0:0:0:0:
361,110,129085,1,0,0:0:0:0:
285,97,129281,1,0,0:0:0:0:
289,159,129428,2,0,L|262:202,2,43.75
216,233,130188,5,0,0:0:0:0:
216,233,130335,1,0,0:0:0:0:
133,258,130507,1,0,0:0:0:0:
89,213,130703,1,0,0:0:0:0:
133,157,130948,2,0,L|173:151,3,35
238,127,131855,5,0,0:0:0:0:
336,124,132026,1,0,0:0:0:0:
329,216,132223,1,0,0:0:0:0:
263,232,132394,1,0,0:0:0:0:
168,233,132566,2,0,L|202:301,2,70
257,305,133424,5,0,0:0:0:0:
348,305,133595,1,0,0:0:0:0:
422,254,133767,1,0,0:0:0:0:
512,261,133938,1,0,0:0:0:0:
484,193,134061,2,0,L|415:153,2,78.75
310,80,134968,5,0,0:0:0:0:
234,83,135188,1,0,0:0:0:0:
151,102,135409,1,0,0:0:0:0:
181,181,135629,1,0,0:0:0:0:
181,181,135875,1,0,0:0:0:0:
181,181,136095,1,0,0:0:0:0:
207,239,136512,6,0,L|258:265,1,52.5
335,188,136977,2,0,P|308:190|314:226,2,70
330,130,137590,1,0,0:0:0:0:
181,188,138007,6,0,B|197:226|280:213|279:178,1,122.5
178,173,139134,2,0,B|231:121|254:97|246:288,1,218.75
396,122,140041,2,0,B|311:155|260:272|351:312|363:317|370:334|430:242|400:220|356:232,1,341.25
198,194,141193,2,0,L|284:250,1,96.25
226,224,142615,2,0,P|282:184|280:174,2,87.5
212,149,143718,2,0,L|268:213,1,78.75
196,250,144257,2,0,L|253:205,1,70
217,134,145899,2,0,L|266:212,2,87.5
229,188,147345,2,0,B|280:256|289:266|321:187,2,148.75
256,192,148889,12,0,149674,0:0:0:0:
204,157,150164,2,0,L|258:216,2,78.75
286,169,151022,5,0,0:0:0:0:
276,103,151218,1,0,0:0:0:0:
276,103,151414,1,0,0:0:0:0:
206,63,151610,1,0,0:0:0:0:
160,156,151781,2,0,L|226:214,2,87.5
246,186,152811,6,0,L|285:232,2,61.25
181,151,153399,1,0,0:0:0:0:
238,81,153767,1,0,0:0:0:0:
323,106,154232,5,0,0:0:0:0:
323,106,154453,1,0,0:0:0:0:
323,106,154625,1,0,0:0:0:0:
372,169,154845,1,0,0:0:0:0:
372,169,155041,1,0,0:0:0:0:
355,248,155188,2,0,L|284:264,2,70
187,107,156144,5,0,0:0:0:0:
252,80,156316,1,0,0:0:0:0:
229,148,156512,2,0,L|200:208,2,61.25
289,266,157321,5,0,0:0:0:0:
318,179,157737,1,0,0:0:0:0:
318,179,157933,1,0,0:0:0:0:
318,179,158129,1,0,0:0:0:0:
318,179,158325,1,0,0:0:0:0:
318,179,158522,1,0,0:0:0:0:
318,179,159232,5,0,0:0:0:0:
318,179,159453,1,0,0:0:0:0:
318,179,159649,1,0,0:0:0:0:
318,179,159870,1,0,0:0:0:0:
318,179,160066,1,0,0:0:0:0:
260,274,160384,2,0,L|329:257,2,70
318,179,160997,1,0,0:0:0:0:
268,142,161291,2,0,L|203:113,2,70
309,178,162737,5,0,0:0:0:0:
309,178,162933,1,0,0:0:0:0:
309,178,163129,1,0,0:0:0:0:
309,178,163938,5,0,0:0:0:0:
309,178,164159,1,0,0:0:0:0:
309,178,164355,1,0,0:0:0:0:
309,178,164551,1,0,0:0:0:0:
309,178,164772,1,0,0:0:0:0:
217,134,165139,2,0,L|189:202,2,70
263,232,165776,2,0,L|325:164,2,87.5
146,136,167075,5,0,0:0:0:0:
146,136,167296,1,0,0:0:0:0:
184,226,167541,2,0,L|261:200,2,78.75
184,155,168129,2,0,L|226:121,3,52.5
257,65,168816,1,0,0:0:0:0:
191,130,169061,2,0,L|151:216,2,87.5
256,192,170213,12,0,175531,0:0:0:0:
