osu file format v14

[General]
AudioFilename: xo_new.mp3
AudioLeadIn: 0
PreviewTime: 62997
Countdown: 0
SampleSet: Normal
StackLeniency: 0.7
Mode: 1
LetterboxInBreaks: 0
WidescreenStoryboard: 1

[Editor]
Bookmarks: 10587,21195,42410,53018,63626,84841,106057,127272,137880,159095
DistanceSpacing: 0.9
BeatDivisor: 12
GridSize: 8
TimelineZoom: 2.1

[Metadata]
Title:XO Tour Llif3 (jscelle remix)
TitleUnicode:XO Tour Llif3 (jscelle remix)
Artist:Lil Uzi Vert
ArtistUnicode:Lil Uzi Vert
Creator:Slim-san
Version:Oni
Source:
Tags:electronic hardstyle dnb drum and bass & hyperpop life rap hip-hop hip hop sped up english luv is rage 2 two x0
BeatmapID:3934272
BeatmapSetID:1907433

[Difficulty]
HPDrainRate:5
CircleSize:4
OverallDifficulty:5.5
ApproachRate:9
SliderMultiplier:1.4
SliderTickRate:1

[Events]
//Background and Video events
0,0,"94635586_p0 (1).jpg",0,10
//Break Periods
//Storyboard Layer 0 (Background)
//Storyboard Layer 1 (Fail)
//Storyboard Layer 2 (Pass)
//Storyboard Layer 3 (Foreground)
//Storyboard Layer 4 (Overlay)
//Storyboard Sound Samples

[TimingPoints]
345,331.491712707182,4,1,0,70,1,0
345,-111.111111111111,4,1,0,70,0,0
9958,-99.9999999999999,4,1,0,70,0,0
10252,-71.4285714285714,4,1,0,100,0,0
10584,-76.9230769230769,4,1,0,80,0,0
10915,-111.111111111111,4,1,0,90,0,0
10952,-71.4285714285714,4,1,0,90,0,1
11118,-76.9230769230769,4,1,0,90,0,1
20896,-83.333336,4,1,0,90,0,1
20979,-85.109116,4,1,0,90,0,1
21062,-86.96222,4,1,0,90,0,1
21227,-90.89663,4,1,0,90,0,1
21393,-95.231255,4,1,0,90,0,1
21560,-100,4,1,0,70,0,0
41448,-98.039215,4,1,0,70,0,0
41780,-96.09941,4,1,0,70,0,0
42111,-94.24039,4,1,0,70,0,0
42443,-92.44661,4,1,0,70,0,0
42739,-90.9090909090908,4,1,0,80,0,0
53346,-111.111111111111,4,1,0,100,0,0
53383,-66.6666666666666,4,1,0,100,0,1
54746,-111.111111111111,4,1,0,5,0,1
55041,-111.111111111111,4,1,0,5,0,0
55335,-111.111111111111,4,1,0,100,0,0
55372,-66.6666666666666,4,1,0,100,0,1
57324,-111.111111111111,4,1,0,60,0,1
57361,-111.111111111111,4,1,0,100,0,0
57444,-111.111111111111,4,1,0,5,0,0
58024,-66.6666666666666,4,1,0,100,0,1
59101,-111.111111111111,4,1,0,5,0,1
59313,-111.111111111111,4,1,0,60,0,1
59350,-111.111111111111,4,1,0,60,0,0
59645,-111.111111111111,4,1,0,100,0,0
59682,-66.6666666666666,4,1,0,100,0,1
61302,-111.111111111111,4,1,0,60,0,1
61339,-111.111111111111,4,1,0,60,0,0
61376,-111.111111111111,4,1,0,5,0,0
61965,-111.111111111111,4,1,0,60,0,0
62702,-111.111111111111,4,1,0,5,0,0
63954,-111.111111111111,4,1,0,90,0,0
63991,-76.9230769230769,4,1,0,90,0,1
83844,-76.9230769230769,4,1,0,100,0,1
83879,-77.33894,4,1,0,100,0,1
84211,-81.39719,4,1,0,100,0,1
84542,-85.890594,4,1,0,100,0,1
84874,-90.95303,4,1,0,80,0,1
84957,-93.328636,4,1,0,80,0,1
85040,-95.83166,4,1,0,80,0,1
85122,-98.439964,4,1,0,80,0,1
85170,-99.9999999999999,4,1,0,70,0,1
85206,-99.9999999999999,4,1,0,80,0,0
105096,331.491712707182,4,1,0,70,1,8
105096,-100,4,1,0,70,0,8
105106,331.491712707182,4,1,0,70,1,0
105106,-100,4,1,0,70,0,0
106089,-101.0101,4,1,0,80,0,0
106172,-103.66154,4,1,0,80,0,0
106255,-106.455925,4,1,0,80,0,0
106338,-109.40514,4,1,0,80,0,0
106385,-111.111111111111,4,1,0,70,0,0
106431,331.491712707182,4,1,0,70,1,0
106431,-111.111111111111,4,1,0,70,0,8
126808,-125,4,1,0,70,0,0
127056,-129.86708,4,1,0,70,0,0
127306,-135.135135135135,4,1,0,70,0,0
127388,-137.00862,4,1,0,71,0,0
127471,-138.91846,4,1,0,71,0,0
127553,-140.85828,4,1,0,71,0,0
127636,-142.86745,4,1,0,71,0,0
127968,-139.53905,4,1,0,72,0,0
128299,-136.37154,4,1,0,72,0,0
128631,-133.3357,4,1,0,73,0,0
128797,-131.86789,4,1,0,73,0,0
128962,-130.44064,4,1,0,74,0,0
129128,-111.111111111111,4,1,0,74,0,0
129294,-127.66043,4,1,0,74,0,0
129459,-126.32232,4,1,0,74,0,0
129625,-125.00413,4,1,0,75,0,0
129708,-111.111111111111,4,1,0,75,0,0
129791,-111.111111111111,4,1,0,75,0,0
129957,-122.448555,4,1,0,75,0,0
130288,-120.00264,4,1,0,76,0,0
130454,-118.8124,4,1,0,76,0,0
130620,-117.645546,4,1,0,77,0,0
130785,-116.508224,4,1,0,77,0,0
130951,-115.38598,4,1,0,77,0,0
131117,-111.111111111111,4,1,0,78,0,0
131283,-113.20512,4,1,0,78,0,0
131614,-111.11139,4,1,0,79,0,0
131780,-110.09024,4,1,0,79,0,0
131946,-109.08769,4,1,0,79,0,0
132111,-108.10912,4,1,0,80,0,0
132277,-107.14218,4,1,0,80,0,0
132360,-111.111111111111,4,1,0,80,0,0
132443,-111.111111111111,4,1,0,80,0,0
132609,-105.25928,4,1,0,81,0,0
132940,-103.44678,4,1,0,81,0,0
133106,-102.561104,4,1,0,81,0,0
133272,-101.69046,4,1,0,82,0,0
133437,-100.83958,4,1,0,82,0,0
133603,-99.997795,4,1,0,82,0,0
133769,-111.111111111111,4,1,0,83,0,0
133935,-98.35571,4,1,0,83,0,0
134266,-96.771385,4,1,0,84,0,0
134432,-95.99589,4,1,0,84,0,0
134598,-95.23273,4,1,0,84,0,0
134763,-94.486084,4,1,0,85,0,0
134929,-93.74665,4,1,0,85,0,0
135095,-111.111111111111,4,1,0,85,0,0
135261,-92.30196,4,1,0,86,0,0
135592,-90.90527,4,1,0,86,0,0
135758,-90.22063,4,1,0,87,0,0
135924,-89.546196,4,1,0,87,0,0
136089,-88.885765,4,1,0,87,0,0
136255,-88.23107,4,1,0,87,0,0
136421,-111.111111111111,4,1,0,88,0,0
136587,-86.95021,4,1,0,88,0,0
136918,-85.70971,4,1,0,89,0,0
137084,-85.100815,4,1,0,89,0,0
137250,-84.50051,4,1,0,89,0,0
137415,-83.91216,4,1,0,90,0,0
137581,-83.328445,4,1,0,90,0,0
137914,-76.9218925362736,4,1,0,90,0,0
138208,-71.4285714285714,4,1,0,100,0,0
138254,-71.4285714285714,4,1,0,100,0,1
138392,-76.9230769230769,4,1,0,90,0,1
158098,-76.9230769230769,4,1,0,100,0,1
158134,-77.366135,4,1,0,100,0,1
158465,-81.569016,4,1,0,100,0,1
158797,-86.269745,4,1,0,100,0,1
159092,-90.9090909090909,4,1,0,80,0,1
159128,-91.839554,4,1,0,80,0,1
159211,-93.997734,4,1,0,80,0,1
159294,-96.25978,4,1,0,80,0,1
159377,-98.63339,4,1,0,80,0,1
159424,-99.9999999999999,4,1,0,70,0,1
159469,-99.9999999999999,4,1,0,70,0,0

[HitObjects]
292,217,345,5,8,0:0:0:0:
238,212,676,1,0,0:0:0:0:
265,231,842,1,8,0:0:0:0:
274,251,1173,1,0,0:0:0:0:
274,251,1339,1,0,0:0:0:0:
227,211,1670,1,8,0:0:0:0:
328,277,2002,1,0,0:0:0:0:
302,265,2168,1,8,0:0:0:0:
328,277,2333,1,0,0:0:0:0:
227,211,2996,1,8,0:0:0:0:
275,240,3328,1,0,0:0:0:0:
369,310,3659,1,0,0:0:0:0:
369,310,3825,1,8,0:0:0:0:
341,307,3991,1,8,0:0:0:0:
341,307,4157,1,0,0:0:0:0:
341,307,4240,1,0,0:0:0:0:
209,232,4322,1,8,0:0:0:0:
245,223,4654,1,0,0:0:0:0:
245,223,4820,1,0,0:0:0:0:
245,223,4985,1,8,0:0:0:0:
209,232,5648,1,8,0:0:0:0:
315,273,5980,1,8,0:0:0:0:
315,273,6146,1,0,0:0:0:0:
315,273,6311,1,8,0:0:0:0:
315,273,6643,1,0,0:0:0:0:
209,232,6974,1,8,0:0:0:0:
432,271,7140,1,0,0:0:0:0:
301,277,7306,1,0,0:0:0:0:
301,277,7472,1,8,0:0:0:0:
301,277,7637,1,0,0:0:0:0:
228,219,8135,1,0,0:0:0:0:
209,232,8300,1,8,0:0:0:0:
176,245,8632,1,0,0:0:0:0:
176,245,8798,1,8,0:0:0:0:
252,267,8963,1,0,0:0:0:0:
229,278,9295,1,8,0:0:0:0:
229,278,9461,1,0,0:0:0:0:
229,278,9543,1,0,0:0:0:0:
209,232,9626,1,8,0:0:0:0:
274,218,9958,1,0,0:0:0:0:
286,201,10289,1,4,0:0:0:0:
264,215,10455,1,4,0:0:0:0:
304,240,10621,1,8,0:0:0:0:
304,240,10704,1,8,0:0:0:0:
304,240,10786,1,8,0:0:0:0:
304,240,10869,1,8,0:0:0:0:
304,240,10952,1,4,0:0:0:0:
389,304,11284,1,8,0:0:0:0:
327,216,11449,1,0,0:0:0:0:
337,229,11615,1,8,0:0:0:0:
397,322,11698,1,8,0:0:0:0:
397,322,11781,1,0,0:0:0:0:
397,322,11947,1,8,0:0:0:0:
397,322,12112,1,0,0:0:0:0:
351,286,12278,1,8,0:0:0:0:
397,322,12361,1,8,0:0:0:0:
397,322,12444,1,0,0:0:0:0:
397,322,12527,1,0,0:0:0:0:
397,322,12610,1,8,0:0:0:0:
420,329,12941,1,8,0:0:0:0:
297,246,13107,1,0,0:0:0:0:
297,246,13190,1,0,0:0:0:0:
297,246,13273,1,8,0:0:0:0:
297,246,13438,1,0,0:0:0:0:
269,192,13604,1,0,0:0:0:0:
269,192,13687,1,8,0:0:0:0:
269,192,13770,1,0,0:0:0:0:
269,192,13853,1,0,0:0:0:0:
269,192,13936,1,8,0:0:0:0:
328,253,14101,1,0,0:0:0:0:
328,253,14267,1,8,0:0:0:0:
328,253,14350,1,8,0:0:0:0:
328,253,14433,1,0,0:0:0:0:
328,253,14599,1,8,0:0:0:0:
328,253,14764,1,0,0:0:0:0:
238,228,14930,1,8,0:0:0:0:
238,228,15013,1,8,0:0:0:0:
238,228,15096,1,0,0:0:0:0:
238,228,15179,1,0,0:0:0:0:
238,228,15262,1,8,0:0:0:0:
285,261,15593,1,8,0:0:0:0:
285,261,15759,1,0,0:0:0:0:
185,207,15842,1,0,0:0:0:0:
185,207,15925,1,8,0:0:0:0:
266,235,16090,1,0,0:0:0:0:
285,261,16256,1,0,0:0:0:0:
285,261,16339,1,8,0:0:0:0:
285,261,16422,1,0,0:0:0:0:
285,261,16505,1,0,0:0:0:0:
285,261,16588,1,8,0:0:0:0:
296,268,16753,1,0,0:0:0:0:
296,268,16919,1,8,0:0:0:0:
296,268,17002,1,8,0:0:0:0:
296,268,17085,1,0,0:0:0:0:
296,268,17251,1,8,0:0:0:0:
296,268,17416,1,0,0:0:0:0:
296,268,17582,1,8,0:0:0:0:
296,268,17665,1,8,0:0:0:0:
296,268,17748,1,0,0:0:0:0:
296,268,17831,1,0,0:0:0:0:
296,268,17914,1,8,0:0:0:0:
269,247,18245,1,8,0:0:0:0:
269,247,18411,1,0,0:0:0:0:
276,247,18494,1,0,0:0:0:0:
276,247,18577,1,8,0:0:0:0:
276,247,18742,1,0,0:0:0:0:
276,247,18908,1,0,0:0:0:0:
276,247,18991,1,0,0:0:0:0:
276,247,19074,1,8,0:0:0:0:
276,247,19157,1,0,0:0:0:0:
276,247,19240,1,8,0:0:0:0:
286,246,19405,1,0,0:0:0:0:
286,246,19571,1,8,0:0:0:0:
281,254,19654,1,8,0:0:0:0:
286,246,19737,1,0,0:0:0:0:
286,246,19903,1,8,0:0:0:0:
286,246,20068,1,0,0:0:0:0:
281,254,20234,1,8,0:0:0:0:
281,254,20317,1,8,0:0:0:0:
281,254,20400,1,0,0:0:0:0:
281,254,20483,1,0,0:0:0:0:
281,254,20565,1,0,0:0:0:0:
300,281,20897,1,8,0:0:0:0:
300,281,20980,1,8,0:0:0:0:
300,281,21063,1,0,0:0:0:0:
300,281,21228,1,8,0:0:0:0:
300,281,21394,1,8,0:0:0:0:
300,281,21560,1,0,0:0:0:0:
276,239,21891,1,0,0:0:0:0:
276,239,22223,1,8,0:0:0:0:
276,239,22389,1,0,0:0:0:0:
276,239,22554,1,8,0:0:0:0:
296,277,22886,1,0,0:0:0:0:
304,263,23217,1,8,0:0:0:0:
324,248,23383,1,8,0:0:0:0:
305,264,23549,1,0,0:0:0:0:
324,248,23715,1,0,0:0:0:0:
305,264,23880,1,8,0:0:0:0:
304,263,24212,1,0,0:0:0:0:
305,264,24543,1,0,0:0:0:0:
305,264,24875,1,8,0:0:0:0:
364,269,25041,1,0,0:0:0:0:
304,263,25206,1,8,0:0:0:0:
380,312,25372,1,8,0:0:0:0:
305,264,25538,1,0,0:0:0:0:
238,221,25869,1,8,0:0:0:0:
238,221,26201,1,0,0:0:0:0:
342,277,26367,1,8,0:0:0:0:
238,221,26532,1,0,0:0:0:0:
342,277,26698,1,0,0:0:0:0:
238,221,26864,1,8,0:0:0:0:
238,221,27195,1,0,0:0:0:0:
238,221,27527,1,8,0:0:0:0:
346,296,27693,1,8,0:0:0:0:
238,221,27858,1,0,0:0:0:0:
346,296,28024,1,8,0:0:0:0:
238,221,28190,1,0,0:0:0:0:
238,221,28521,1,0,0:0:0:0:
238,221,28853,1,8,0:0:0:0:
329,269,29019,1,8,0:0:0:0:
238,221,29184,1,0,0:0:0:0:
329,269,29267,1,0,0:0:0:0:
329,269,29350,1,8,0:0:0:0:
209,185,29516,1,0,0:0:0:0:
209,185,29847,1,0,0:0:0:0:
343,240,30013,1,8,0:0:0:0:
209,185,30179,1,0,0:0:0:0:
221,193,30510,1,8,0:0:0:0:
221,193,30842,1,0,0:0:0:0:
221,193,31173,1,8,0:0:0:0:
241,211,31505,1,0,0:0:0:0:
248,204,31615,1,0,0:0:0:0:
248,204,31726,1,0,0:0:0:0:
241,211,31836,1,8,0:0:0:0:
248,204,31947,1,8,0:0:0:0:
248,204,32057,1,8,0:0:0:0:
241,211,32168,1,0,0:0:0:0:
293,227,32333,1,8,0:0:0:0:
293,227,32416,1,0,0:0:0:0:
293,227,32499,1,8,0:0:0:0:
315,282,32831,1,0,0:0:0:0:
313,273,32941,1,0,0:0:0:0:
313,273,33052,1,8,0:0:0:0:
313,273,33162,1,8,0:0:0:0:
313,273,33273,1,0,0:0:0:0:
354,304,33383,1,0,0:0:0:0:
340,262,33494,1,8,0:0:0:0:
352,286,33825,1,0,0:0:0:0:
259,256,34157,1,8,0:0:0:0:
259,256,34240,1,8,0:0:0:0:
259,256,34322,1,0,0:0:0:0:
259,256,34488,1,8,0:0:0:0:
259,256,34654,1,8,0:0:0:0:
340,262,34820,1,0,0:0:0:0:
358,275,34985,1,0,0:0:0:0:
358,275,35151,1,8,0:0:0:0:
309,233,35483,1,0,0:0:0:0:
309,233,35593,1,0,0:0:0:0:
309,233,35704,1,0,0:0:0:0:
309,233,35814,1,8,0:0:0:0:
309,233,35925,1,8,0:0:0:0:
304,288,36035,1,8,0:0:0:0:
340,262,36146,1,0,0:0:0:0:
267,278,36311,1,8,0:0:0:0:
267,278,36477,1,0,0:0:0:0:
276,255,36809,1,8,0:0:0:0:
378,207,36919,1,8,0:0:0:0:
378,207,37030,1,0,0:0:0:0:
378,207,37140,1,0,0:0:0:0:
378,207,37251,1,8,0:0:0:0:
378,207,37361,1,8,0:0:0:0:
340,262,37472,1,0,0:0:0:0:
366,293,37803,1,0,0:0:0:0:
366,293,38135,1,8,0:0:0:0:
366,293,38466,1,8,0:0:0:0:
340,262,38798,1,0,0:0:0:0:
400,311,38963,1,8,0:0:0:0:
400,311,39046,1,8,0:0:0:0:
400,311,39129,1,0,0:0:0:0:
415,323,39295,1,8,0:0:0:0:
415,323,39461,1,8,0:0:0:0:
369,288,39626,1,0,0:0:0:0:
369,288,39792,1,0,0:0:0:0:
369,288,39875,1,0,0:0:0:0:
369,288,39958,1,8,0:0:0:0:
340,262,40124,1,0,0:0:0:0:
366,273,40455,1,8,0:0:0:0:
366,254,40786,1,0,0:0:0:0:
374,266,40952,1,8,0:0:0:0:
278,245,41118,1,0,0:0:0:0:
278,245,41201,1,8,0:0:0:0:
278,245,41284,1,0,0:0:0:0:
340,262,41449,1,8,0:0:0:0:
329,260,41781,1,8,0:0:0:0:
361,280,42112,1,0,0:0:0:0:
361,280,42444,1,0,0:0:0:0:
301,209,42775,1,0,0:0:0:0:
339,246,43107,1,8,0:0:0:0:
339,246,43273,1,0,0:0:0:0:
390,281,44433,1,0,0:0:0:0:
390,281,44764,1,8,0:0:0:0:
390,281,44930,1,8,0:0:0:0:
303,206,45096,1,8,0:0:0:0:
276,209,45427,1,0,0:0:0:0:
276,209,45759,1,8,0:0:0:0:
276,209,45925,1,0,0:0:0:0:
276,209,46256,1,8,0:0:0:0:
276,209,46422,1,0,0:0:0:0:
276,209,46753,1,8,0:0:0:0:
335,238,46919,1,8,0:0:0:0:
335,238,47085,1,0,0:0:0:0:
335,238,47416,1,8,0:0:0:0:
335,238,47582,1,8,0:0:0:0:
335,238,47748,1,0,0:0:0:0:
372,285,48079,1,0,0:0:0:0:
382,300,48411,1,8,0:0:0:0:
382,300,48577,1,0,0:0:0:0:
398,295,49737,1,0,0:0:0:0:
398,295,50068,1,8,0:0:0:0:
398,295,50234,1,8,0:0:0:0:
398,295,50400,1,8,0:0:0:0:
398,295,50731,1,0,0:0:0:0:
363,263,51063,1,8,0:0:0:0:
291,213,51228,1,0,0:0:0:0:
291,213,51560,1,8,0:0:0:0:
291,213,51726,1,0,0:0:0:0:
327,238,52057,1,8,0:0:0:0:
327,238,52223,1,8,0:0:0:0:
327,238,52389,1,0,0:0:0:0:
386,302,52720,1,8,0:0:0:0:
386,302,52886,1,8,0:0:0:0:
386,302,52969,1,8,0:0:0:0:
386,302,53052,1,0,0:0:0:0:
386,302,53135,1,0,0:0:0:0:
386,302,53217,1,8,0:0:0:0:
275,243,53383,1,4,0:0:0:0:
226,215,53549,1,8,0:0:0:0:
275,243,53715,1,4,0:0:0:0:
226,215,53880,1,8,0:0:0:0:
300,258,54046,1,4,0:0:0:0:
226,215,54212,1,8,0:0:0:0:
300,258,54378,1,4,0:0:0:0:
226,215,54543,1,8,0:0:0:0:
341,283,54709,1,4,0:0:0:0:
341,283,55372,1,4,0:0:0:0:
306,241,55538,1,8,0:0:0:0:
341,283,55704,1,4,0:0:0:0:
306,241,55869,1,8,0:0:0:0:
341,283,56035,1,4,0:0:0:0:
306,241,56201,1,8,0:0:0:0:
341,283,56367,1,4,0:0:0:0:
306,241,56532,1,8,0:0:0:0:
341,283,56698,1,4,0:0:0:0:
306,241,56864,1,8,0:0:0:0:
341,283,57030,1,4,0:0:0:0:
231,189,58024,1,4,0:0:0:0:
285,215,58190,1,8,0:0:0:0:
231,189,58356,1,4,0:0:0:0:
285,215,58521,1,8,0:0:0:0:
231,189,58687,1,4,0:0:0:0:
285,215,58853,1,8,0:0:0:0:
231,189,59019,1,4,0:0:0:0:
303,196,59682,1,4,0:0:0:0:
282,254,59847,1,8,0:0:0:0:
262,241,60013,1,4,0:0:0:0:
282,254,60179,1,8,0:0:0:0:
262,241,60344,1,4,0:0:0:0:
282,254,60510,1,8,0:0:0:0:
262,241,60676,1,4,0:0:0:0:
282,254,60842,1,8,0:0:0:0:
262,241,61007,1,4,0:0:0:0:
327,233,63991,1,4,0:0:0:0:
258,232,64157,1,8,0:0:0:0:
302,205,64322,1,8,0:0:0:0:
258,232,64488,1,0,0:0:0:0:
302,205,64654,1,8,0:0:0:0:
356,278,64737,1,0,0:0:0:0:
356,278,64820,1,8,0:0:0:0:
302,205,64985,1,0,0:0:0:0:
365,278,65151,1,8,0:0:0:0:
302,205,65317,1,0,0:0:0:0:
327,236,65400,1,0,0:0:0:0:
327,236,65483,1,8,0:0:0:0:
267,179,65648,1,0,0:0:0:0:
271,204,65731,1,0,0:0:0:0:
362,290,65814,1,8,0:0:0:0:
365,278,65980,1,0,0:0:0:0:
365,278,66063,1,0,0:0:0:0:
365,278,66146,1,8,0:0:0:0:
363,280,66228,1,0,0:0:0:0:
302,205,66311,1,8,0:0:0:0:
384,313,66477,1,0,0:0:0:0:
302,205,66643,1,8,0:0:0:0:
302,205,66974,1,0,0:0:0:0:
388,303,67140,1,0,0:0:0:0:
302,205,67306,1,8,0:0:0:0:
414,323,67472,1,0,0:0:0:0:
414,323,67554,1,8,0:0:0:0:
302,205,67637,1,0,0:0:0:0:
414,323,67803,1,8,0:0:0:0:
302,205,67969,1,0,0:0:0:0:
399,305,68052,1,0,0:0:0:0:
399,305,68135,1,8,0:0:0:0:
399,305,68217,1,0,0:0:0:0:
302,205,68300,1,0,0:0:0:0:
399,305,68466,1,8,0:0:0:0:
302,205,68632,1,0,0:0:0:0:
354,256,68715,1,0,0:0:0:0:
354,256,68798,1,8,0:0:0:0:
354,256,68880,1,8,0:0:0:0:
302,205,68963,1,0,0:0:0:0:
375,270,69129,1,0,0:0:0:0:
302,205,69295,1,8,0:0:0:0:
302,205,69626,1,0,0:0:0:0:
366,265,69792,1,8,0:0:0:0:
302,205,69958,1,0,0:0:0:0:
387,270,70041,1,0,0:0:0:0:
387,270,70124,1,8,0:0:0:0:
302,205,70289,1,8,0:0:0:0:
387,270,70372,1,8,0:0:0:0:
387,270,70455,1,0,0:0:0:0:
302,205,70621,1,8,0:0:0:0:
358,280,70786,1,0,0:0:0:0:
302,205,70952,1,8,0:0:0:0:
388,319,71035,1,0,0:0:0:0:
388,319,71118,1,8,0:0:0:0:
302,205,71284,1,0,0:0:0:0:
388,319,71367,1,8,0:0:0:0:
388,319,71449,1,0,0:0:0:0:
388,319,71532,1,0,0:0:0:0:
302,205,71615,1,8,0:0:0:0:
371,269,71781,1,0,0:0:0:0:
302,205,71947,1,8,0:0:0:0:
302,205,72278,1,8,0:0:0:0:
371,269,72444,1,0,0:0:0:0:
302,205,72610,1,8,0:0:0:0:
407,308,72693,1,0,0:0:0:0:
407,308,72775,1,0,0:0:0:0:
407,308,72858,1,0,0:0:0:0:
302,205,72941,1,8,0:0:0:0:
407,308,73107,1,0,0:0:0:0:
302,205,73273,1,8,0:0:0:0:
424,320,73356,1,8,0:0:0:0:
424,320,73438,1,0,0:0:0:0:
302,205,73604,1,8,0:0:0:0:
302,205,73936,1,8,0:0:0:0:
264,183,74019,1,8,0:0:0:0:
264,183,74101,1,0,0:0:0:0:
302,205,74267,1,8,0:0:0:0:
358,214,74433,1,0,0:0:0:0:
302,205,74599,1,0,0:0:0:0:
321,227,74764,1,8,0:0:0:0:
302,205,74930,1,8,0:0:0:0:
344,252,75096,1,0,0:0:0:0:
302,205,75262,1,8,0:0:0:0:
312,233,75344,1,8,0:0:0:0:
312,233,75427,1,0,0:0:0:0:
302,205,75593,1,8,0:0:0:0:
312,233,75759,1,0,0:0:0:0:
302,205,75925,1,8,0:0:0:0:
290,257,76007,1,8,0:0:0:0:
290,257,76090,1,0,0:0:0:0:
290,257,76173,1,0,0:0:0:0:
302,205,76256,1,8,0:0:0:0:
302,205,76588,1,8,0:0:0:0:
329,260,76753,1,0,0:0:0:0:
329,260,76836,1,0,0:0:0:0:
302,205,76919,1,8,0:0:0:0:
361,290,77085,1,0,0:0:0:0:
302,205,77251,1,0,0:0:0:0:
337,288,77333,1,8,0:0:0:0:
337,288,77416,1,0,0:0:0:0:
337,288,77499,1,0,0:0:0:0:
302,205,77582,1,8,0:0:0:0:
224,226,77748,1,0,0:0:0:0:
302,205,77914,1,8,0:0:0:0:
338,267,77996,1,8,0:0:0:0:
338,267,78079,1,0,0:0:0:0:
302,205,78245,1,8,0:0:0:0:
338,267,78411,1,0,0:0:0:0:
302,205,78577,1,8,0:0:0:0:
304,252,78659,1,8,0:0:0:0:
304,252,78742,1,0,0:0:0:0:
304,252,78825,1,0,0:0:0:0:
302,205,78908,1,8,0:0:0:0:
302,205,79240,1,8,0:0:0:0:
392,311,79405,1,0,0:0:0:0:
392,311,79488,1,0,0:0:0:0:
302,205,79571,1,8,0:0:0:0:
392,311,79737,1,0,0:0:0:0:
302,205,79903,1,0,0:0:0:0:
286,243,79985,1,8,0:0:0:0:
286,243,80068,1,0,0:0:0:0:
286,243,80151,1,0,0:0:0:0:
302,205,80234,1,8,0:0:0:0:
272,178,80400,1,0,0:0:0:0:
272,178,80565,1,8,0:0:0:0:
272,178,80648,1,8,0:0:0:0:
272,178,80731,1,0,0:0:0:0:
302,205,80897,1,8,0:0:0:0:
272,178,81063,1,0,0:0:0:0:
302,205,81228,1,8,0:0:0:0:
349,256,81311,1,8,0:0:0:0:
349,256,81394,1,0,0:0:0:0:
349,256,81477,1,0,0:0:0:0:
302,205,81560,1,8,0:0:0:0:
302,205,81891,1,8,0:0:0:0:
273,207,82057,1,0,0:0:0:0:
273,207,82140,1,0,0:0:0:0:
302,205,82223,1,8,0:0:0:0:
273,207,82389,1,0,0:0:0:0:
302,205,82554,1,8,0:0:0:0:
335,245,82637,1,0,0:0:0:0:
335,245,82720,1,8,0:0:0:0:
335,245,82803,1,0,0:0:0:0:
302,205,82886,1,8,0:0:0:0:
351,235,83052,1,0,0:0:0:0:
302,205,83217,1,8,0:0:0:0:
351,235,83300,1,0,0:0:0:0:
351,235,83383,1,0,0:0:0:0:
302,205,83549,1,8,0:0:0:0:
351,235,83715,1,8,0:0:0:0:
302,205,83880,1,4,0:0:0:0:
302,205,84212,1,4,0:0:0:0:
302,205,84543,1,4,0:0:0:0:
302,205,84875,1,0,0:0:0:0:
300,253,84958,1,0,0:0:0:0:
300,253,85041,1,0,0:0:0:0:
300,253,85124,1,0,0:0:0:0:
302,205,85206,1,8,0:0:0:0:
252,160,85538,1,0,0:0:0:0:
319,257,85869,1,8,0:0:0:0:
356,281,86035,1,0,0:0:0:0:
319,257,86201,1,8,0:0:0:0:
356,281,86284,1,8,0:0:0:0:
356,281,86367,1,0,0:0:0:0:
319,257,86532,1,0,0:0:0:0:
319,257,86864,1,8,0:0:0:0:
379,287,87030,1,8,0:0:0:0:
319,257,87195,1,0,0:0:0:0:
379,287,87361,1,0,0:0:0:0:
319,257,87527,1,8,0:0:0:0:
319,257,87858,1,0,0:0:0:0:
319,257,88190,1,8,0:0:0:0:
319,257,88521,1,0,0:0:0:0:
351,294,88687,1,8,0:0:0:0:
319,257,88853,1,0,0:0:0:0:
321,266,89019,1,0,0:0:0:0:
319,257,89184,1,8,0:0:0:0:
319,257,89516,1,8,0:0:0:0:
319,257,89847,1,0,0:0:0:0:
314,239,90013,1,0,0:0:0:0:
319,257,90179,1,8,0:0:0:0:
314,239,90344,1,0,0:0:0:0:
319,257,90510,1,8,0:0:0:0:
319,257,90842,1,0,0:0:0:0:
319,257,91173,1,8,0:0:0:0:
371,292,91339,1,0,0:0:0:0:
319,257,91505,1,0,0:0:0:0:
371,292,91670,1,0,0:0:0:0:
319,257,91836,1,8,0:0:0:0:
319,257,92168,1,0,0:0:0:0:
319,257,92499,1,8,0:0:0:0:
359,294,92665,1,0,0:0:0:0:
319,257,92831,1,8,0:0:0:0:
359,294,92914,1,0,0:0:0:0:
359,294,92996,1,8,0:0:0:0:
319,257,93162,1,0,0:0:0:0:
319,257,93494,1,8,0:0:0:0:
316,241,93659,1,0,0:0:0:0:
319,257,93825,1,0,0:0:0:0:
341,261,93991,1,8,0:0:0:0:
319,257,94157,1,8,0:0:0:0:
341,261,94322,1,0,0:0:0:0:
319,257,94488,1,8,0:0:0:0:
358,284,94571,1,8,0:0:0:0:
346,273,94654,1,0,0:0:0:0:
349,242,94820,1,8,0:0:0:0:
296,228,95151,1,8,0:0:0:0:
296,228,95234,1,8,0:0:0:0:
296,228,95317,1,0,0:0:0:0:
296,228,95400,1,0,0:0:0:0:
296,228,95483,1,8,0:0:0:0:
312,214,95814,1,0,0:0:0:0:
383,289,95980,1,8,0:0:0:0:
331,235,96063,1,0,0:0:0:0:
383,289,96146,1,8,0:0:0:0:
266,209,96477,1,0,0:0:0:0:
266,209,96588,1,0,0:0:0:0:
266,209,96698,1,8,0:0:0:0:
266,209,96809,1,8,0:0:0:0:
266,209,96919,1,0,0:0:0:0:
266,209,97030,1,0,0:0:0:0:
266,209,97140,1,8,0:0:0:0:
270,202,97472,1,0,0:0:0:0:
319,239,97803,1,8,0:0:0:0:
319,239,97886,1,8,0:0:0:0:
319,239,97969,1,0,0:0:0:0:
319,239,98135,1,8,0:0:0:0:
319,239,98300,1,8,0:0:0:0:
319,239,98466,1,0,0:0:0:0:
350,286,98632,1,0,0:0:0:0:
350,286,98798,1,8,0:0:0:0:
264,237,99129,1,0,0:0:0:0:
264,237,99240,1,0,0:0:0:0:
264,237,99350,1,0,0:0:0:0:
264,237,99461,1,8,0:0:0:0:
264,237,99571,1,8,0:0:0:0:
264,237,99682,1,8,0:0:0:0:
264,237,99792,1,0,0:0:0:0:
396,312,99958,1,8,0:0:0:0:
396,312,100124,1,0,0:0:0:0:
355,273,100455,1,8,0:0:0:0:
355,273,100565,1,8,0:0:0:0:
355,273,100676,1,0,0:0:0:0:
355,273,100786,1,0,0:0:0:0:
355,273,100897,1,8,0:0:0:0:
355,273,101007,1,8,0:0:0:0:
355,273,101118,1,0,0:0:0:0:
277,204,101228,1,8,0:0:0:0:
355,273,101449,1,0,0:0:0:0:
277,204,101560,1,0,0:0:0:0:
355,273,101781,1,8,0:0:0:0:
277,204,101891,1,0,0:0:0:0:
355,273,102112,1,8,0:0:0:0:
274,204,102223,1,8,0:0:0:0:
355,273,102444,1,0,0:0:0:0:
335,227,102610,1,8,0:0:0:0:
335,227,102693,1,8,0:0:0:0:
335,227,102775,1,0,0:0:0:0:
386,312,102941,1,8,0:0:0:0:
386,312,103107,1,8,0:0:0:0:
386,312,103273,1,0,0:0:0:0:
386,312,103438,1,0,0:0:0:0:
386,312,103521,1,0,0:0:0:0:
386,312,103604,1,8,0:0:0:0:
386,312,103770,1,0,0:0:0:0:
357,277,104101,1,8,0:0:0:0:
357,277,104433,1,0,0:0:0:0:
357,277,104599,1,8,0:0:0:0:
357,277,104764,1,0,0:0:0:0:
357,277,104847,1,8,0:0:0:0:
357,277,104930,1,0,0:0:0:0:
196,174,105106,1,8,0:0:0:0:
196,174,105437,1,0,0:0:0:0:
196,174,105768,1,0,0:0:0:0:
196,174,106100,1,8,0:0:0:0:
212,210,106183,1,8,0:0:0:0:
212,210,106266,1,8,0:0:0:0:
212,210,106349,1,8,0:0:0:0:
256,208,106431,1,0,0:0:0:0:
259,221,106762,1,0,0:0:0:0:
259,221,106928,1,8,0:0:0:0:
299,239,107259,1,0,0:0:0:0:
274,199,107425,1,0,0:0:0:0:
276,207,107756,1,8,0:0:0:0:
355,239,108088,1,0,0:0:0:0:
355,239,108419,1,8,0:0:0:0:
373,299,108585,1,0,0:0:0:0:
373,299,108751,1,8,0:0:0:0:
396,291,109082,1,8,0:0:0:0:
373,287,109414,1,0,0:0:0:0:
373,287,109580,1,0,0:0:0:0:
333,275,109745,1,8,0:0:0:0:
333,275,109828,1,8,0:0:0:0:
333,275,109911,1,0,0:0:0:0:
372,302,110077,1,8,0:0:0:0:
372,302,110243,1,0,0:0:0:0:
372,302,110326,1,0,0:0:0:0:
372,302,110408,1,8,0:0:0:0:
219,275,110740,1,0,0:0:0:0:
219,275,110906,1,8,0:0:0:0:
304,296,111237,1,0,0:0:0:0:
304,296,111403,1,0,0:0:0:0:
344,303,111569,1,8,0:0:0:0:
344,303,111651,1,0,0:0:0:0:
344,303,111734,1,8,0:0:0:0:
376,311,112066,1,0,0:0:0:0:
354,289,112232,1,8,0:0:0:0:
363,287,112563,1,0,0:0:0:0:
363,287,112729,1,0,0:0:0:0:
376,311,112895,1,8,0:0:0:0:
376,311,112977,1,8,0:0:0:0:
376,311,113060,1,0,0:0:0:0:
409,318,113226,1,8,0:0:0:0:
409,318,113392,1,8,0:0:0:0:
415,347,113558,1,0,0:0:0:0:
415,347,113723,1,0,0:0:0:0:
383,307,114055,1,8,0:0:0:0:
383,307,114138,1,8,0:0:0:0:
383,307,114221,1,8,0:0:0:0:
383,307,114303,1,8,0:0:0:0:
383,307,114386,1,0,0:0:0:0:
294,253,114718,1,8,0:0:0:0:
294,253,114884,1,0,0:0:0:0:
344,288,115215,1,8,0:0:0:0:
344,288,115381,1,8,0:0:0:0:
395,329,115547,1,0,0:0:0:0:
395,329,115629,1,0,0:0:0:0:
395,329,115712,1,8,0:0:0:0:
406,307,116210,1,8,0:0:0:0:
406,307,116375,1,0,0:0:0:0:
408,332,116458,1,0,0:0:0:0:
408,332,116541,1,8,0:0:0:0:
422,347,116707,1,0,0:0:0:0:
411,341,116872,1,8,0:0:0:0:
285,247,116955,1,8,0:0:0:0:
332,282,117038,1,0,0:0:0:0:
332,282,117370,1,0,0:0:0:0:
332,282,117535,1,8,0:0:0:0:
332,282,117867,1,0,0:0:0:0:
332,282,118033,1,0,0:0:0:0:
346,290,118364,1,8,0:0:0:0:
380,316,118861,1,0,0:0:0:0:
326,255,119110,1,8,0:0:0:0:
337,288,119193,1,0,0:0:0:0:
400,316,119442,1,8,0:0:0:0:
351,285,119524,1,8,0:0:0:0:
351,285,119607,1,8,0:0:0:0:
351,285,119690,1,0,0:0:0:0:
413,320,120022,1,0,0:0:0:0:
393,287,120187,1,0,0:0:0:0:
413,326,120353,1,8,0:0:0:0:
413,326,120519,1,8,0:0:0:0:
413,326,120685,1,8,0:0:0:0:
413,326,120850,1,0,0:0:0:0:
413,326,120933,1,0,0:0:0:0:
413,326,121016,1,8,0:0:0:0:
441,357,121513,1,0,0:0:0:0:
425,329,121679,1,8,0:0:0:0:
425,329,121762,1,0,0:0:0:0:
441,357,122093,1,8,0:0:0:0:
441,357,122176,1,8,0:0:0:0:
441,357,122259,1,8,0:0:0:0:
441,357,122342,1,0,0:0:0:0:
428,335,122839,1,0,0:0:0:0:
353,305,123005,1,0,0:0:0:0:
439,344,123171,1,8,0:0:0:0:
439,344,123337,1,8,0:0:0:0:
403,312,123502,1,0,0:0:0:0:
428,335,123668,1,8,0:0:0:0:
432,324,124165,1,0,0:0:0:0:
432,324,124331,1,8,0:0:0:0:
432,324,124414,1,0,0:0:0:0:
434,329,124828,1,0,0:0:0:0:
434,329,124994,1,8,0:0:0:0:
454,372,125491,1,8,0:0:0:0:
381,289,125657,1,0,0:0:0:0:
381,289,125823,1,0,0:0:0:0:
381,289,125989,1,8,0:0:0:0:
333,264,126154,1,0,0:0:0:0:
333,264,126237,1,0,0:0:0:0:
333,264,126320,1,8,0:0:0:0:
381,289,126817,1,0,0:0:0:0:
403,335,127314,1,0,0:0:0:0:
364,276,127397,1,8,0:0:0:0:
204,196,127480,1,8,0:0:0:0:
204,196,127563,1,8,0:0:0:0:
292,202,127646,1,0,0:0:0:0:
274,192,127977,1,0,0:0:0:0:
274,192,128309,1,0,0:0:0:0:
274,192,128640,1,8,0:0:0:0:
276,253,128806,1,8,0:0:0:0:
274,192,128972,1,0,0:0:0:0:
274,192,129303,1,0,0:0:0:0:
281,230,129469,1,8,0:0:0:0:
274,192,129635,1,0,0:0:0:0:
257,207,129966,1,0,0:0:0:0:
257,207,130298,1,8,0:0:0:0:
297,233,130464,1,8,0:0:0:0:
257,207,130629,1,0,0:0:0:0:
297,233,130795,1,8,0:0:0:0:
257,207,130961,1,0,0:0:0:0:
257,207,131292,1,0,0:0:0:0:
257,207,131624,1,8,0:0:0:0:
289,219,131790,1,0,0:0:0:0:
257,207,131955,1,8,0:0:0:0:
293,254,132121,1,0,0:0:0:0:
257,207,132287,1,8,0:0:0:0:
257,207,132618,1,0,0:0:0:0:
257,207,132950,1,8,0:0:0:0:
265,231,133116,1,8,0:0:0:0:
257,207,133281,1,0,0:0:0:0:
265,231,133447,1,8,0:0:0:0:
257,207,133613,1,0,0:0:0:0:
257,207,133944,1,0,0:0:0:0:
257,207,134276,1,8,0:0:0:0:
271,233,134442,1,0,0:0:0:0:
257,207,134607,1,8,0:0:0:0:
271,233,134773,1,0,0:0:0:0:
257,207,134939,1,8,0:0:0:0:
257,207,135270,1,0,0:0:0:0:
257,207,135602,1,8,0:0:0:0:
256,231,135768,1,8,0:0:0:0:
257,207,135933,1,0,0:0:0:0:
256,231,136099,1,8,0:0:0:0:
257,207,136265,1,0,0:0:0:0:
257,207,136596,1,0,0:0:0:0:
257,207,136928,1,8,0:0:0:0:
277,223,137093,1,8,0:0:0:0:
257,207,137259,1,0,0:0:0:0:
277,223,137425,1,0,0:0:0:0:
257,207,137591,1,0,0:0:0:0:
244,214,137922,1,8,0:0:0:0:
254,216,138005,1,8,0:0:0:0:
254,216,138088,1,8,0:0:0:0:
254,216,138171,1,8,0:0:0:0:
260,216,138254,1,4,0:0:0:0:
285,280,138585,1,0,0:0:0:0:
285,280,138751,1,8,0:0:0:0:
336,241,138917,1,0,0:0:0:0:
336,241,139000,1,0,0:0:0:0:
336,241,139082,1,8,0:0:0:0:
336,241,139248,1,0,0:0:0:0:
336,241,139414,1,8,0:0:0:0:
245,229,139580,1,0,0:0:0:0:
245,229,139663,1,0,0:0:0:0:
245,229,139745,1,8,0:0:0:0:
245,229,139828,1,8,0:0:0:0:
245,229,139911,1,0,0:0:0:0:
245,229,140077,1,8,0:0:0:0:
245,229,140160,1,0,0:0:0:0:
245,229,140243,1,8,0:0:0:0:
305,243,140574,1,8,0:0:0:0:
305,243,140740,1,0,0:0:0:0:
256,227,140906,1,8,0:0:0:0:
256,227,140989,1,8,0:0:0:0:
256,227,141071,1,0,0:0:0:0:
256,227,141154,1,0,0:0:0:0:
256,227,141237,1,0,0:0:0:0:
252,234,141403,1,8,0:0:0:0:
252,234,141486,1,8,0:0:0:0:
252,234,141569,1,0,0:0:0:0:
282,248,141734,1,8,0:0:0:0:
342,253,141900,1,0,0:0:0:0:
342,253,142066,1,8,0:0:0:0:
320,262,142232,1,0,0:0:0:0:
320,262,142314,1,0,0:0:0:0:
320,262,142397,1,8,0:0:0:0:
320,262,142480,1,8,0:0:0:0:
320,262,142563,1,8,0:0:0:0:
320,262,142729,1,0,0:0:0:0:
320,262,142812,1,0,0:0:0:0:
320,262,142895,1,8,0:0:0:0:
360,276,143226,1,8,0:0:0:0:
344,272,143392,1,0,0:0:0:0:
344,272,143558,1,8,0:0:0:0:
344,272,143640,1,8,0:0:0:0:
344,272,143723,1,0,0:0:0:0:
344,272,143806,1,0,0:0:0:0:
344,272,143889,1,0,0:0:0:0:
344,272,144055,1,8,0:0:0:0:
344,272,144138,1,8,0:0:0:0:
344,272,144221,1,0,0:0:0:0:
344,272,144386,1,8,0:0:0:0:
344,272,144552,1,0,0:0:0:0:
344,272,144718,1,8,0:0:0:0:
344,272,144884,1,0,0:0:0:0:
344,272,144966,1,0,0:0:0:0:
344,272,145049,1,8,0:0:0:0:
344,272,145132,1,8,0:0:0:0:
344,272,145215,1,8,0:0:0:0:
344,272,145381,1,0,0:0:0:0:
344,272,145464,1,0,0:0:0:0:
344,272,145547,1,8,0:0:0:0:
224,215,145878,1,8,0:0:0:0:
224,215,146044,1,0,0:0:0:0:
236,150,146210,1,8,0:0:0:0:
236,150,146292,1,8,0:0:0:0:
236,150,146375,1,0,0:0:0:0:
236,150,146458,1,0,0:0:0:0:
236,150,146541,1,0,0:0:0:0:
236,150,146707,1,8,0:0:0:0:
236,150,146790,1,8,0:0:0:0:
236,150,146872,1,0,0:0:0:0:
236,150,147038,1,8,0:0:0:0:
236,150,147204,1,0,0:0:0:0:
236,150,147370,1,8,0:0:0:0:
236,150,147535,1,0,0:0:0:0:
236,150,147618,1,0,0:0:0:0:
236,150,147701,1,8,0:0:0:0:
236,150,147784,1,8,0:0:0:0:
236,150,147867,1,0,0:0:0:0:
302,205,148198,1,8,0:0:0:0:
264,183,148281,1,8,0:0:0:0:
264,183,148364,1,0,0:0:0:0:
302,205,148530,1,8,0:0:0:0:
358,214,148696,1,0,0:0:0:0:
302,205,148861,1,0,0:0:0:0:
321,227,149027,1,8,0:0:0:0:
302,205,149193,1,8,0:0:0:0:
344,252,149359,1,0,0:0:0:0:
302,205,149524,1,8,0:0:0:0:
312,233,149607,1,8,0:0:0:0:
312,233,149690,1,0,0:0:0:0:
302,205,149856,1,8,0:0:0:0:
312,233,150022,1,0,0:0:0:0:
302,205,150187,1,8,0:0:0:0:
290,257,150270,1,8,0:0:0:0:
290,257,150353,1,0,0:0:0:0:
290,257,150436,1,0,0:0:0:0:
302,205,150519,1,8,0:0:0:0:
302,205,150850,1,8,0:0:0:0:
329,260,151016,1,0,0:0:0:0:
329,260,151099,1,0,0:0:0:0:
302,205,151182,1,8,0:0:0:0:
361,290,151348,1,0,0:0:0:0:
302,205,151513,1,0,0:0:0:0:
337,288,151596,1,8,0:0:0:0:
337,288,151679,1,0,0:0:0:0:
337,288,151762,1,0,0:0:0:0:
302,205,151845,1,8,0:0:0:0:
224,226,152011,1,0,0:0:0:0:
302,205,152176,1,8,0:0:0:0:
338,267,152259,1,8,0:0:0:0:
338,267,152342,1,0,0:0:0:0:
302,205,152508,1,8,0:0:0:0:
338,267,152674,1,0,0:0:0:0:
302,205,152839,1,8,0:0:0:0:
304,252,152922,1,8,0:0:0:0:
304,252,153005,1,0,0:0:0:0:
304,252,153088,1,0,0:0:0:0:
302,205,153171,1,8,0:0:0:0:
302,205,153502,1,8,0:0:0:0:
392,311,153668,1,0,0:0:0:0:
392,311,153751,1,0,0:0:0:0:
302,205,153834,1,8,0:0:0:0:
392,311,154000,1,0,0:0:0:0:
302,205,154165,1,0,0:0:0:0:
286,243,154248,1,8,0:0:0:0:
286,243,154331,1,0,0:0:0:0:
286,243,154414,1,0,0:0:0:0:
302,205,154497,1,8,0:0:0:0:
272,178,154663,1,0,0:0:0:0:
272,178,154828,1,8,0:0:0:0:
272,178,154911,1,8,0:0:0:0:
272,178,154994,1,0,0:0:0:0:
302,205,155160,1,8,0:0:0:0:
272,178,155326,1,0,0:0:0:0:
302,205,155491,1,8,0:0:0:0:
349,256,155574,1,8,0:0:0:0:
349,256,155657,1,0,0:0:0:0:
349,256,155740,1,0,0:0:0:0:
302,205,155823,1,8,0:0:0:0:
302,205,156154,1,8,0:0:0:0:
273,207,156320,1,0,0:0:0:0:
273,207,156403,1,0,0:0:0:0:
302,205,156486,1,8,0:0:0:0:
273,207,156651,1,0,0:0:0:0:
302,205,156817,1,8,0:0:0:0:
335,245,156900,1,0,0:0:0:0:
335,245,156983,1,8,0:0:0:0:
335,245,157066,1,0,0:0:0:0:
302,205,157149,1,8,0:0:0:0:
351,235,157314,1,0,0:0:0:0:
302,205,157480,1,8,0:0:0:0:
351,235,157563,1,0,0:0:0:0:
351,235,157646,1,0,0:0:0:0:
302,205,157812,1,8,0:0:0:0:
351,235,157977,1,8,0:0:0:0:
258,218,158143,1,4,0:0:0:0:
258,218,158475,1,4,0:0:0:0:
258,218,158806,1,4,0:0:0:0:
252,207,159138,1,0,0:0:0:0:
252,207,159221,1,0,0:0:0:0:
252,207,159303,1,0,0:0:0:0:
252,207,159386,1,0,0:0:0:0:
188,210,159469,1,8,0:0:0:0:
