osu file format v14

[General]
AudioFilename: xo_new.mp3
AudioLeadIn: 0
PreviewTime: 62997
Countdown: 0
SampleSet: Normal
StackLeniency: 0.7
Mode: 1
LetterboxInBreaks: 0
WidescreenStoryboard: 1

[Editor]
Bookmarks: 10587,21195,42410,53018,63626,84841,106057,127272,137880,159095
DistanceSpacing: 0.9
BeatDivisor: 4
GridSize: 8
TimelineZoom: 2.1

[Metadata]
Title:XO Tour Llif3 (jscelle remix)
TitleUnicode:XO Tour Llif3 (jscelle remix)
Artist:Lil Uzi Vert
ArtistUnicode:Lil Uzi Vert
Creator:Slim-san
Version:Kantan
Source:
Tags:electronic hardstyle dnb drum and bass & hyperpop life rap hip-hop hip hop sped up english luv is rage 2 two x0
BeatmapID:3933426
BeatmapSetID:1907433

[Difficulty]
HPDrainRate:8
CircleSize:4
OverallDifficulty:3
ApproachRate:9
SliderMultiplier:1.4
SliderTickRate:1

[Events]
//Background and Video events
0,0,"94635586_p0 (1).jpg",0,10
//Break Periods
//Storyboard Layer 0 (Background)
//Storyboard Layer 1 (Fail)
//Storyboard Layer 2 (Pass)
//Storyboard Layer 3 (Foreground)
//Storyboard Layer 4 (Overlay)
//Storyboard Sound Samples

[TimingPoints]
345,331.491712707182,4,1,0,70,1,0
345,-111.111111111111,4,1,0,70,0,0
10252,-111.111111111111,4,1,0,100,0,0
10584,-111.111111111111,4,1,0,80,0,0
10915,-111.111111111111,4,1,0,90,0,0
10952,-111.111111111111,4,1,0,90,0,1
21560,-111.111111111111,4,1,0,70,0,0
42739,-111.111111111111,4,1,0,80,0,0
53346,-111.111111111111,4,1,0,100,0,0
53383,-111.111111111111,4,1,0,100,0,1
54746,-111.111111111111,4,1,0,5,0,1
55041,-111.111111111111,4,1,0,5,0,0
55335,-111.111111111111,4,1,0,100,0,0
55372,-111.111111111111,4,1,0,100,0,1
57324,-111.111111111111,4,1,0,60,0,1
57361,-111.111111111111,4,1,0,100,0,0
57444,-111.111111111111,4,1,0,5,0,0
58024,-111.111111111111,4,1,0,100,0,1
59101,-111.111111111111,4,1,0,5,0,1
59313,-111.111111111111,4,1,0,60,0,1
59350,-111.111111111111,4,1,0,60,0,0
59645,-111.111111111111,4,1,0,100,0,0
59682,-111.111111111111,4,1,0,100,0,1
61302,-111.111111111111,4,1,0,60,0,1
61339,-111.111111111111,4,1,0,60,0,0
61376,-111.111111111111,4,1,0,5,0,0
61965,-111.111111111111,4,1,0,60,0,0
62702,-111.111111111111,4,1,0,5,0,0
63954,-111.111111111111,4,1,0,90,0,0
63991,-111.111111111111,4,1,0,90,0,1
83844,-111.111111111111,4,1,0,100,0,1
84874,-111.111111111111,4,1,0,80,0,1
85170,-111.111111111111,4,1,0,70,0,1
85206,-111.111111111111,4,1,0,80,0,0
105096,331.491712707182,4,1,0,70,1,8
105096,-111.111111111111,4,1,0,70,0,8
105106,331.491712707182,4,1,0,70,1,0
105106,-111.111111111111,4,1,0,70,0,0
106385,-111.111111111111,4,1,0,70,0,0
106431,331.491712707182,4,1,0,70,1,0
106431,-111.111111111111,4,1,0,70,0,8
127600,-111.111111111111,4,1,0,71,0,0
127636,-111.111111111111,4,1,0,71,0,0
127968,-111.111111111111,4,1,0,72,0,0
128299,-111.111111111111,4,1,0,72,0,0
128631,-111.111111111111,4,1,0,73,0,0
128797,-111.111111111111,4,1,0,73,0,0
128962,-111.111111111111,4,1,0,74,0,0
129128,-111.111111111111,4,1,0,74,0,0
129294,-111.111111111111,4,1,0,74,0,0
129459,-111.111111111111,4,1,0,74,0,0
129625,-111.111111111111,4,1,0,75,0,0
129708,-111.111111111111,4,1,0,75,0,0
129791,-111.111111111111,4,1,0,75,0,0
129957,-111.111111111111,4,1,0,75,0,0
130288,-111.111111111111,4,1,0,76,0,0
130454,-111.111111111111,4,1,0,76,0,0
130620,-111.111111111111,4,1,0,77,0,0
130785,-111.111111111111,4,1,0,77,0,0
130951,-111.111111111111,4,1,0,77,0,0
131117,-111.111111111111,4,1,0,78,0,0
131283,-111.111111111111,4,1,0,78,0,0
131614,-111.111111111111,4,1,0,79,0,0
131780,-111.111111111111,4,1,0,79,0,0
131946,-111.111111111111,4,1,0,79,0,0
132111,-111.111111111111,4,1,0,79,0,0
132277,-111.111111111111,4,1,0,80,0,0
132360,-111.111111111111,4,1,0,80,0,0
132443,-111.111111111111,4,1,0,80,0,0
132609,-111.111111111111,4,1,0,80,0,0
132940,-111.111111111111,4,1,0,81,0,0
133106,-111.111111111111,4,1,0,81,0,0
133272,-111.111111111111,4,1,0,82,0,0
133437,-111.111111111111,4,1,0,82,0,0
133603,-111.111111111111,4,1,0,82,0,0
133769,-111.111111111111,4,1,0,83,0,0
133935,-111.111111111111,4,1,0,83,0,0
134266,-111.111111111111,4,1,0,83,0,0
134432,-111.111111111111,4,1,0,84,0,0
134598,-111.111111111111,4,1,0,84,0,0
134763,-111.111111111111,4,1,0,84,0,0
134929,-111.111111111111,4,1,0,85,0,0
135095,-111.111111111111,4,1,0,85,0,0
135261,-111.111111111111,4,1,0,85,0,0
135592,-111.111111111111,4,1,0,86,0,0
135758,-111.111111111111,4,1,0,86,0,0
135924,-111.111111111111,4,1,0,87,0,0
136089,-111.111111111111,4,1,0,87,0,0
136255,-111.111111111111,4,1,0,87,0,0
136421,-111.111111111111,4,1,0,88,0,0
136587,-111.111111111111,4,1,0,88,0,0
136918,-111.111111111111,4,1,0,88,0,0
137084,-111.111111111111,4,1,0,89,0,0
137250,-111.111111111111,4,1,0,89,0,0
137415,-111.111111111111,4,1,0,89,0,0
137581,-111.111111111111,4,1,0,90,0,0
138208,-111.111111111111,4,1,0,100,0,0
138254,-111.111111111111,4,1,0,100,0,1
138392,-111.111111111111,4,1,0,90,0,1
158098,-111.111111111111,4,1,0,100,0,1
159092,-111.111111111111,4,1,0,80,0,1
159424,-111.111111111111,4,1,0,70,0,1
159469,-111.111111111111,4,1,0,70,0,0

[HitObjects]
402,245,345,5,8,0:0:0:0:
273,221,842,1,0,0:0:0:0:
271,208,1670,1,0,0:0:0:0:
360,253,2168,1,8,0:0:0:0:
360,253,2996,1,0,0:0:0:0:
415,275,3659,1,0,0:0:0:0:
415,275,3991,1,0,0:0:0:0:
375,246,4322,1,8,0:0:0:0:
343,233,5648,1,0,0:0:0:0:
355,229,6146,1,8,0:0:0:0:
351,243,6974,1,8,0:0:0:0:
415,297,7472,1,0,0:0:0:0:
387,261,8300,1,8,0:0:0:0:
288,199,8963,1,0,0:0:0:0:
374,246,9295,1,0,0:0:0:0:
354,217,9626,1,8,0:0:0:0:
262,183,10289,1,0,0:0:0:0:
262,183,10621,1,8,0:0:0:0:
262,183,10952,1,4,0:0:0:0:
347,254,11615,1,8,0:0:0:0:
347,254,11947,1,8,0:0:0:0:
315,162,12278,1,0,0:0:0:0:
339,241,12941,1,8,0:0:0:0:
339,241,13273,1,0,0:0:0:0:
339,241,13604,1,8,0:0:0:0:
385,219,14267,1,0,0:0:0:0:
385,219,14599,1,0,0:0:0:0:
385,219,14930,1,8,0:0:0:0:
410,287,16256,1,0,0:0:0:0:
410,287,16919,1,8,0:0:0:0:
410,287,17251,1,8,0:0:0:0:
404,287,17582,1,0,0:0:0:0:
370,184,18245,1,8,0:0:0:0:
370,184,18577,1,0,0:0:0:0:
370,184,18908,1,8,0:0:0:0:
349,248,19571,1,0,0:0:0:0:
349,248,19903,1,0,0:0:0:0:
349,248,20234,1,8,0:0:0:0:
353,227,21560,1,0,0:0:0:0:
281,269,22223,1,8,0:0:0:0:
392,277,22554,1,0,0:0:0:0:
368,262,22886,1,8,0:0:0:0:
341,226,23549,1,8,0:0:0:0:
341,226,24212,1,0,0:0:0:0:
288,202,24875,1,8,0:0:0:0:
288,202,25206,1,0,0:0:0:0:
274,193,25538,1,8,0:0:0:0:
355,248,26201,1,8,0:0:0:0:
326,228,26864,1,0,0:0:0:0:
360,276,27527,1,8,0:0:0:0:
360,276,27858,1,8,0:0:0:0:
326,228,28190,1,0,0:0:0:0:
372,250,28853,1,0,0:0:0:0:
326,211,29516,1,8,0:0:0:0:
360,248,30842,1,0,0:0:0:0:
325,209,31505,1,8,0:0:0:0:
325,209,32168,1,8,0:0:0:0:
325,209,32499,1,0,0:0:0:0:
325,209,33494,1,8,0:0:0:0:
325,209,33825,1,0,0:0:0:0:
347,200,34820,1,0,0:0:0:0:
354,216,35151,1,8,0:0:0:0:
354,216,36146,1,0,0:0:0:0:
354,216,36477,1,8,0:0:0:0:
364,219,37472,1,8,0:0:0:0:
364,219,37803,1,8,0:0:0:0:
364,219,38135,1,0,0:0:0:0:
364,219,38466,1,0,0:0:0:0:
353,224,38798,1,8,0:0:0:0:
268,219,39461,1,8,0:0:0:0:
268,219,39792,1,0,0:0:0:0:
365,225,40124,1,8,0:0:0:0:
339,234,40786,1,0,0:0:0:0:
339,234,41118,1,0,0:0:0:0:
339,234,41449,1,8,0:0:0:0:
340,210,42775,1,0,0:0:0:0:
351,214,43273,1,8,0:0:0:0:
390,266,44433,1,0,0:0:0:0:
406,296,45427,1,0,0:0:0:0:
401,208,45925,1,8,0:0:0:0:
374,239,46422,1,0,0:0:0:0:
336,215,47085,1,0,0:0:0:0:
388,262,47748,1,0,0:0:0:0:
404,254,48079,1,8,0:0:0:0:
412,291,48577,1,0,0:0:0:0:
412,304,49737,1,0,0:0:0:0:
369,253,50731,1,0,0:0:0:0:
420,281,51228,1,8,0:0:0:0:
420,281,51726,1,0,0:0:0:0:
423,286,52389,1,0,0:0:0:0:
414,261,53383,1,8,0:0:0:0:
233,195,53715,1,8,0:0:0:0:
233,195,54046,1,0,0:0:0:0:
233,195,54378,1,0,0:0:0:0:
233,195,54709,1,8,0:0:0:0:
329,225,55372,1,0,0:0:0:0:
329,225,55704,1,0,0:0:0:0:
329,225,56035,1,8,0:0:0:0:
313,210,56698,1,0,0:0:0:0:
313,210,57030,1,8,0:0:0:0:
384,284,58024,1,8,0:0:0:0:
384,284,58356,1,0,0:0:0:0:
384,284,58687,1,0,0:0:0:0:
384,284,59019,1,8,0:0:0:0:
366,254,59682,1,0,0:0:0:0:
366,254,60013,1,8,0:0:0:0:
366,254,60344,1,0,0:0:0:0:
343,247,60676,1,0,0:0:0:0:
311,207,61007,1,8,0:0:0:0:
396,303,63991,1,4,0:0:0:0:
294,213,64654,1,8,0:0:0:0:
294,213,64985,1,8,0:0:0:0:
368,222,65317,1,0,0:0:0:0:
368,222,65648,1,0,0:0:0:0:
368,222,65980,1,8,0:0:0:0:
287,181,66643,1,0,0:0:0:0:
379,239,67306,1,8,0:0:0:0:
379,239,67637,1,8,0:0:0:0:
379,239,67969,1,0,0:0:0:0:
379,239,68300,1,8,0:0:0:0:
379,239,68632,1,0,0:0:0:0:
384,250,69626,1,0,0:0:0:0:
384,250,69958,1,0,0:0:0:0:
384,250,70289,1,8,0:0:0:0:
370,259,70621,1,8,0:0:0:0:
370,259,70952,1,0,0:0:0:0:
370,259,71284,1,8,0:0:0:0:
243,227,72278,1,8,0:0:0:0:
351,226,72610,1,8,0:0:0:0:
351,226,72941,1,0,0:0:0:0:
306,187,73273,1,0,0:0:0:0:
366,237,73604,1,8,0:0:0:0:
282,189,74599,1,0,0:0:0:0:
330,203,75262,1,8,0:0:0:0:
330,203,75593,1,8,0:0:0:0:
330,203,75925,1,0,0:0:0:0:
252,212,76588,1,8,0:0:0:0:
252,212,76919,1,0,0:0:0:0:
340,227,77251,1,8,0:0:0:0:
284,200,77914,1,0,0:0:0:0:
284,200,78245,1,0,0:0:0:0:
284,200,78577,1,8,0:0:0:0:
301,194,79903,1,0,0:0:0:0:
286,182,80565,1,8,0:0:0:0:
286,182,80897,1,8,0:0:0:0:
286,182,81228,1,0,0:0:0:0:
290,198,81891,1,8,0:0:0:0:
290,198,82223,1,0,0:0:0:0:
290,198,82554,1,8,0:0:0:0:
295,216,83217,1,0,0:0:0:0:
295,216,83549,1,0,0:0:0:0:
295,216,83880,1,8,0:0:0:0:
234,230,85206,1,0,0:0:0:0:
276,227,85869,1,8,0:0:0:0:
276,227,86201,1,8,0:0:0:0:
276,227,86532,1,0,0:0:0:0:
368,252,87195,1,8,0:0:0:0:
368,252,87858,1,8,0:0:0:0:
341,224,88521,1,0,0:0:0:0:
233,208,88853,1,8,0:0:0:0:
341,224,89184,1,0,0:0:0:0:
251,182,89847,1,8,0:0:0:0:
333,219,90179,1,0,0:0:0:0:
251,182,90510,1,8,0:0:0:0:
241,235,91836,1,8,0:0:0:0:
289,202,92499,1,0,0:0:0:0:
289,202,92831,1,0,0:0:0:0:
306,206,93162,1,8,0:0:0:0:
246,225,93825,1,0,0:0:0:0:
288,239,94488,1,0,0:0:0:0:
284,213,95151,1,8,0:0:0:0:
284,213,95483,1,0,0:0:0:0:
284,213,95814,1,8,0:0:0:0:
160,214,96146,1,0,0:0:0:0:
365,247,97140,1,8,0:0:0:0:
213,202,97472,1,0,0:0:0:0:
359,241,98466,1,0,0:0:0:0:
368,169,98798,1,8,0:0:0:0:
253,183,99792,1,0,0:0:0:0:
373,245,100124,1,8,0:0:0:0:
373,245,101118,1,8,0:0:0:0:
373,245,101449,1,8,0:0:0:0:
373,245,101781,1,0,0:0:0:0:
373,245,102112,1,0,0:0:0:0:
373,245,102444,1,8,0:0:0:0:
297,233,103107,1,8,0:0:0:0:
297,233,103438,1,0,0:0:0:0:
393,273,103770,1,8,0:0:0:0:
318,183,104433,1,0,0:0:0:0:
378,245,104764,1,0,0:0:0:0:
378,245,105106,1,8,0:0:0:0:
315,196,106431,1,0,0:0:0:0:
334,202,106928,1,8,0:0:0:0:
363,239,107756,1,0,0:0:0:0:
376,261,108254,1,8,0:0:0:0:
359,234,109082,1,0,0:0:0:0:
360,255,109745,1,0,0:0:0:0:
360,255,110077,1,0,0:0:0:0:
360,255,110408,1,8,0:0:0:0:
387,271,110906,1,8,0:0:0:0:
401,279,111403,1,8,0:0:0:0:
404,262,111734,1,0,0:0:0:0:
365,283,112066,1,8,0:0:0:0:
365,283,112563,1,0,0:0:0:0:
396,269,113060,1,8,0:0:0:0:
381,260,114386,1,0,0:0:0:0:
382,270,114884,1,0,0:0:0:0:
374,269,115381,1,0,0:0:0:0:
374,269,115712,1,8,0:0:0:0:
225,207,117038,1,0,0:0:0:0:
225,207,117535,1,8,0:0:0:0:
377,271,118364,1,0,0:0:0:0:
377,271,118861,1,0,0:0:0:0:
278,188,119690,1,8,0:0:0:0:
396,294,120187,1,8,0:0:0:0:
387,282,121016,1,0,0:0:0:0:
387,282,121513,1,0,0:0:0:0:
387,265,122342,1,8,0:0:0:0:
387,265,122839,1,8,0:0:0:0:
375,289,123668,1,0,0:0:0:0:
271,158,124165,1,0,0:0:0:0:
382,255,124994,1,8,0:0:0:0:
382,255,125491,1,8,0:0:0:0:
314,233,126320,1,8,0:0:0:0:
256,184,127646,5,0,0:0:0:0:
303,208,128309,1,0,0:0:0:0:
191,212,128972,1,0,0:0:0:0:
323,242,129469,1,8,0:0:0:0:
313,190,130298,1,0,0:0:0:0:
362,260,130795,1,8,0:0:0:0:
362,260,131624,1,0,0:0:0:0:
391,262,132121,1,8,0:0:0:0:
391,262,132950,1,0,0:0:0:0:
337,244,133447,1,8,0:0:0:0:
337,244,134276,1,0,0:0:0:0:
377,240,134773,1,8,0:0:0:0:
377,240,135602,1,0,0:0:0:0:
377,264,136099,1,8,0:0:0:0:
377,264,136928,1,0,0:0:0:0:
390,291,137425,1,8,0:0:0:0:
390,291,137922,1,8,0:0:0:0:
393,312,138254,1,4,0:0:0:0:
291,222,139248,1,0,0:0:0:0:
365,231,139580,1,8,0:0:0:0:
365,231,140077,1,0,0:0:0:0:
330,228,140574,1,0,0:0:0:0:
284,190,140906,1,8,0:0:0:0:
376,248,141403,1,8,0:0:0:0:
344,219,141900,1,0,0:0:0:0:
376,248,142232,1,8,0:0:0:0:
376,248,142729,1,8,0:0:0:0:
320,254,143226,1,0,0:0:0:0:
373,273,143558,1,8,0:0:0:0:
381,259,144055,1,0,0:0:0:0:
381,259,144552,1,0,0:0:0:0:
367,268,144884,1,8,0:0:0:0:
367,268,145381,1,0,0:0:0:0:
367,268,145878,1,0,0:0:0:0:
384,271,146210,1,8,0:0:0:0:
348,235,146707,1,0,0:0:0:0:
348,235,147204,1,0,0:0:0:0:
303,196,147535,1,8,0:0:0:0:
279,198,148861,1,0,0:0:0:0:
327,212,149524,1,8,0:0:0:0:
327,212,149856,1,8,0:0:0:0:
327,212,150187,1,0,0:0:0:0:
249,221,150850,1,8,0:0:0:0:
249,221,151182,1,0,0:0:0:0:
337,236,151513,1,8,0:0:0:0:
281,209,152176,1,0,0:0:0:0:
281,209,152508,1,0,0:0:0:0:
281,209,152839,1,8,0:0:0:0:
298,203,154165,1,0,0:0:0:0:
283,191,154828,1,8,0:0:0:0:
283,191,155160,1,8,0:0:0:0:
283,191,155491,1,0,0:0:0:0:
287,207,156154,1,8,0:0:0:0:
287,207,156486,1,0,0:0:0:0:
287,207,156817,1,8,0:0:0:0:
292,225,157480,1,0,0:0:0:0:
292,225,157812,1,0,0:0:0:0:
292,225,158143,1,8,0:0:0:0:
186,227,158475,1,0,0:0:0:0:
186,227,158806,1,8,0:0:0:0:
186,227,159138,1,0,0:0:0:0:
231,239,159469,1,8,0:0:0:0:
