osu file format v14

[General]
AudioFilename: xo_new.mp3
AudioLeadIn: 0
PreviewTime: 62997
Countdown: 0
SampleSet: Normal
StackLeniency: 0.7
Mode: 1
LetterboxInBreaks: 0
WidescreenStoryboard: 1

[Editor]
Bookmarks: 10587,21195,42410,53018,63626,84841,106057,127272,137880,159095
DistanceSpacing: 0.9
BeatDivisor: 12
GridSize: 8
TimelineZoom: 2.1

[Metadata]
Title:XO Tour Llif3 (jscelle remix)
TitleUnicode:XO Tour Llif3 (jscelle remix)
Artist:Lil Uzi Vert
ArtistUnicode:Lil Uzi Vert
Creator:Slim-san
Version:Inner Oni
Source:
Tags:electronic hardstyle dnb drum and bass & hyperpop life rap hip-hop hip hop sped up english luv is rage 2 two x0
BeatmapID:3934754
BeatmapSetID:1907433

[Difficulty]
HPDrainRate:6
CircleSize:4
OverallDifficulty:6
ApproachRate:9
SliderMultiplier:1.4
SliderTickRate:1

[Events]
//Background and Video events
0,0,"94635586_p0 (1).jpg",0,10
//Break Periods
//Storyboard Layer 0 (Background)
//Storyboard Layer 1 (Fail)
//Storyboard Layer 2 (Pass)
//Storyboard Layer 3 (Foreground)
//Storyboard Layer 4 (Overlay)
//Storyboard Sound Samples

[TimingPoints]
345,331.491712707182,4,1,0,70,1,0
345,-125,4,1,0,70,0,0
5648,-111.111111111111,4,1,0,70,0,0
9958,-90.9090909090909,4,1,0,70,0,0
10252,-100,4,1,0,100,0,0
10289,-66.6666666666667,4,1,0,100,0,0
10584,-100,4,1,0,80,0,0
10620,-76.9230791952663,4,1,0,80,0,0
10915,-100,4,1,0,90,0,0
10952,-66.6666666666667,4,1,0,90,0,1
11118,-74.0740740740741,4,1,0,90,0,1
20730,-74.62687,4,1,0,90,0,1
20896,-79.87898,4,1,0,90,0,1
20979,-82.79237,4,1,0,90,0,1
21062,-85.92632,4,1,0,90,0,1
21227,-92.91847,4,1,0,90,0,1
21393,-101.203705,4,1,0,90,0,1
21523,-111.111111111111,4,1,0,70,0,1
21560,-111.111115,4,1,0,70,0,0
26200,-109.89011,4,1,0,70,0,0
26366,-108.69387,4,1,0,70,0,0
26531,-107.530365,4,1,0,70,0,0
26614,-106.95445,4,1,0,70,0,0
26697,-106.38469,4,1,0,70,0,0
26863,-105.26316,4,1,0,70,0,0
27526,-104.166664,4,1,0,70,0,0
27692,-103.09118,4,1,0,70,0,0
27857,-102.04395,4,1,0,70,0,0
28023,-101.01164,4,1,0,70,0,0
28189,-100,4,1,0,70,0,0
31505,-83.3333333333333,4,1,0,70,0,0
41448,-83.333336,4,1,0,70,0,0
41780,-87.06803,4,1,0,70,0,0
42111,-91.14031,4,1,0,70,0,0
42443,-95.62639,4,1,0,70,0,0
42609,-98.039215,4,1,0,70,0,0
42739,-100,4,1,0,80,0,0
52719,-90.90909,4,1,0,80,0,0
52885,-83.3333333333333,4,1,0,80,0,0
53346,-100,4,1,0,100,0,0
53383,-62.5,4,1,0,100,0,1
54746,-62.5,4,1,0,5,0,1
55041,-62.5,4,1,0,5,0,0
55335,-62.5,4,1,0,100,0,0
55372,-62.5,4,1,0,100,0,1
57324,-62.5,4,1,0,60,0,1
57361,-62.5,4,1,0,100,0,0
57444,-62.5,4,1,0,5,0,0
58024,-62.5,4,1,0,100,0,1
59101,-62.5,4,1,0,5,0,1
59313,-62.5,4,1,0,60,0,1
59350,-62.5,4,1,0,60,0,0
59645,-62.5,4,1,0,100,0,0
59682,-62.5,4,1,0,100,0,1
61302,-62.5,4,1,0,60,0,1
61339,-62.5,4,1,0,60,0,0
61376,-62.5,4,1,0,5,0,0
61965,-62.5,4,1,0,60,0,0
62702,-62.5,4,1,0,5,0,0
63954,-62.5,4,1,0,90,0,0
63991,-74.0740740740741,4,1,0,90,0,1
83216,-74.62687,4,1,0,90,0,1
83299,-75.260635,4,1,0,90,0,1
83382,-75.90525,4,1,0,90,0,1
83465,-76.561,4,1,0,90,0,1
83548,-77.22819,4,1,0,90,0,1
83631,-77.9071,4,1,0,90,0,1
83714,-78.59806,4,1,0,90,0,1
83797,-79.301384,4,1,0,90,0,1
83879,-80.008705,4,1,0,90,0,1
84211,-83.3333333333333,4,1,0,90,0,1
84542,-87.2742,4,1,0,90,0,1
84875,-90.9090909090909,4,1,0,90,0,1
85170,-90.9090909090909,4,1,0,70,0,1
85206,-90.9090940826447,4,1,0,80,0,0
94820,-86.9565217391304,4,1,0,80,0,0
95151,-83.333336,4,1,0,80,0,0
105096,331.491712707182,4,1,0,70,1,8
105096,-90.9090940826447,4,1,0,80,0,0
105106,331.491712707182,4,1,0,70,1,0
105106,-90.9090909090909,4,1,0,70,0,0
105427,-100.00000384,4,1,0,80,0,0
105758,-111.111115,4,1,0,80,0,0
106089,-118.04639,4,1,0,80,0,0
106172,-119.92337,4,1,0,80,0,0
106255,-121.861,4,1,0,80,0,0
106338,-123.86229,4,1,0,80,0,0
106385,-125,4,1,0,70,0,0
106422,-125,4,1,0,70,0,0
106431,331.491712707182,4,1,0,70,1,0
106431,-125,4,1,0,70,0,8
126817,-142.857142857143,4,1,0,70,0,8
127306,-166.666675416666,4,1,0,70,0,0
127600,-166.666666666667,4,1,0,71,0,0
127636,-166.11432,4,1,0,71,0,0
127968,-160.81844,4,1,0,72,0,0
128299,-155.91101,4,1,0,72,0,0
128631,-151.28067,4,1,0,73,0,0
128797,-149.06714,4,1,0,73,0,0
128962,-146.9302,4,1,0,74,0,0
129128,-144.84126,4,1,0,74,0,0
129294,-142.8109,4,1,0,74,0,0
129459,-140.8484,4,1,0,74,0,0
129625,-138.92767,4,1,0,75,0,0
129708,-137.98683,4,1,0,75,0,0
129791,-137.05864,4,1,0,75,0,0
129957,-135.23924,4,1,0,75,0,0
130288,-131.75185,4,1,0,76,0,0
130454,-130.06973,4,1,0,76,0,0
130620,-128.43004,4,1,0,77,0,0
130785,-126.840675,4,1,0,77,0,0
130951,-125.28089,4,1,0,77,0,0
131117,-123.758995,4,1,0,78,0,0
131283,-122.273636,4,1,0,78,0,0
131614,-119.4158,4,1,0,79,0,0
131780,-118.03229,4,1,0,79,0,0
131946,-116.680466,4,1,0,79,0,0
132111,-115.36713,4,1,0,79,0,0
132277,-114.075325,4,1,0,80,0,0
132360,-113.44021,4,1,0,80,0,0
132443,-112.81214,4,1,0,80,0,0
132609,-111.576614,4,1,0,80,0,0
132940,-109.19206,4,1,0,81,0,0
133106,-108.03416,4,1,0,81,0,0
133272,-106.90054,4,1,0,82,0,0
133437,-105.797104,4,1,0,82,0,0
133603,-104.709724,4,1,0,82,0,0
133769,-103.64447,4,1,0,83,0,0
133935,-102.60067,4,1,0,83,0,0
134266,-100.580864,4,1,0,83,0,0
134432,-99.597565,4,1,0,84,0,0
134598,-98.63331,4,1,0,84,0,0
134763,-97.693184,4,1,0,84,0,0
134929,-96.765274,4,1,0,85,0,0
135095,-95.85483,4,1,0,85,0,0
135261,-94.96136,4,1,0,85,0,0
135592,-93.22859,4,1,0,86,0,0
135758,-92.383194,4,1,0,86,0,0
135924,-91.552986,4,1,0,87,0,0
136089,-90.74243,4,1,0,87,0,0
136255,-89.94132,4,1,0,87,0,0
136421,-89.15424,4,1,0,88,0,0
136587,-88.38081,4,1,0,88,0,0
136918,-86.877975,4,1,0,88,0,0
137084,-86.14337,4,1,0,89,0,0
137250,-85.42109,4,1,0,89,0,0
137415,-84.71506,4,1,0,89,0,0
137581,-84.01643,4,1,0,90,0,0
137747,-83.32923,4,1,0,90,0,0
137913,-76.8518439709021,4,1,0,90,0,0
138208,-74.07408,4,1,0,100,0,0
138254,-66.6666666666667,4,1,0,100,0,1
138392,-76.9230769230769,4,1,0,90,0,1
138577,-74.0740740740741,4,1,0,90,0,1
157471,-74.62687,4,1,0,90,0,1
157553,-75.25293,4,1,0,91,0,1
157636,-75.897415,4,1,0,92,0,1
157719,-76.55303,4,1,0,94,0,1
157802,-77.22008,4,1,0,95,0,1
157885,-77.89885,4,1,0,96,0,1
157968,-78.58966,4,1,0,98,0,1
158051,-79.29284,4,1,0,99,0,1
158098,-80,4,1,0,100,0,1
158134,-80.008705,4,1,0,100,0,1
158465,-83.3333333333333,4,1,0,100,0,1
158797,-86.9565217391304,4,1,0,100,0,1
159092,-86.9565217391304,4,1,0,80,0,1
159128,-90.93197,4,1,0,80,0,1
159211,-93.03469,4,1,0,80,0,1
159294,-95.25521,4,1,0,80,0,1
159377,-97.58432,4,1,0,80,0,1
159424,-100,4,1,0,70,0,1
159469,-100,4,1,0,70,0,0

[HitObjects]
303,190,345,5,8,0:0:0:0:
371,221,676,1,0,0:0:0:0:
354,210,842,1,8,0:0:0:0:
346,249,1173,1,0,0:0:0:0:
346,249,1339,1,0,0:0:0:0:
336,181,1670,1,8,0:0:0:0:
307,199,2002,1,0,0:0:0:0:
378,223,2168,1,8,0:0:0:0:
362,237,2333,1,0,0:0:0:0:
371,255,2996,1,0,0:0:0:0:
350,245,3328,1,0,0:0:0:0:
350,245,3494,1,8,0:0:0:0:
397,283,3659,1,8,0:0:0:0:
397,283,3825,1,0,0:0:0:0:
397,283,3991,1,8,0:0:0:0:
221,222,4157,1,0,0:0:0:0:
221,222,4212,1,0,0:0:0:0:
221,222,4267,1,0,0:0:0:0:
403,265,4322,1,8,0:0:0:0:
401,269,4654,1,0,0:0:0:0:
391,279,4820,1,8,0:0:0:0:
391,279,4985,1,0,0:0:0:0:
391,279,5648,1,8,0:0:0:0:
246,207,5980,1,0,0:0:0:0:
246,207,6146,1,8,0:0:0:0:
339,209,6311,1,8,0:0:0:0:
339,209,6477,1,0,0:0:0:0:
339,209,6643,1,0,0:0:0:0:
339,209,6809,1,8,0:0:0:0:
339,209,6974,1,0,0:0:0:0:
377,258,7140,1,0,0:0:0:0:
377,258,7306,1,8,0:0:0:0:
412,327,7472,1,0,0:0:0:0:
384,276,7637,1,8,0:0:0:0:
334,236,8135,1,0,0:0:0:0:
340,226,8300,1,8,0:0:0:0:
376,239,8798,1,0,0:0:0:0:
376,239,8963,1,8,0:0:0:0:
384,249,9129,1,0,0:0:0:0:
376,260,9295,1,8,0:0:0:0:
376,260,9461,1,0,0:0:0:0:
362,224,9516,1,0,0:0:0:0:
376,260,9571,1,0,0:0:0:0:
376,260,9626,1,8,0:0:0:0:
405,297,9958,1,0,0:0:0:0:
320,242,10289,1,4,0:0:0:0:
320,242,10455,1,4,0:0:0:0:
345,229,10621,1,8,0:0:0:0:
331,192,10704,1,8,0:0:0:0:
420,316,10786,1,8,0:0:0:0:
345,229,10869,1,8,0:0:0:0:
338,210,10952,1,4,0:0:0:0:
220,218,11118,1,0,0:0:0:0:
220,218,11284,1,8,0:0:0:0:
220,218,11367,1,8,0:0:0:0:
220,218,11449,1,0,0:0:0:0:
220,218,11615,1,8,0:0:0:0:
220,218,11698,1,0,0:0:0:0:
220,218,11781,1,8,0:0:0:0:
220,218,11864,1,8,0:0:0:0:
220,218,11947,1,0,0:0:0:0:
220,218,12030,1,0,0:0:0:0:
220,218,12112,1,8,0:0:0:0:
220,218,12278,1,0,0:0:0:0:
220,218,12444,1,8,0:0:0:0:
220,218,12527,1,0,0:0:0:0:
220,218,12610,1,8,0:0:0:0:
196,218,12775,1,0,0:0:0:0:
196,218,12941,1,8,0:0:0:0:
196,218,13024,1,8,0:0:0:0:
196,218,13107,1,0,0:0:0:0:
196,218,13190,1,8,0:0:0:0:
196,218,13273,1,0,0:0:0:0:
196,218,13356,1,0,0:0:0:0:
196,218,13438,1,8,0:0:0:0:
196,218,13604,1,8,0:0:0:0:
196,218,13770,1,0,0:0:0:0:
196,218,13853,1,0,0:0:0:0:
196,218,13936,1,8,0:0:0:0:
196,218,14019,1,0,0:0:0:0:
196,218,14101,1,8,0:0:0:0:
196,218,14267,1,0,0:0:0:0:
196,218,14350,1,0,0:0:0:0:
196,218,14433,1,8,0:0:0:0:
196,218,14516,1,8,0:0:0:0:
196,218,14599,1,0,0:0:0:0:
196,218,14682,1,0,0:0:0:0:
196,218,14764,1,8,0:0:0:0:
196,218,14930,1,8,0:0:0:0:
196,218,15096,1,0,0:0:0:0:
196,218,15179,1,0,0:0:0:0:
196,218,15262,1,8,0:0:0:0:
196,218,15427,1,0,0:0:0:0:
196,218,15593,1,8,0:0:0:0:
196,218,15676,1,8,0:0:0:0:
196,218,15759,1,0,0:0:0:0:
196,218,15842,1,0,0:0:0:0:
196,218,15925,1,8,0:0:0:0:
196,218,16007,1,0,0:0:0:0:
196,218,16090,1,8,0:0:0:0:
196,218,16256,1,0,0:0:0:0:
196,218,16422,1,8,0:0:0:0:
196,218,16505,1,8,0:0:0:0:
196,218,16588,1,0,0:0:0:0:
196,218,16670,1,0,0:0:0:0:
196,218,16753,1,0,0:0:0:0:
196,218,16919,1,8,0:0:0:0:
196,218,17002,1,0,0:0:0:0:
196,218,17085,1,0,0:0:0:0:
196,218,17168,1,8,0:0:0:0:
196,218,17251,1,0,0:0:0:0:
196,218,17333,1,0,0:0:0:0:
196,218,17416,1,8,0:0:0:0:
196,218,17582,1,0,0:0:0:0:
196,218,17748,1,0,0:0:0:0:
196,218,17831,1,0,0:0:0:0:
196,218,17914,1,8,0:0:0:0:
196,218,18079,1,0,0:0:0:0:
196,218,18245,1,8,0:0:0:0:
196,218,18328,1,0,0:0:0:0:
196,218,18411,1,8,0:0:0:0:
196,218,18494,1,8,0:0:0:0:
196,218,18577,1,0,0:0:0:0:
196,218,18659,1,0,0:0:0:0:
196,218,18742,1,8,0:0:0:0:
196,218,18908,1,0,0:0:0:0:
196,218,19074,1,8,0:0:0:0:
196,218,19157,1,8,0:0:0:0:
196,218,19240,1,0,0:0:0:0:
196,218,19405,1,0,0:0:0:0:
196,218,19571,1,8,0:0:0:0:
196,218,19654,1,8,0:0:0:0:
196,218,19737,1,0,0:0:0:0:
196,218,19820,1,0,0:0:0:0:
196,218,19903,1,8,0:0:0:0:
196,218,19985,1,0,0:0:0:0:
196,218,20068,1,8,0:0:0:0:
196,218,20151,1,8,0:0:0:0:
196,218,20234,1,0,0:0:0:0:
196,218,20400,1,8,0:0:0:0:
321,265,20483,1,0,0:0:0:0:
196,218,20565,1,8,0:0:0:0:
350,253,20731,1,0,0:0:0:0:
349,292,20897,1,8,0:0:0:0:
349,292,20980,1,8,0:0:0:0:
349,292,21063,1,0,0:0:0:0:
349,292,21228,1,8,0:0:0:0:
412,331,21394,1,8,0:0:0:0:
412,331,21560,1,0,0:0:0:0:
274,185,21891,1,0,0:0:0:0:
326,219,22223,1,0,0:0:0:0:
276,220,22389,1,8,0:0:0:0:
340,236,22554,1,0,0:0:0:0:
344,238,22720,1,8,0:0:0:0:
340,236,22886,1,8,0:0:0:0:
362,245,23217,1,0,0:0:0:0:
340,236,23383,1,8,0:0:0:0:
362,245,23549,1,0,0:0:0:0:
335,290,23715,1,8,0:0:0:0:
383,299,23798,1,8,0:0:0:0:
362,245,23880,1,0,0:0:0:0:
399,273,24046,1,8,0:0:0:0:
362,245,24212,1,0,0:0:0:0:
377,261,24543,1,0,0:0:0:0:
377,261,24875,1,0,0:0:0:0:
391,254,25041,1,8,0:0:0:0:
377,261,25206,1,0,0:0:0:0:
391,254,25372,1,0,0:0:0:0:
377,261,25538,1,8,0:0:0:0:
346,267,25869,1,8,0:0:0:0:
346,267,26201,1,0,0:0:0:0:
386,259,26367,1,8,0:0:0:0:
386,259,26532,1,0,0:0:0:0:
396,280,26615,1,0,0:0:0:0:
386,259,26698,1,8,0:0:0:0:
386,259,26864,1,0,0:0:0:0:
252,213,27195,1,0,0:0:0:0:
252,213,27527,1,8,0:0:0:0:
190,237,27693,1,0,0:0:0:0:
252,213,27858,1,8,0:0:0:0:
190,237,28024,1,8,0:0:0:0:
252,213,28190,1,0,0:0:0:0:
217,244,28521,1,0,0:0:0:0:
217,244,28853,1,8,0:0:0:0:
337,222,29019,1,0,0:0:0:0:
217,244,29184,1,8,0:0:0:0:
337,222,29267,1,0,0:0:0:0:
361,229,29350,1,8,0:0:0:0:
361,229,29516,1,0,0:0:0:0:
291,201,29847,1,8,0:0:0:0:
396,236,30013,1,0,0:0:0:0:
329,192,30179,1,8,0:0:0:0:
329,192,30344,1,8,0:0:0:0:
329,192,30510,1,0,0:0:0:0:
329,192,30676,1,0,0:0:0:0:
329,192,30842,1,8,0:0:0:0:
336,265,31173,1,0,0:0:0:0:
341,281,31505,1,8,0:0:0:0:
341,281,31615,1,0,0:0:0:0:
341,281,31726,1,0,0:0:0:0:
341,281,31836,1,8,0:0:0:0:
327,205,31947,1,0,0:0:0:0:
327,205,32057,1,0,0:0:0:0:
327,205,32168,1,8,0:0:0:0:
322,246,32333,1,0,0:0:0:0:
322,246,32416,1,0,0:0:0:0:
322,246,32499,1,8,0:0:0:0:
349,285,32831,1,8,0:0:0:0:
356,250,32941,1,8,0:0:0:0:
356,250,33052,1,0,0:0:0:0:
356,250,33162,1,0,0:0:0:0:
356,250,33273,1,8,0:0:0:0:
356,250,33383,1,8,0:0:0:0:
356,250,33494,1,0,0:0:0:0:
374,195,33825,1,0,0:0:0:0:
340,260,33991,1,8,0:0:0:0:
417,292,34157,1,0,0:0:0:0:
410,318,34240,1,0,0:0:0:0:
410,318,34322,1,8,0:0:0:0:
410,318,34488,1,0,0:0:0:0:
417,318,34654,1,8,0:0:0:0:
409,280,34820,1,0,0:0:0:0:
428,319,34985,1,0,0:0:0:0:
428,319,35151,1,8,0:0:0:0:
416,312,35483,1,8,0:0:0:0:
430,237,35593,1,0,0:0:0:0:
430,237,35704,1,0,0:0:0:0:
430,237,35814,1,8,0:0:0:0:
430,237,35925,1,0,0:0:0:0:
430,237,36035,1,0,0:0:0:0:
430,237,36146,1,8,0:0:0:0:
324,249,36311,1,0,0:0:0:0:
324,249,36477,1,8,0:0:0:0:
364,227,36809,1,0,0:0:0:0:
364,227,36919,1,0,0:0:0:0:
364,227,37030,1,8,0:0:0:0:
364,227,37140,1,8,0:0:0:0:
387,293,37251,1,0,0:0:0:0:
387,293,37361,1,0,0:0:0:0:
387,293,37472,1,8,0:0:0:0:
410,334,37582,1,8,0:0:0:0:
410,334,37693,1,8,0:0:0:0:
410,334,37803,1,0,0:0:0:0:
410,334,37914,1,0,0:0:0:0:
410,334,38024,1,0,0:0:0:0:
410,334,38135,1,8,0:0:0:0:
410,334,38245,1,8,0:0:0:0:
410,334,38356,1,8,0:0:0:0:
410,334,38466,1,0,0:0:0:0:
410,334,38577,1,0,0:0:0:0:
410,334,38687,1,0,0:0:0:0:
410,334,38798,1,8,0:0:0:0:
367,212,38963,1,0,0:0:0:0:
367,212,39129,1,8,0:0:0:0:
380,287,39461,1,8,0:0:0:0:
361,268,39543,1,8,0:0:0:0:
380,287,39626,1,0,0:0:0:0:
380,287,39792,1,8,0:0:0:0:
380,287,39958,1,0,0:0:0:0:
380,287,40124,1,8,0:0:0:0:
345,259,40455,1,8,0:0:0:0:
380,287,40621,1,0,0:0:0:0:
345,259,40786,1,8,0:0:0:0:
396,271,40952,1,8,0:0:0:0:
396,271,41118,1,0,0:0:0:0:
386,262,41201,1,0,0:0:0:0:
396,271,41284,1,8,0:0:0:0:
396,271,41449,1,0,0:0:0:0:
417,313,41781,1,8,0:0:0:0:
415,289,42112,1,0,0:0:0:0:
429,339,42444,1,0,0:0:0:0:
417,313,42610,1,8,0:0:0:0:
397,286,42775,1,0,0:0:0:0:
377,305,43107,1,0,0:0:0:0:
377,305,43273,1,0,0:0:0:0:
391,316,44433,1,8,0:0:0:0:
391,316,44764,1,0,0:0:0:0:
416,331,44930,1,0,0:0:0:0:
416,331,45096,1,0,0:0:0:0:
425,321,45427,1,8,0:0:0:0:
406,310,45759,1,0,0:0:0:0:
406,310,45925,1,0,0:0:0:0:
405,293,46256,1,0,0:0:0:0:
405,293,46422,1,0,0:0:0:0:
386,279,46753,1,8,0:0:0:0:
386,279,46919,1,8,0:0:0:0:
382,283,47085,1,0,0:0:0:0:
198,171,47416,1,8,0:0:0:0:
403,291,47582,1,8,0:0:0:0:
403,291,47748,1,0,0:0:0:0:
416,281,48079,1,8,0:0:0:0:
395,294,48411,1,0,0:0:0:0:
395,294,48577,1,0,0:0:0:0:
445,332,49737,1,8,0:0:0:0:
407,283,50068,1,0,0:0:0:0:
431,326,50234,1,0,0:0:0:0:
431,326,50400,1,0,0:0:0:0:
417,298,50731,1,8,0:0:0:0:
432,313,51063,1,0,0:0:0:0:
432,313,51228,1,0,0:0:0:0:
187,192,51560,1,0,0:0:0:0:
187,192,51726,1,0,0:0:0:0:
187,192,52057,1,8,0:0:0:0:
388,274,52223,1,8,0:0:0:0:
388,274,52389,1,0,0:0:0:0:
408,329,52720,1,8,0:0:0:0:
408,329,52886,1,8,0:0:0:0:
408,329,52969,1,0,0:0:0:0:
408,329,53052,1,0,0:0:0:0:
396,254,53135,1,0,0:0:0:0:
387,325,53217,1,8,0:0:0:0:
387,325,53383,1,4,0:0:0:0:
217,259,53549,1,8,0:0:0:0:
377,271,53715,1,4,0:0:0:0:
217,259,53880,1,8,0:0:0:0:
377,271,54046,1,4,0:0:0:0:
396,290,54212,1,8,0:0:0:0:
377,271,54378,1,4,0:0:0:0:
396,290,54543,1,8,0:0:0:0:
300,225,54709,1,4,0:0:0:0:
381,278,55372,1,4,0:0:0:0:
330,195,55538,1,8,0:0:0:0:
381,278,55704,1,4,0:0:0:0:
330,195,55869,1,8,0:0:0:0:
313,208,55952,1,8,0:0:0:0:
381,278,56035,1,4,0:0:0:0:
251,234,56201,1,8,0:0:0:0:
381,278,56367,1,4,0:0:0:0:
251,234,56532,1,8,0:0:0:0:
381,278,56698,1,4,0:0:0:0:
395,278,56864,1,8,0:0:0:0:
381,278,57030,1,4,0:0:0:0:
323,241,58024,1,4,0:0:0:0:
367,250,58190,1,8,0:0:0:0:
323,241,58356,1,4,0:0:0:0:
367,250,58521,1,8,0:0:0:0:
246,209,58604,1,8,0:0:0:0:
223,232,58687,1,4,0:0:0:0:
367,250,58853,1,8,0:0:0:0:
223,232,59019,1,4,0:0:0:0:
357,272,59682,1,4,0:0:0:0:
389,246,59847,1,8,0:0:0:0:
300,236,59930,1,8,0:0:0:0:
357,272,60013,1,4,0:0:0:0:
389,246,60179,1,8,0:0:0:0:
357,272,60344,1,4,0:0:0:0:
396,248,60510,1,8,0:0:0:0:
357,272,60676,1,4,0:0:0:0:
407,306,60842,1,8,0:0:0:0:
357,272,61007,1,4,0:0:0:0:
410,299,61173,1,8,0:0:0:0:
316,256,61339,1,0,0:0:0:0:
264,181,63991,1,4,0:0:0:0:
264,181,64157,1,8,0:0:0:0:
264,181,64322,1,0,0:0:0:0:
264,181,64405,1,0,0:0:0:0:
264,181,64488,1,8,0:0:0:0:
264,181,64654,1,0,0:0:0:0:
264,181,64737,1,0,0:0:0:0:
264,181,64820,1,8,0:0:0:0:
264,181,64903,1,0,0:0:0:0:
264,181,64985,1,8,0:0:0:0:
264,181,65068,1,8,0:0:0:0:
264,181,65151,1,0,0:0:0:0:
264,181,65317,1,8,0:0:0:0:
264,181,65400,1,8,0:0:0:0:
264,181,65483,1,0,0:0:0:0:
264,181,65648,1,8,0:0:0:0:
264,181,65814,1,0,0:0:0:0:
264,181,65980,1,8,0:0:0:0:
264,181,66063,1,8,0:0:0:0:
264,181,66146,1,0,0:0:0:0:
264,181,66228,1,0,0:0:0:0:
264,181,66311,1,8,0:0:0:0:
264,181,66394,1,8,0:0:0:0:
264,181,66477,1,0,0:0:0:0:
264,181,66643,1,8,0:0:0:0:
264,181,66809,1,0,0:0:0:0:
264,181,66974,1,8,0:0:0:0:
264,181,67057,1,0,0:0:0:0:
264,181,67140,1,8,0:0:0:0:
264,181,67306,1,0,0:0:0:0:
264,181,67389,1,8,0:0:0:0:
264,181,67472,1,0,0:0:0:0:
264,181,67554,1,0,0:0:0:0:
264,181,67637,1,8,0:0:0:0:
264,181,67720,1,8,0:0:0:0:
264,181,67803,1,0,0:0:0:0:
264,181,67969,1,8,0:0:0:0:
264,181,68052,1,0,0:0:0:0:
264,181,68135,1,0,0:0:0:0:
264,181,68300,1,8,0:0:0:0:
264,181,68466,1,0,0:0:0:0:
264,181,68632,1,8,0:0:0:0:
264,181,68715,1,8,0:0:0:0:
264,181,68798,1,0,0:0:0:0:
264,181,68880,1,8,0:0:0:0:
264,181,68963,1,0,0:0:0:0:
264,181,69046,1,0,0:0:0:0:
264,181,69129,1,8,0:0:0:0:
264,181,69295,1,0,0:0:0:0:
264,181,69461,1,8,0:0:0:0:
349,271,69626,1,0,0:0:0:0:
349,271,69709,1,0,0:0:0:0:
349,271,69792,1,8,0:0:0:0:
349,271,69958,1,0,0:0:0:0:
349,271,70041,1,0,0:0:0:0:
349,271,70124,1,8,0:0:0:0:
349,271,70206,1,8,0:0:0:0:
349,271,70289,1,0,0:0:0:0:
349,271,70372,1,0,0:0:0:0:
349,271,70455,1,8,0:0:0:0:
349,271,70621,1,0,0:0:0:0:
349,271,70704,1,0,0:0:0:0:
349,271,70786,1,8,0:0:0:0:
349,271,70952,1,0,0:0:0:0:
349,271,71118,1,8,0:0:0:0:
349,271,71284,1,0,0:0:0:0:
349,271,71367,1,8,0:0:0:0:
349,271,71449,1,0,0:0:0:0:
349,271,71532,1,0,0:0:0:0:
349,271,71615,1,8,0:0:0:0:
349,271,71698,1,8,0:0:0:0:
349,271,71781,1,0,0:0:0:0:
349,271,71947,1,8,0:0:0:0:
349,271,72112,1,0,0:0:0:0:
349,271,72278,1,8,0:0:0:0:
349,271,72361,1,0,0:0:0:0:
349,271,72444,1,8,0:0:0:0:
349,271,72610,1,0,0:0:0:0:
349,271,72693,1,0,0:0:0:0:
349,271,72775,1,8,0:0:0:0:
224,265,72858,1,8,0:0:0:0:
265,292,72941,1,0,0:0:0:0:
349,271,73107,1,8,0:0:0:0:
349,271,73190,1,8,0:0:0:0:
349,271,73273,1,8,0:0:0:0:
349,271,73356,1,8,0:0:0:0:
349,271,73438,1,0,0:0:0:0:
349,271,73521,1,0,0:0:0:0:
349,271,73604,1,0,0:0:0:0:
349,271,73687,1,0,0:0:0:0:
349,271,73770,1,8,0:0:0:0:
272,241,73936,1,0,0:0:0:0:
272,241,74019,1,0,0:0:0:0:
272,241,74101,1,8,0:0:0:0:
345,282,74267,1,0,0:0:0:0:
345,282,74433,1,0,0:0:0:0:
345,282,74599,1,8,0:0:0:0:
265,255,74764,1,8,0:0:0:0:
265,255,74930,1,0,0:0:0:0:
265,255,75013,1,0,0:0:0:0:
265,255,75096,1,8,0:0:0:0:
265,255,75262,1,0,0:0:0:0:
265,255,75344,1,8,0:0:0:0:
265,255,75427,1,0,0:0:0:0:
265,255,75510,1,0,0:0:0:0:
265,255,75593,1,8,0:0:0:0:
265,255,75676,1,8,0:0:0:0:
265,255,75759,1,0,0:0:0:0:
265,255,75925,1,8,0:0:0:0:
265,255,76090,1,0,0:0:0:0:
265,255,76173,1,0,0:0:0:0:
265,255,76256,1,8,0:0:0:0:
265,255,76422,1,0,0:0:0:0:
265,255,76588,1,8,0:0:0:0:
265,255,76670,1,8,0:0:0:0:
265,255,76753,1,0,0:0:0:0:
265,255,76836,1,0,0:0:0:0:
265,255,76919,1,8,0:0:0:0:
265,255,77002,1,0,0:0:0:0:
265,255,77085,1,8,0:0:0:0:
265,255,77251,1,0,0:0:0:0:
265,255,77416,1,8,0:0:0:0:
265,255,77499,1,8,0:0:0:0:
265,255,77582,1,0,0:0:0:0:
265,255,77748,1,8,0:0:0:0:
265,255,77914,1,0,0:0:0:0:
265,255,77996,1,0,0:0:0:0:
265,255,78079,1,8,0:0:0:0:
265,255,78162,1,0,0:0:0:0:
265,255,78245,1,8,0:0:0:0:
265,255,78328,1,8,0:0:0:0:
265,255,78411,1,0,0:0:0:0:
265,255,78577,1,8,0:0:0:0:
265,255,78742,1,0,0:0:0:0:
265,255,78825,1,0,0:0:0:0:
265,255,78908,1,8,0:0:0:0:
265,255,79074,1,0,0:0:0:0:
265,255,79240,1,8,0:0:0:0:
265,255,79322,1,8,0:0:0:0:
265,255,79405,1,0,0:0:0:0:
265,255,79488,1,0,0:0:0:0:
265,255,79571,1,8,0:0:0:0:
265,255,79654,1,8,0:0:0:0:
265,255,79737,1,0,0:0:0:0:
265,255,79903,1,8,0:0:0:0:
376,276,80068,1,0,0:0:0:0:
376,276,80151,1,0,0:0:0:0:
376,276,80234,1,8,0:0:0:0:
376,276,80400,1,0,0:0:0:0:
376,276,80565,1,8,0:0:0:0:
376,276,80648,1,8,0:0:0:0:
376,276,80731,1,0,0:0:0:0:
376,276,80814,1,8,0:0:0:0:
376,276,80897,1,0,0:0:0:0:
376,276,80980,1,0,0:0:0:0:
376,276,81063,1,8,0:0:0:0:
376,276,81228,1,0,0:0:0:0:
376,276,81394,1,8,0:0:0:0:
376,276,81477,1,8,0:0:0:0:
376,276,81560,1,0,0:0:0:0:
376,276,81726,1,8,0:0:0:0:
376,276,81891,1,0,0:0:0:0:
376,276,81974,1,0,0:0:0:0:
376,276,82057,1,8,0:0:0:0:
376,276,82140,1,8,0:0:0:0:
376,276,82223,1,0,0:0:0:0:
376,276,82306,1,0,0:0:0:0:
376,276,82389,1,8,0:0:0:0:
376,276,82554,1,0,0:0:0:0:
376,276,82720,1,8,0:0:0:0:
376,276,82803,1,0,0:0:0:0:
376,276,82886,1,8,0:0:0:0:
376,276,83052,1,0,0:0:0:0:
376,276,83217,1,8,0:0:0:0:
376,276,83300,1,8,0:0:0:0:
376,276,83383,1,0,0:0:0:0:
376,276,83466,1,0,0:0:0:0:
376,276,83549,1,8,0:0:0:0:
376,276,83632,1,0,0:0:0:0:
376,276,83715,1,8,0:0:0:0:
376,276,83798,1,8,0:0:0:0:
376,276,83880,1,4,0:0:0:0:
319,238,84212,1,4,0:0:0:0:
319,238,84543,1,4,0:0:0:0:
356,250,84875,1,0,0:0:0:0:
356,250,84958,1,0,0:0:0:0:
356,250,85041,1,0,0:0:0:0:
356,250,85124,1,0,0:0:0:0:
356,250,85206,1,8,0:0:0:0:
330,234,85372,1,0,0:0:0:0:
402,303,85538,1,8,0:0:0:0:
402,303,85621,1,0,0:0:0:0:
402,303,85704,1,8,0:0:0:0:
402,303,85786,1,8,0:0:0:0:
254,227,85869,1,0,0:0:0:0:
308,205,86035,1,8,0:0:0:0:
254,227,86201,1,8,0:0:0:0:
425,329,86284,1,8,0:0:0:0:
412,288,86367,1,0,0:0:0:0:
254,227,86532,1,0,0:0:0:0:
346,237,86864,1,8,0:0:0:0:
346,237,87195,1,0,0:0:0:0:
346,237,87361,1,8,0:0:0:0:
442,323,87527,1,0,0:0:0:0:
455,343,87610,1,0,0:0:0:0:
442,323,87693,1,8,0:0:0:0:
346,237,87858,1,0,0:0:0:0:
346,237,88190,1,8,0:0:0:0:
478,383,88521,1,0,0:0:0:0:
346,237,88687,1,8,0:0:0:0:
346,237,88853,1,0,0:0:0:0:
427,307,88936,1,0,0:0:0:0:
427,307,89019,1,8,0:0:0:0:
386,300,89184,1,0,0:0:0:0:
425,270,89350,1,8,0:0:0:0:
425,270,89433,1,8,0:0:0:0:
231,222,89516,1,0,0:0:0:0:
434,331,89599,1,0,0:0:0:0:
434,331,89682,1,8,0:0:0:0:
260,199,89847,1,8,0:0:0:0:
260,199,90013,1,0,0:0:0:0:
260,199,90179,1,8,0:0:0:0:
434,331,90262,1,8,0:0:0:0:
434,331,90344,1,0,0:0:0:0:
260,199,90510,1,8,0:0:0:0:
313,221,90676,1,0,0:0:0:0:
313,221,90759,1,8,0:0:0:0:
313,221,90842,1,0,0:0:0:0:
313,221,90925,1,0,0:0:0:0:
313,221,91007,1,8,0:0:0:0:
260,199,91173,1,0,0:0:0:0:
260,199,91339,1,0,0:0:0:0:
260,199,91505,1,8,0:0:0:0:
234,145,91588,1,0,0:0:0:0:
369,244,91670,1,8,0:0:0:0:
260,199,91836,1,0,0:0:0:0:
260,199,92168,1,8,0:0:0:0:
260,199,92499,1,0,0:0:0:0:
260,199,92665,1,8,0:0:0:0:
260,199,92831,1,0,0:0:0:0:
323,225,92914,1,0,0:0:0:0:
323,225,92996,1,8,0:0:0:0:
260,199,93162,1,0,0:0:0:0:
260,199,93494,1,8,0:0:0:0:
232,194,93825,1,0,0:0:0:0:
232,194,93991,1,8,0:0:0:0:
232,194,94157,1,0,0:0:0:0:
332,245,94240,1,0,0:0:0:0:
332,245,94322,1,8,0:0:0:0:
232,194,94488,1,0,0:0:0:0:
232,194,94820,1,8,0:0:0:0:
232,194,95151,1,8,0:0:0:0:
256,207,95262,1,0,0:0:0:0:
275,275,95372,1,0,0:0:0:0:
232,194,95483,1,8,0:0:0:0:
329,163,95593,1,0,0:0:0:0:
329,163,95704,1,0,0:0:0:0:
232,194,95814,1,8,0:0:0:0:
268,180,95980,1,0,0:0:0:0:
232,194,96146,1,8,0:0:0:0:
397,247,96311,1,0,0:0:0:0:
232,194,96477,1,8,0:0:0:0:
322,226,96588,1,8,0:0:0:0:
322,226,96698,1,0,0:0:0:0:
232,194,96809,1,0,0:0:0:0:
291,216,96919,1,8,0:0:0:0:
291,216,97030,1,8,0:0:0:0:
232,194,97140,1,0,0:0:0:0:
291,216,97306,1,8,0:0:0:0:
232,194,97472,1,0,0:0:0:0:
406,277,97803,1,8,0:0:0:0:
406,277,97886,1,0,0:0:0:0:
406,277,97969,1,0,0:0:0:0:
406,277,98135,1,8,0:0:0:0:
406,277,98300,1,0,0:0:0:0:
232,194,98466,1,8,0:0:0:0:
252,169,98549,1,8,0:0:0:0:
401,280,98632,1,0,0:0:0:0:
232,194,98798,1,8,0:0:0:0:
401,280,98963,1,0,0:0:0:0:
322,253,99129,1,8,0:0:0:0:
322,253,99240,1,8,0:0:0:0:
322,253,99350,1,0,0:0:0:0:
322,253,99461,1,0,0:0:0:0:
322,253,99571,1,8,0:0:0:0:
322,253,99682,1,8,0:0:0:0:
232,194,99792,1,0,0:0:0:0:
327,212,99958,1,8,0:0:0:0:
232,194,100124,1,0,0:0:0:0:
383,292,100455,1,0,0:0:0:0:
383,292,100565,1,0,0:0:0:0:
383,292,100676,1,8,0:0:0:0:
383,292,100786,1,8,0:0:0:0:
383,292,100897,1,0,0:0:0:0:
383,292,101007,1,0,0:0:0:0:
287,194,101118,1,8,0:0:0:0:
287,194,101228,1,8,0:0:0:0:
287,194,101339,1,8,0:0:0:0:
287,194,101449,1,0,0:0:0:0:
287,194,101560,1,0,0:0:0:0:
287,194,101670,1,0,0:0:0:0:
287,194,101781,1,8,0:0:0:0:
287,194,101891,1,8,0:0:0:0:
287,194,102002,1,8,0:0:0:0:
287,194,102112,1,0,0:0:0:0:
287,194,102223,1,0,0:0:0:0:
287,194,102333,1,0,0:0:0:0:
232,194,102444,1,8,0:0:0:0:
311,175,102610,1,0,0:0:0:0:
232,194,102775,1,8,0:0:0:0:
232,194,103107,1,0,0:0:0:0:
232,194,103273,1,0,0:0:0:0:
267,200,103438,1,8,0:0:0:0:
346,276,103604,1,0,0:0:0:0:
232,194,103770,1,8,0:0:0:0:
365,265,103853,1,8,0:0:0:0:
232,194,103936,1,0,0:0:0:0:
232,194,104101,1,8,0:0:0:0:
232,194,104433,1,0,0:0:0:0:
232,194,104599,1,8,0:0:0:0:
328,210,104682,1,8,0:0:0:0:
232,194,104764,1,0,0:0:0:0:
413,295,104930,1,8,0:0:0:0:
310,225,105106,1,0,0:0:0:0:
310,225,105437,1,0,0:0:0:0:
310,225,105768,1,0,0:0:0:0:
310,225,106100,1,0,0:0:0:0:
310,225,106183,1,0,0:0:0:0:
310,225,106266,1,0,0:0:0:0:
310,225,106349,1,0,0:0:0:0:
294,213,106431,1,8,0:0:0:0:
295,232,106762,1,0,0:0:0:0:
295,232,106928,1,8,0:0:0:0:
253,204,107259,1,0,0:0:0:0:
253,204,107425,1,0,0:0:0:0:
300,259,107756,1,8,0:0:0:0:
300,259,108088,1,0,0:0:0:0:
300,259,108254,1,8,0:0:0:0:
300,259,108419,1,0,0:0:0:0:
359,271,108585,1,8,0:0:0:0:
359,271,108751,1,0,0:0:0:0:
335,286,109082,1,8,0:0:0:0:
369,291,109414,1,0,0:0:0:0:
370,291,109580,1,8,0:0:0:0:
376,284,109745,1,8,0:0:0:0:
376,284,109828,1,0,0:0:0:0:
376,284,109911,1,0,0:0:0:0:
376,284,110077,1,8,0:0:0:0:
388,298,110243,1,0,0:0:0:0:
284,213,110298,1,0,0:0:0:0:
388,298,110353,1,0,0:0:0:0:
388,298,110408,1,8,0:0:0:0:
246,237,110740,1,0,0:0:0:0:
246,237,110906,1,8,0:0:0:0:
310,264,111237,1,0,0:0:0:0:
371,291,111403,1,8,0:0:0:0:
348,300,111569,1,0,0:0:0:0:
304,285,111624,1,0,0:0:0:0:
304,285,111679,1,0,0:0:0:0:
304,285,111734,1,8,0:0:0:0:
426,298,112066,1,8,0:0:0:0:
392,288,112232,1,0,0:0:0:0:
426,298,112563,1,8,0:0:0:0:
426,298,112729,1,0,0:0:0:0:
426,298,112895,1,8,0:0:0:0:
276,254,112977,1,8,0:0:0:0:
276,254,113060,1,0,0:0:0:0:
402,285,113226,1,8,0:0:0:0:
402,285,113392,1,0,0:0:0:0:
442,339,113558,1,8,0:0:0:0:
291,252,113723,1,8,0:0:0:0:
266,158,113806,1,0,0:0:0:0:
362,247,113889,1,0,0:0:0:0:
392,250,114055,1,8,0:0:0:0:
404,257,114138,1,0,0:0:0:0:
400,255,114221,1,8,0:0:0:0:
392,250,114303,1,0,0:0:0:0:
360,266,114386,1,8,0:0:0:0:
390,274,114718,1,8,0:0:0:0:
414,258,114884,1,0,0:0:0:0:
260,283,115215,1,8,0:0:0:0:
260,283,115381,1,0,0:0:0:0:
236,254,115547,1,0,0:0:0:0:
236,254,115602,1,0,0:0:0:0:
236,254,115657,1,0,0:0:0:0:
236,254,115712,1,8,0:0:0:0:
211,211,115878,1,0,0:0:0:0:
272,254,116044,1,8,0:0:0:0:
329,243,116210,1,0,0:0:0:0:
355,239,116375,1,8,0:0:0:0:
363,263,116458,1,0,0:0:0:0:
355,239,116541,1,8,0:0:0:0:
319,243,116707,1,0,0:0:0:0:
351,243,116872,1,8,0:0:0:0:
351,243,116928,1,8,0:0:0:0:
351,243,116983,1,8,0:0:0:0:
351,243,117038,1,0,0:0:0:0:
357,259,117370,1,0,0:0:0:0:
357,259,117535,1,8,0:0:0:0:
418,315,117867,1,0,0:0:0:0:
418,315,118033,1,0,0:0:0:0:
423,272,118198,1,8,0:0:0:0:
423,272,118254,1,8,0:0:0:0:
423,272,118309,1,8,0:0:0:0:
437,278,118364,1,0,0:0:0:0:
404,320,118861,1,8,0:0:0:0:
387,310,119110,1,0,0:0:0:0:
238,241,119193,1,0,0:0:0:0:
211,217,119442,1,8,0:0:0:0:
211,217,119524,1,8,0:0:0:0:
211,217,119607,1,8,0:0:0:0:
211,217,119690,1,0,0:0:0:0:
273,199,120022,1,0,0:0:0:0:
321,245,120187,1,0,0:0:0:0:
244,223,120353,1,8,0:0:0:0:
365,267,120519,1,8,0:0:0:0:
365,267,120685,1,0,0:0:0:0:
365,267,120850,1,0,0:0:0:0:
361,243,120906,1,0,0:0:0:0:
361,243,120961,1,0,0:0:0:0:
365,267,121016,1,8,0:0:0:0:
404,266,121513,1,8,0:0:0:0:
422,305,121679,1,0,0:0:0:0:
422,305,121762,1,0,0:0:0:0:
323,237,122093,1,8,0:0:0:0:
368,263,122176,1,8,0:0:0:0:
368,263,122259,1,8,0:0:0:0:
368,263,122342,1,0,0:0:0:0:
386,284,122674,1,0,0:0:0:0:
386,284,122839,1,8,0:0:0:0:
398,284,123005,1,0,0:0:0:0:
398,284,123171,1,0,0:0:0:0:
378,281,123337,1,8,0:0:0:0:
378,281,123502,1,0,0:0:0:0:
422,303,123668,1,8,0:0:0:0:
411,278,124165,1,0,0:0:0:0:
426,317,124331,1,8,0:0:0:0:
426,317,124414,1,8,0:0:0:0:
439,323,124828,1,0,0:0:0:0:
439,323,124994,1,8,0:0:0:0:
397,250,125491,1,0,0:0:0:0:
397,290,125657,1,8,0:0:0:0:
397,290,125740,1,8,0:0:0:0:
273,238,125989,1,0,0:0:0:0:
427,262,126154,1,0,0:0:0:0:
427,262,126210,1,0,0:0:0:0:
427,262,126265,1,0,0:0:0:0:
427,262,126320,1,8,0:0:0:0:
404,273,126817,1,8,0:0:0:0:
289,218,127314,1,0,0:0:0:0:
391,245,127397,1,8,0:0:0:0:
391,245,127480,1,8,0:0:0:0:
391,245,127563,1,8,0:0:0:0:
388,234,127646,1,0,0:0:0:0:
266,241,127977,1,0,0:0:0:0:
266,241,128309,1,0,0:0:0:0:
266,241,128640,1,0,0:0:0:0:
324,193,128806,1,8,0:0:0:0:
266,241,128972,1,0,0:0:0:0:
314,214,129138,1,0,0:0:0:0:
318,257,129303,1,8,0:0:0:0:
360,263,129469,1,0,0:0:0:0:
318,257,129635,1,8,0:0:0:0:
375,286,129718,1,0,0:0:0:0:
375,286,129801,1,8,0:0:0:0:
392,306,129966,1,0,0:0:0:0:
299,242,130298,1,0,0:0:0:0:
407,275,130464,1,8,0:0:0:0:
416,321,130629,1,0,0:0:0:0:
373,302,130795,1,8,0:0:0:0:
416,321,130961,1,0,0:0:0:0:
407,276,131127,1,8,0:0:0:0:
409,300,131292,1,0,0:0:0:0:
409,300,131624,1,0,0:0:0:0:
402,265,131790,1,8,0:0:0:0:
420,291,131955,1,0,0:0:0:0:
396,256,132121,1,0,0:0:0:0:
420,291,132287,1,8,0:0:0:0:
421,292,132370,1,0,0:0:0:0:
421,292,132453,1,8,0:0:0:0:
420,291,132618,1,0,0:0:0:0:
420,291,132950,1,0,0:0:0:0:
434,298,133116,1,8,0:0:0:0:
411,303,133281,1,0,0:0:0:0:
394,237,133447,1,8,0:0:0:0:
392,266,133613,1,0,0:0:0:0:
426,308,133779,1,8,0:0:0:0:
374,242,133944,1,0,0:0:0:0:
374,242,134276,1,8,0:0:0:0:
420,277,134442,1,0,0:0:0:0:
374,242,134607,1,8,0:0:0:0:
435,325,134773,1,8,0:0:0:0:
233,195,134939,1,0,0:0:0:0:
420,277,135105,1,0,0:0:0:0:
233,195,135270,1,8,0:0:0:0:
233,195,135602,1,0,0:0:0:0:
409,275,135768,1,8,0:0:0:0:
233,195,135933,1,0,0:0:0:0:
425,294,136099,1,8,0:0:0:0:
233,195,136265,1,0,0:0:0:0:
409,275,136430,1,8,0:0:0:0:
233,195,136596,1,0,0:0:0:0:
233,195,136928,1,8,0:0:0:0:
388,265,137093,1,0,0:0:0:0:
233,195,137259,1,8,0:0:0:0:
416,314,137425,1,8,0:0:0:0:
233,195,137591,1,8,0:0:0:0:
379,240,137756,1,0,0:0:0:0:
281,177,137922,1,8,0:0:0:0:
283,193,138005,1,8,0:0:0:0:
283,193,138088,1,8,0:0:0:0:
283,193,138171,1,8,0:0:0:0:
279,187,138254,1,4,0:0:0:0:
281,177,138419,1,0,0:0:0:0:
281,177,138585,1,8,0:0:0:0:
281,177,138751,1,0,0:0:0:0:
332,206,138834,1,0,0:0:0:0:
281,177,138917,1,8,0:0:0:0:
279,179,139000,1,0,0:0:0:0:
279,179,139082,1,8,0:0:0:0:
279,179,139248,1,0,0:0:0:0:
281,177,139414,1,0,0:0:0:0:
281,177,139580,1,8,0:0:0:0:
281,177,139663,1,8,0:0:0:0:
281,177,139745,1,0,0:0:0:0:
281,177,139828,1,0,0:0:0:0:
281,177,139911,1,8,0:0:0:0:
279,179,140077,1,0,0:0:0:0:
279,179,140160,1,8,0:0:0:0:
279,179,140243,1,0,0:0:0:0:
281,177,140326,1,0,0:0:0:0:
281,177,140408,1,8,0:0:0:0:
281,177,140491,1,8,0:0:0:0:
281,177,140574,1,0,0:0:0:0:
281,177,140740,1,8,0:0:0:0:
281,177,140906,1,0,0:0:0:0:
279,179,140989,1,8,0:0:0:0:
279,179,141071,1,0,0:0:0:0:
279,179,141154,1,0,0:0:0:0:
279,179,141237,1,8,0:0:0:0:
281,177,141403,1,0,0:0:0:0:
281,177,141486,1,0,0:0:0:0:
281,177,141569,1,8,0:0:0:0:
281,177,141651,1,8,0:0:0:0:
281,177,141734,1,0,0:0:0:0:
281,177,141817,1,0,0:0:0:0:
281,177,141900,1,8,0:0:0:0:
279,179,142066,1,0,0:0:0:0:
279,179,142232,1,8,0:0:0:0:
281,177,142314,1,0,0:0:0:0:
281,177,142397,1,0,0:0:0:0:
281,177,142480,1,0,0:0:0:0:
281,177,142563,1,8,0:0:0:0:
281,177,142729,1,0,0:0:0:0:
281,177,142812,1,0,0:0:0:0:
281,177,142895,1,8,0:0:0:0:
279,179,142977,1,8,0:0:0:0:
279,179,143060,1,0,0:0:0:0:
279,179,143143,1,8,0:0:0:0:
279,179,143226,1,0,0:0:0:0:
281,177,143392,1,8,0:0:0:0:
281,177,143558,1,0,0:0:0:0:
281,177,143640,1,0,0:0:0:0:
281,177,143723,1,8,0:0:0:0:
281,177,143806,1,8,0:0:0:0:
281,177,143889,1,0,0:0:0:0:
279,179,144055,1,8,0:0:0:0:
305,171,144138,1,0,0:0:0:0:
279,179,144221,1,8,0:0:0:0:
281,177,144303,1,8,0:0:0:0:
281,177,144386,1,0,0:0:0:0:
281,177,144469,1,0,0:0:0:0:
281,177,144552,1,8,0:0:0:0:
281,177,144718,1,0,0:0:0:0:
372,309,144884,1,8,0:0:0:0:
372,309,144966,1,8,0:0:0:0:
372,309,145049,1,0,0:0:0:0:
372,309,145132,1,0,0:0:0:0:
372,309,145215,1,8,0:0:0:0:
372,309,145381,1,0,0:0:0:0:
372,309,145464,1,0,0:0:0:0:
372,309,145547,1,8,0:0:0:0:
372,309,145629,1,8,0:0:0:0:
372,309,145712,1,0,0:0:0:0:
372,309,145795,1,0,0:0:0:0:
372,309,145878,1,8,0:0:0:0:
372,309,146044,1,0,0:0:0:0:
372,309,146210,1,8,0:0:0:0:
372,309,146292,1,8,0:0:0:0:
372,309,146375,1,0,0:0:0:0:
372,309,146458,1,8,0:0:0:0:
372,309,146541,1,0,0:0:0:0:
372,309,146707,1,8,0:0:0:0:
372,309,146790,1,8,0:0:0:0:
372,309,146872,1,0,0:0:0:0:
372,309,146955,1,8,0:0:0:0:
372,309,147038,1,0,0:0:0:0:
372,309,147121,1,0,0:0:0:0:
372,309,147204,1,8,0:0:0:0:
372,309,147370,1,0,0:0:0:0:
372,309,147535,1,8,0:0:0:0:
372,309,147618,1,8,0:0:0:0:
372,309,147701,1,0,0:0:0:0:
372,309,147784,1,0,0:0:0:0:
372,309,147867,1,0,0:0:0:0:
372,309,147950,1,0,0:0:0:0:
372,309,148033,1,8,0:0:0:0:
389,281,148198,1,0,0:0:0:0:
389,281,148281,1,0,0:0:0:0:
389,281,148364,1,8,0:0:0:0:
372,309,148530,1,0,0:0:0:0:
372,309,148696,1,0,0:0:0:0:
372,309,148861,1,8,0:0:0:0:
352,247,149027,1,8,0:0:0:0:
352,247,149193,1,0,0:0:0:0:
352,247,149276,1,0,0:0:0:0:
352,247,149359,1,8,0:0:0:0:
352,247,149524,1,0,0:0:0:0:
352,247,149607,1,8,0:0:0:0:
352,247,149690,1,0,0:0:0:0:
352,247,149773,1,0,0:0:0:0:
352,247,149856,1,8,0:0:0:0:
352,247,149939,1,8,0:0:0:0:
352,247,150022,1,0,0:0:0:0:
352,247,150187,1,8,0:0:0:0:
352,247,150353,1,0,0:0:0:0:
352,247,150436,1,0,0:0:0:0:
352,247,150519,1,8,0:0:0:0:
352,247,150685,1,0,0:0:0:0:
352,247,150850,1,8,0:0:0:0:
352,247,150933,1,8,0:0:0:0:
352,247,151016,1,0,0:0:0:0:
352,247,151099,1,0,0:0:0:0:
352,247,151182,1,8,0:0:0:0:
352,247,151265,1,0,0:0:0:0:
352,247,151348,1,8,0:0:0:0:
352,247,151513,1,0,0:0:0:0:
352,247,151679,1,8,0:0:0:0:
352,247,151762,1,8,0:0:0:0:
352,247,151845,1,0,0:0:0:0:
352,247,152011,1,8,0:0:0:0:
352,247,152176,1,0,0:0:0:0:
352,247,152259,1,0,0:0:0:0:
352,247,152342,1,8,0:0:0:0:
352,247,152425,1,0,0:0:0:0:
352,247,152508,1,8,0:0:0:0:
352,247,152591,1,8,0:0:0:0:
352,247,152674,1,0,0:0:0:0:
352,247,152839,1,8,0:0:0:0:
352,247,153005,1,0,0:0:0:0:
352,247,153088,1,0,0:0:0:0:
352,247,153171,1,8,0:0:0:0:
352,247,153337,1,0,0:0:0:0:
352,247,153502,1,8,0:0:0:0:
352,247,153585,1,0,0:0:0:0:
352,247,153668,1,8,0:0:0:0:
352,247,153751,1,8,0:0:0:0:
352,247,153834,1,0,0:0:0:0:
352,247,153917,1,0,0:0:0:0:
352,247,154000,1,8,0:0:0:0:
352,247,154165,1,0,0:0:0:0:
352,247,154331,1,8,0:0:0:0:
352,247,154414,1,0,0:0:0:0:
352,247,154497,1,8,0:0:0:0:
352,247,154663,1,0,0:0:0:0:
352,247,154828,1,8,0:0:0:0:
352,247,154911,1,8,0:0:0:0:
352,247,154994,1,0,0:0:0:0:
352,247,155077,1,0,0:0:0:0:
352,247,155160,1,8,0:0:0:0:
352,247,155243,1,8,0:0:0:0:
352,247,155326,1,0,0:0:0:0:
352,247,155491,1,8,0:0:0:0:
352,247,155657,1,0,0:0:0:0:
352,247,155740,1,0,0:0:0:0:
352,247,155823,1,8,0:0:0:0:
352,247,155989,1,0,0:0:0:0:
352,247,156154,1,8,0:0:0:0:
352,247,156237,1,0,0:0:0:0:
352,247,156320,1,0,0:0:0:0:
352,247,156403,1,8,0:0:0:0:
352,247,156486,1,0,0:0:0:0:
352,247,156569,1,0,0:0:0:0:
352,247,156651,1,8,0:0:0:0:
352,247,156817,1,0,0:0:0:0:
352,247,156983,1,8,0:0:0:0:
352,247,157066,1,8,0:0:0:0:
352,247,157149,1,0,0:0:0:0:
352,247,157314,1,0,0:0:0:0:
352,247,157480,1,8,0:0:0:0:
352,247,157563,1,8,0:0:0:0:
352,247,157646,1,0,0:0:0:0:
352,247,157729,1,0,0:0:0:0:
352,247,157812,1,8,0:0:0:0:
352,247,157895,1,0,0:0:0:0:
352,247,157977,1,8,0:0:0:0:
352,247,158060,1,8,0:0:0:0:
352,247,158143,1,4,0:0:0:0:
373,292,158475,1,4,0:0:0:0:
373,292,158806,1,4,0:0:0:0:
373,292,159138,1,0,0:0:0:0:
373,292,159221,1,0,0:0:0:0:
373,292,159303,1,0,0:0:0:0:
373,292,159386,1,0,0:0:0:0:
373,292,159469,1,8,0:0:0:0:
