osu file format v14

[General]
AudioFilename: audio.mp3
AudioLeadIn: 0
PreviewTime: -1
Countdown: 1
SampleSet: Soft
StackLeniency: 0.7
Mode: 0
LetterboxInBreaks: 0
WidescreenStoryboard: 0

[Editor]
Bookmarks: 49569,68150,71246,111504,142472,148666
DistanceSpacing: 2.6
BeatDivisor: 4
GridSize: 4
TimelineZoom: 1

[Metadata]
Title:XO Tour Llif3
TitleUnicode:XO Tour Llif3
Artist:Lil Uzi Vert
ArtistUnicode:Lil Uzi Vert
Creator:TheDustOfTimes
Version:On Tour
Source:Luv Is Rage 2
Tags:Tour Life Lil Uzi Rap
BeatmapID:1648313
BeatmapSetID:782945

[Difficulty]
HPDrainRate:5
CircleSize:3.5
OverallDifficulty:7.5
ApproachRate:8
SliderMultiplier:1.4
SliderTickRate:1

[Events]
//Background and Video events
0,0,"uzii.jpg",0,0
//Break Periods
//Storyboard Layer 0 (Background)
//Storyboard Layer 1 (Fail)
//Storyboard Layer 2 (Pass)
//Storyboard Layer 3 (Foreground)
//Storyboard Sound Samples

[TimingPoints]
21,387.096774193548,4,2,0,100,1,0
12408,-200,4,2,0,100,0,0
15504,-133.333333333333,4,2,0,100,0,0
25956,-100,4,2,0,100,0,0
61956,-57.1428571428571,4,2,0,100,0,1
63117,-100,4,2,0,100,0,1
66601,-57.1428571428571,4,2,0,100,0,1
75891,-100,4,2,0,100,0,0
77827,-200,4,2,0,100,0,0
80537,-200,4,2,0,100,0,1
86730,-200,4,2,0,100,0,0
89827,-117.647058823529,4,2,0,100,0,0
92924,-149.253731343284,4,2,0,100,0,0
94472,-100,4,2,0,100,0,0
100279,-100,4,2,0,100,0,0
124666,-62.5,4,2,0,100,0,0
126214,-100,4,2,0,100,0,0
129698,-200,4,2,0,100,0,0
131246,-100,4,2,0,100,0,0
131633,-100,4,2,0,100,0,1
135504,-100,4,2,0,100,0,1
141698,-200,4,2,0,100,0,1
142468,-133.333333333333,4,2,0,100,0,0
148666,-100,4,2,0,100,0,0
158730,-100,4,2,0,100,0,0
165698,-100,4,2,0,100,0,0

[HitObjects]
144,76,21,5,0,0:0:0:0:
144,76,408,1,0,2:0:0:0:
144,76,795,1,2,2:0:0:0:
220,156,1569,5,0,2:0:0:0:
220,156,1956,1,2,2:0:0:0:
380,324,3117,5,0,2:0:0:0:
380,324,3504,1,0,2:0:0:0:
380,324,3891,1,2,2:0:0:0:
292,232,4666,5,0,2:0:0:0:
292,232,5053,1,2,2:0:0:0:
384,80,6214,5,0,2:0:0:0:
384,80,6601,1,0,2:0:0:0:
384,80,6988,1,2,2:0:0:0:
296,156,7762,5,0,2:0:0:0:
296,156,8150,1,2,2:0:0:0:
140,312,9311,5,0,2:0:0:0:
140,312,9698,1,0,2:0:0:0:
140,312,10085,1,2,2:0:0:0:
220,228,10859,5,0,2:0:0:0:
220,228,11246,1,2,2:0:0:0:
256,192,12020,5,0,2:0:0:0:
108,48,12408,6,0,P|156:110|168:198,1,140,2|2,2:0|2:0,2:0:0:0:
256,268,13569,1,0,0:0:0:0:
341,168,13956,2,0,P|359:101|404:48,1,140,2|2,2:0|2:0,2:0:0:0:
256,52,15117,5,0,0:0:0:0:
256,256,15504,2,0,L|256:44,1,210.000008010865,2|2,2:0|2:0,2:0:0:0:
68,304,16666,5,0,0:0:0:0:
136,232,17053,2,0,B|136:96|136:96|216:48,1,210.000008010865,2|2,2:0|2:0,2:0:0:0:
256,132,18214,1,0,0:0:0:0:
312,57,18601,2,0,B|376:96|376:96|376:232,1,210.000008010865,2|2,2:0|2:0,2:0:0:0:
444,304,19762,1,0,0:0:0:0:
360,312,20150,6,0,P|304:248|296:116,1,210.000008010865,2|2,2:0|2:0,2:0:0:0:
256,248,21311,1,0,0:0:0:0:
219,127,21698,2,0,P|215:230|152:312,1,210.000008010865,2|2,2:0|2:0,2:0:0:0:
72,192,22859,1,0,0:0:0:0:
152,72,23246,2,0,P|215:153|328:152,1,210.000008010865,2|2,2:0|2:0,2:0:0:0:
424,232,24408,1,0,0:0:0:0:
205,323,24795,6,0,B|144:305|144:305|121:272,1,105.000004005432,2|0,2:0|2:0,2:0:0:0:
112,160,25569,1,2,0:0:0:0:
184,79,25956,2,0,P|247:89|325:153,1,140,0|2,2:0|2:0,2:0:0:0:
396,78,26730,2,0,P|419:143|387:225,1,140,0|2,0:0|0:0,0:0:0:0:
450,297,27504,1,0,0:0:0:0:
336,320,27891,5,2,2:0:0:0:
200,284,28279,1,0,2:0:0:0:
240,152,28666,2,0,L|184:88,2,70,2|0|0,0:0|0:0|0:0,0:0:0:0:
368,120,29440,1,2,2:0:0:0:
408,256,29827,1,0,2:0:0:0:
472,120,30214,2,0,P|412:82|340:98,1,140,2|0,0:0|0:0,0:0:0:0:
224,82,30988,5,2,2:0:0:0:
110,89,31375,1,0,2:0:0:0:
158,193,31762,1,2,0:0:0:0:
272,183,32150,5,0,2:0:0:0:
293,296,32537,1,2,2:0:0:0:
181,274,32924,1,0,0:0:0:0:
391,215,33311,2,0,B|371:138|305:107,1,140,2|0,0:0|0:0,0:0:0:0:
176,80,34085,5,2,0:0:0:0:
200,56,34472,1,0,0:0:0:0:
372,52,34859,5,2,0:0:0:0:
399,72,35246,1,0,0:0:0:0:
388,212,35633,5,2,0:0:0:0:
358,196,36020,2,0,P|290:195|239:137,1,140,0|2,0:0|0:0,0:0:0:0:
285,75,36795,6,0,P|205:77|154:138,1,140,0|2,0:0|0:0,0:0:0:0:
81,232,37569,1,0,0:0:0:0:
222,278,37956,2,0,P|286:304|379:298,1,140,2|0,0:0|0:0,0:0:0:0:
413,252,38730,5,2,0:0:0:0:
456,203,38924,1,0,0:0:0:0:
463,118,39117,1,0,0:0:0:0:
408,36,39311,1,0,0:0:0:0:
308,11,39504,1,2,0:0:0:0:
166,69,39891,5,0,0:0:0:0:
139,91,40279,2,0,L|46:65,4,70,2|0|0|0|2,0:0|0:0|0:0|0:0|0:0,0:0:0:0:
195,199,41440,5,0,0:0:0:0:
398,332,41827,5,2,0:0:0:0:
384,195,42020,1,0,0:0:0:0:
305,310,42214,1,0,0:0:0:0:
437,269,42408,1,0,0:0:0:0:
303,230,42601,1,2,0:0:0:0:
332,126,42988,5,0,0:0:0:0:
217,35,43375,5,2,0:0:0:0:
134,65,43569,1,0,0:0:0:0:
139,150,43762,1,0,0:0:0:0:
219,173,43956,1,0,0:0:0:0:
268,104,44150,1,2,0:0:0:0:
139,150,44537,5,0,0:0:0:0:
261,301,44924,6,0,P|221:298|177:261,1,70,2|0,0:0|0:0,0:0:0:0:
221,182,45311,2,0,P|263:181|302:217,1,70
241,241,45698,1,2,0:0:0:0:
407,202,46085,5,0,0:0:0:0:
339,103,46472,2,0,L|359:34,4,70,2|0|0|0|2,0:0|0:0|0:0|0:0|0:0,0:0:0:0:
238,78,47633,1,0,0:0:0:0:
100,120,48021,5,2,0:0:0:0:
116,252,48215,1,0,0:0:0:0:
159,303,48409,1,0,0:0:0:0:
227,303,48602,1,0,0:0:0:0:
348,200,48795,2,0,L|202:158,1,140,2|0,0:0|0:0,0:0:0:0:
150,36,49569,5,2,0:0:0:0:
276,42,49956,1,0,0:0:0:0:
207,144,50343,2,0,B|287:167|256:192|352:219,1,140,2|0,0:0|0:0,0:0:0:0:
423,160,51117,2,0,L|444:87,2,70,2|0|0,0:0|0:0|0:0,0:0:0:0:
328,211,51891,5,2,0:0:0:0:
247,48,52279,5,0,0:0:0:0:
146,52,52472,1,0,0:0:0:0:
117,152,52666,2,0,L|252:190,1,140,2|0,0:0|0:0,0:0:0:0:
348,218,53440,2,0,B|327:291|327:291|259:309,1,140,2|0,0:0|0:0,0:0:0:0:
100,208,54214,5,2,0:0:0:0:
168,108,54408,1,0,0:0:0:0:
216,268,54601,1,0,0:0:0:0:
328,48,54795,1,0,0:0:0:0:
472,253,54988,1,2,0:0:0:0:
383,305,55375,5,0,0:0:0:0:
448,153,55762,2,0,P|433:78|360:41,1,140,2|0,0:0|0:0,0:0:0:0:
277,36,56537,2,0,P|209:43|165:95,1,140,2|0,0:0|0:0,0:0:0:0:
78,81,57311,5,2,0:0:0:0:
224,163,57504,1,0,0:0:0:0:
125,222,57698,1,0,0:0:0:0:
195,264,57891,1,0,0:0:0:0:
142,321,58085,1,2,0:0:0:0:
321,347,58472,5,0,0:0:0:0:
426,209,58859,1,2,0:0:0:0:
373,126,59053,2,0,L|283:150,3,70,0|0|0|2,0:0|0:0|0:0|0:0,0:0:0:0:
241,15,60020,1,0,0:0:0:0:
20,28,60408,5,2,0:0:0:0:
44,78,60601,1,0,0:0:0:0:
65,128,60795,1,0,0:0:0:0:
119,111,60988,1,0,0:0:0:0:
169,87,61182,1,2,0:0:0:0:
233,266,61569,1,0,0:0:0:0:
408,184,61956,6,0,P|425:140|406:71,2,61.2500005841255,2|0|0,0:0|0:0|0:0,0:0:0:0:
373,188,62246,1,0,0:0:0:0:
324,184,62343,2,0,P|307:227|326:296,2,61.2500005841255,2|0|0,0:0|0:0|0:0,0:0:0:0:
297,48,62730,1,2,0:0:0:0:
167,89,63117,1,0,0:0:0:0:
88,233,63504,6,0,P|152:269|252:253,1,140,2|0,0:0|0:0,0:0:0:0:
302,227,64279,1,2,0:0:0:0:
352,313,64666,1,0,0:0:0:0:
432,228,65053,5,2,0:0:0:0:
344,156,65440,1,0,0:0:0:0:
272,240,65827,1,2,0:0:0:0:
180,176,66214,1,0,0:0:0:0:
268,92,66601,6,0,P|220:64|144:84,4,81.6666674455007,2|0|0|0|0,0:0|0:0|0:0|0:0|0:0,0:0:0:0:
352,36,67375,1,2,0:0:0:0:
392,168,67762,1,0,0:0:0:0:
240,284,68150,6,0,P|160:256|124:112,1,245.000002336502,2|0,0:0|0:0,0:0:0:0:
220,168,68924,2,0,P|300:196|336:340,1,245.000002336502,2|0,0:0|0:0,0:0:0:0:
120,240,69698,6,0,B|172:132|172:132|308:120,1,245.000002336502,2|0,0:0|0:0,0:0:0:0:
252,216,70472,2,0,B|199:324|199:324|75:334,1,245.000002336502,2|0,0:0|0:0,0:0:0:0:
184,216,71246,5,2,0:0:0:0:
256,192,71633,12,0,72795,0:0:0:0:
256,192,72891,12,0,74730,0:0:0:0:
116,100,75891,6,0,P|188:84|272:108,1,140,2|0,0:0|0:0,0:0:0:0:
196,176,76666,2,0,P|264:189|331:173,1,140,2|0,0:0|0:0,0:0:0:0:
392,88,77440,1,2,0:0:0:0:
412,252,77827,6,0,P|342:275|260:276,1,140
240,205,78988,1,2,0:0:0:0:
135,184,79182,1,0,0:0:0:0:
126,78,79375,1,0,0:0:0:0:
216,29,79569,1,0,0:0:0:0:
336,112,79762,5,2,0:0:0:0:
172,272,80150,1,0,0:0:0:0:
116,160,80537,5,2,0:0:0:0:
138,74,80730,1,0,0:0:0:0:
211,118,80924,1,0,0:0:0:0:
274,171,81117,5,0,0:0:0:0:
188,204,81311,1,2,0:0:0:0:
103,237,81504,1,0,0:0:0:0:
156,298,81698,5,0,0:0:0:0:
213,358,81891,1,0,0:0:0:0:
288,329,82085,1,2,0:0:0:0:
370,298,82279,5,0,0:0:0:0:
380,212,82472,1,0,0:0:0:0:
394,126,82666,1,0,0:0:0:0:
317,159,82859,5,2,0:0:0:0:
319,77,83053,1,0,0:0:0:0:
391,41,83246,1,0,0:0:0:0:
464,102,83633,6,0,P|424:130|400:154,1,70,2|0,0:0|0:0,0:0:0:0:
468,198,84408,2,0,P|442:221|413:240,1,70,2|0,0:0|0:0,0:0:0:0:
352,298,85182,6,0,P|380:338|404:362,1,70,2|0,0:0|0:0,0:0:0:0:
448,294,85956,2,0,P|472:320|491:349,1,70,2|0,0:0|0:0,0:0:0:0:
432,216,86730,5,2,0:0:0:0:
348,164,87117,6,0,P|280:183|226:147,1,140
167,66,88279,5,2,0:0:0:0:
259,126,88666,1,0,0:0:0:0:
167,174,89053,1,2,0:0:0:0:
83,126,89440,1,0,0:0:0:0:
79,50,89827,2,0,P|7:122|91:198,1,236.250009012223,2|2,0:0|0:0,0:0:0:0:
145,298,90988,5,0,0:0:0:0:
208,216,91376,5,2,0:0:0:0:
256,84,91569,1,0,0:0:0:0:
304,216,91763,1,0,0:0:0:0:
188,140,91956,1,0,0:0:0:0:
328,140,92150,1,2,0:0:0:0:
420,224,92537,5,0,0:0:0:0:
284,304,92730,1,0,0:0:0:0:
324,364,92924,2,0,B|388:316|388:316|316:208|316:208|376:164,1,280,2|0,0:0|0:0,0:0:0:0:
200,72,94472,6,0,P|144:108|124:176,1,140,2|0,0:0|0:0,0:0:0:0:
123,175,95053,1,0,0:0:0:0:
123,175,95247,1,2,0:0:0:0:
180,314,95440,1,0,0:0:0:0:
324,284,95634,1,0,0:0:0:0:
324,284,95827,1,0,0:0:0:0:
324,284,96021,2,0,P|384:224|380:172,2,140,2|0|2,0:0|0:0|0:0,0:0:0:0:
168,365,97182,5,0,0:0:0:0:
80,365,97376,1,0,0:0:0:0:
8,313,97569,1,2,0:0:0:0:
80,265,97763,1,0,0:0:0:0:
168,265,97956,1,0,0:0:0:0:
236,313,98150,1,0,0:0:0:0:
296,377,98343,2,0,P|348:325|364:257,1,140,2|0,0:0|0:0,0:0:0:0:
512,112,99117,5,2,0:0:0:0:
363,0,99505,1,0,0:0:0:0:
368,172,99892,1,2,0:0:0:0:
93,0,100279,6,0,L|21:104,1,70
67,140,100666,2,0,B|31:149|31:149|-3:140,4,70,2|0|0|0|2,0:0|0:0|0:0|0:0|0:0,0:0:0:0:
181,140,101827,1,0,0:0:0:0:
404,124,102214,6,0,L|436:208,1,70,2|0,0:0|0:0,0:0:0:0:
512,180,102601,2,0,L|484:252,1,70,0|0,0:0|0:0,0:0:0:0:
416,300,102988,1,2,0:0:0:0:
316,300,103376,1,0,0:0:0:0:
199,373,103763,5,2,0:0:0:0:
171,349,103956,1,0,0:0:0:0:
151,297,104150,1,0,0:0:0:0:
159,229,104343,1,0,0:0:0:0:
219,173,104537,1,2,0:0:0:0:
363,145,104924,1,0,0:0:0:0:
400,63,105311,5,2,0:0:0:0:
512,151,105698,2,0,P|508:243|464:303,1,140,0|2,0:0|0:0,0:0:0:0:
396,335,106472,1,0,0:0:0:0:
248,212,106859,5,2,0:0:0:0:
300,136,107053,1,0,0:0:0:0:
188,136,107247,1,0,0:0:0:0:
260,24,107440,1,0,0:0:0:0:
116,72,107634,1,2,0:0:0:0:
92,228,108021,5,0,0:0:0:0:
128,304,108408,2,0,B|172:248|172:248|212:304,1,140,2|0,0:0|0:0,0:0:0:0:
272,232,109182,1,2,0:0:0:0:
328,300,109569,1,0,0:0:0:0:
408,240,109956,6,0,P|436:192|420:108,1,140,2|0,0:0|0:0,0:0:0:0:
352,168,110730,1,2,0:0:0:0:
304,96,111117,2,0,P|276:144|292:227,1,140,0|2,0:0|0:0,0:0:0:0:
288,224,111892,1,0,0:0:0:0:
288,224,112279,1,2,0:0:0:0:
380,324,113053,5,0,2:0:0:0:
380,324,113440,1,2,2:0:0:0:
224,160,114601,5,0,2:0:0:0:
224,160,114988,1,0,2:0:0:0:
224,160,115376,1,2,2:0:0:0:
140,72,116150,5,0,2:0:0:0:
140,72,116537,1,2,2:0:0:0:
316,126,117698,6,0,P|364:70|440:70,1,140,0|2,0:0|0:0,0:0:0:0:
512,106,118473,2,0,P|500:174|420:218,1,140,0|2,0:0|0:0,0:0:0:0:
324,202,119247,2,0,L|324:282,2,70,0|0|2,0:0|0:0|0:0,0:0:0:0:
240,190,120021,2,0,B|200:254|200:254|140:198,1,140,0|2,0:0|0:0,0:0:0:0:
64,164,120795,1,0,0:0:0:0:
136,96,121182,5,2,0:0:0:0:
148,8,121569,2,0,P|196:56|224:132,1,140,0|2,0:0|0:0,0:0:0:0:
312,192,122343,1,0,0:0:0:0:
244,240,122730,2,0,P|309:263|376:244,1,140,2|0,0:0|0:0,0:0:0:0:
432,184,123505,5,2,0:0:0:0:
340,88,123892,1,0,0:0:0:0:
340,88,124280,1,2,0:0:0:0:
276,52,124667,2,0,B|176:98|176:98|313:151,1,224,0|2,0:0|0:0,0:0:0:0:
282,139,125441,2,0,B|382:185|382:185|245:238,1,224,0|2,0:0|0:0,0:0:0:0:
192,264,126214,5,0,0:0:0:0:
133,322,126408,1,0,0:0:0:0:
107,239,126601,1,2,0:0:0:0:
172,196,126988,6,0,P|232:172|280:96,1,140,0|2,0:0|0:0,0:0:0:0:
232,40,127569,1,0,0:0:0:0:
316,40,127763,1,0,0:0:0:0:
364,120,127956,5,0,0:0:0:0:
316,188,128150,1,2,0:0:0:0:
232,188,128343,1,0,0:0:0:0:
192,120,128537,5,0,0:0:0:0:
148,188,128730,1,0,0:0:0:0:
192,256,128924,1,2,0:0:0:0:
276,256,129117,5,0,0:0:0:0:
360,256,129311,1,0,0:0:0:0:
408,188,129505,1,0,0:0:0:0:
448,120,129698,6,0,B|376:96|376:96|296:104,1,140,2|2,0:0|0:0,0:0:0:0:
244,160,130859,1,0,0:0:0:0:
296,232,131247,2,0,B|367:256|367:256|447:248,1,140,2|0,0:0|0:0,0:0:0:0:
472,176,131827,1,0,0:0:0:0:
384,176,132021,1,2,0:0:0:0:
344,252,132214,1,0,0:0:0:0:
404,324,132408,6,0,P|312:328|240:300,1,140,0|2,0:0|0:0,0:0:0:0:
319,260,132988,5,0,0:0:0:0:
147,197,133182,1,0,0:0:0:0:
291,86,133376,1,0,0:0:0:0:
354,199,133570,5,2,0:0:0:0:
183,259,133763,1,0,0:0:0:0:
221,80,133957,2,0,P|142:54|80:57,1,140
115,150,134730,5,0,0:0:0:0:
270,296,134924,1,0,0:0:0:0:
123,318,135117,1,2,0:0:0:0:
260,113,135311,1,0,0:0:0:0:
307,200,135505,6,0,P|384:179|434:130,1,140,0|2,0:0|0:0,0:0:0:0:
488,218,136279,5,0,0:0:0:0:
398,352,136472,1,0,0:0:0:0:
281,243,136666,1,2,0:0:0:0:
494,121,136859,5,0,0:0:0:0:
431,269,137053,1,0,0:0:0:0:
295,185,137247,1,0,0:0:0:0:
206,42,137440,5,2,0:0:0:0:
159,215,137634,1,0,0:0:0:0:
147,98,137827,5,0,0:0:0:0:
244,248,138021,1,0,0:0:0:0:
24,192,138214,5,2,0:0:0:0:
111,304,138408,1,0,0:0:0:0:
244,248,138601,2,0,P|336:268|384:248,1,140.699993344574,0|2,0:0|0:0,0:0:0:0:
404,172,139376,5,0,0:0:0:0:
336,40,139569,1,0,0:0:0:0:
300,188,139763,5,2,0:0:0:0:
280,44,139956,1,0,0:0:0:0:
212,188,140150,5,0,0:0:0:0:
232,44,140343,1,0,0:0:0:0:
108,172,140537,5,2,0:0:0:0:
176,40,140730,1,0,0:0:0:0:
360,160,140924,1,0,0:0:0:0:
360,160,141117,1,0,0:0:0:0:
452,248,141311,5,2,0:0:0:0:
344,272,141505,1,0,0:0:0:0:
240,244,141698,2,0,L|168:200,1,70,0|2,0:0|0:0,0:0:0:0:
68,80,142472,5,0,0:0:0:0:
136,152,142859,2,0,B|136:288|136:288|216:336,1,210.000008010865,2|2,2:0|2:0,2:0:0:0:
256,252,144021,1,0,0:0:0:0:
312,327,144408,2,0,B|376:288|376:288|376:152,1,210.000008010865,2|2,2:0|2:0,2:0:0:0:
444,80,145569,1,0,0:0:0:0:
360,72,145956,6,0,P|304:135|296:268,1,210.000008010865,2|2,2:0|2:0,2:0:0:0:
256,136,147117,1,0,0:0:0:0:
219,257,147505,2,2,P|215:154|152:72,1,210.000008010865,0|2,2:0|2:0,2:0:0:0:
72,192,148666,5,0,0:0:0:0:
136,296,149057,1,2,0:0:0:0:
259,360,149441,1,0,0:0:0:0:
376,296,149827,1,2,0:0:0:0:
440,192,150214,1,0,0:0:0:0:
376,92,150601,2,0,P|304:128|240:112,1,140,2|0,0:0|0:0,0:0:0:0:
120,76,151376,1,2,0:0:0:0:
64,172,151763,5,0,0:0:0:0:
168,208,152150,1,2,0:0:0:0:
272,172,152537,2,0,L|272:80,2,70,0|0|2,0:0|0:0|0:0,0:0:0:0:
376,200,153311,2,0,P|428:256|444:320,1,140,0|2,0:0|0:0,0:0:0:0:
344,288,154085,2,0,P|267:287|209:255,1,140,0|2,0:0|0:0,0:0:0:0:
124,188,154859,5,0,0:0:0:0:
124,68,155247,1,2,0:0:0:0:
266,73,155634,1,0,0:0:0:0:
343,205,156021,1,2,0:0:0:0:
392,324,156408,5,0,0:0:0:0:
218,352,156796,1,2,0:0:0:0:
178,189,157182,1,0,0:0:0:0:
343,205,157569,1,2,0:0:0:0:
266,73,157956,5,0,0:0:0:0:
126,68,158343,1,2,0:0:0:0:
178,189,158730,2,0,P|242:233|262:301,1,140,0|2,0:0|0:0,0:0:0:0:
382,360,159505,1,0,0:0:0:0:
442,233,159892,1,2,0:0:0:0:
386,111,160279,2,0,P|314:115|250:143,1,140,0|2,0:0|0:0,0:0:0:0:
341,196,161053,2,0,P|276:223|207:226,1,140,0|2,0:0|0:0,0:0:0:0:
98,167,161828,1,0,0:0:0:0:
98,167,162214,1,2,0:0:0:0:
137,73,162601,5,0,0:0:0:0:
226,38,162795,1,0,0:0:0:0:
203,124,162988,1,2,0:0:0:0:
297,88,163182,1,0,0:0:0:0:
273,170,163376,1,0,0:0:0:0:
409,225,163763,1,2,0:0:0:0:
456,145,164150,5,0,0:0:0:0:
361,44,164343,1,0,0:0:0:0:
367,183,164537,1,2,0:0:0:0:
448,70,164730,1,0,0:0:0:0:
318,120,164924,1,0,0:0:0:0:
206,163,165311,1,2,0:0:0:0:
90,229,165698,6,0,L|60:151,4,70,0|0|2|0|0,0:0|0:0|0:0|0:0|0:0,0:0:0:0:
199,278,166859,1,2,0:0:0:0:
340,279,167247,6,0,P|381:272|421:231,1,70,0|0,0:0|0:0,0:0:0:0:
370,156,167634,2,0,P|329:159|293:199,1,70,2|0,0:0|0:0,0:0:0:0:
355,217,168021,1,0,0:0:0:0:
482,169,168408,1,2,0:0:0:0:
336,32,168795,6,0,L|290:92,1,70
315,156,169182,2,0,L|227:151,1,70,2|0,0:0|0:0,0:0:0:0:
192,104,169569,1,0,0:0:0:0:
92,190,169956,1,2,0:0:0:0:
191,302,170343,6,0,L|124:328,4,70,0|0|2|0|0,0:0|0:0|0:0|0:0|0:0,0:0:0:0:
325,250,171505,1,2,0:0:0:0:
420,141,171892,5,0,0:0:0:0:
365,98,172085,1,0,0:0:0:0:
281,79,172279,1,2,0:0:0:0:
179,105,172472,1,0,0:0:0:0:
81,173,172666,1,0,0:0:0:0:
256,192,173440,12,0,179633,0:0:0:0:
