osu file format v14

[General]
AudioFilename: audio.mp3
AudioLeadIn: 0
PreviewTime: 26219
Countdown: 0
SampleSet: Soft
StackLeniency: 0.4
Mode: 0
LetterboxInBreaks: 0
WidescreenStoryboard: 0

[Editor]
DistanceSpacing: 1.1
BeatDivisor: 2
GridSize: 8
TimelineZoom: 1

[Metadata]
Title:XO TOUR Llif3
TitleUnicode:XO TOUR Llif3
Artist:Lil Uzi Vert
ArtistUnicode:Lil Uzi Vert
Creator:handsome
Version:Master
Source:
Tags:symere woods luv is rage 1.5 hip hop rap cloud trap asap a$ap jw lucas tm88
BeatmapID:1363689
BeatmapSetID:643307

[Difficulty]
HPDrainRate:6
CircleSize:4
OverallDifficulty:9
ApproachRate:9
SliderMultiplier:0.999999999999999
SliderTickRate:1

[Events]
//Background and Video events
0,0,"tour.png",0,0
//Break Periods
2,111477,117071
2,142451,148038
2,171677,172909
//Storyboard Layer 0 (Background)
//Storyboard Layer 1 (Fail)
//Storyboard Layer 2 (Pass)
//Storyboard Layer 3 (Foreground)
//Storyboard Sound Samples

[TimingPoints]
24768,387.096774193548,4,2,1,40,1,0
24768,-33.3333333333333,4,2,1,40,0,0
26316,-250,4,2,1,40,0,0
27864,-33.3333333333333,4,2,1,40,0,0
29412,-250,4,2,1,40,0,0
30961,-33.3333333333333,4,2,1,40,0,0
32509,-250,4,2,1,40,0,0
34058,-33.3333333333333,4,2,1,40,0,0
35606,-250,4,2,1,40,0,0
37155,-33.3333333333333,4,2,1,50,0,0
38703,-250,4,2,1,50,0,0
39477,-500,4,2,1,50,0,0
40251,-250,4,2,1,50,0,0
41025,-1000,4,2,1,50,0,0
41800,-250,4,2,1,50,0,0
42574,-500,4,2,1,50,0,0
43348,-250,4,2,1,50,0,0
44122,-1000,4,2,1,50,0,0
44897,-250,4,2,1,50,0,0
45671,-500,4,2,1,50,0,0
46445,-250,4,2,1,50,0,0
47219,-1000,4,2,1,50,0,0
47993,-500,4,2,1,20,0,0
49542,-50,4,2,1,40,0,0
71219,-250,4,2,1,50,0,0
72380,-500,4,2,1,50,0,0
72767,-250,4,2,1,50,0,0
73928,-500,4,2,1,50,0,0
74316,-33.3333333333333,4,2,1,50,0,0
75864,-250,4,2,1,50,0,0
77026,-1000,4,2,1,50,0,0
78961,-250,4,2,1,50,0,0
80123,-1000,4,2,1,50,0,0
80509,-250,4,2,1,60,0,0
86703,-33.3333333333333,4,2,1,60,0,0
88251,-250,4,2,1,70,0,0
89800,-20,4,2,1,80,0,1
91348,-250,4,2,1,70,0,0
92897,-20,4,2,1,80,0,1
94445,-250,4,2,1,70,0,0
95993,-20,4,2,1,80,0,1
97542,-250,4,2,1,70,0,0
98316,-500,4,2,1,70,0,0
99477,-1000,4,2,1,70,0,0
100638,-250,4,2,1,70,0,0
101413,-500,4,2,1,70,0,0
102187,-250,4,2,1,70,0,0
102961,-1000,4,2,1,70,0,0
103735,-250,4,2,1,70,0,0
104509,-500,4,2,1,70,0,0
105671,-1000,4,2,1,70,0,0
106832,-250,4,2,1,70,0,0
107606,-500,4,2,1,70,0,0
108380,-250,4,2,1,70,0,0
109155,-1000,4,2,1,70,0,0
117671,-33.3333333333333,4,2,1,50,0,0
118445,-133.333333333333,4,2,1,50,0,0
119219,-33.3333333333333,4,2,1,50,0,0
119993,-66.6666666666667,4,2,1,50,0,0
120767,-33.3333333333333,4,2,1,50,0,0
121541,-133.333333333333,4,2,1,50,0,0
122315,-33.3333333333333,4,2,1,50,0,0
123089,-66.6666666666667,4,2,1,50,0,0
123864,-33.3333333333333,4,2,1,50,0,0
124638,-133.333333333333,4,2,1,50,0,0
125412,-33.3333333333333,4,2,1,50,0,0
126186,-66.6666666666667,4,2,1,50,0,0
127348,-33.3333333333333,4,2,1,50,0,0
128509,-66.6666666666667,4,2,1,50,0,0
131606,-66.6666666666667,4,2,1,60,0,0
132380,-33.3333333333333,4,2,1,60,0,0
133155,-66.6666666666667,4,2,1,60,0,0
133929,-33.3333333333333,4,2,1,60,0,0
134703,-66.6666666666667,4,2,1,60,0,0
135477,-33.3333333333333,4,2,1,60,0,0
137800,-66.6666666666667,4,2,1,60,0,0
138574,-33.3333333333333,4,2,1,60,0,0
140897,-66.6666666666667,4,2,1,60,0,0
148638,-33.3333333333333,4,2,1,40,0,0
150186,-250,4,2,1,40,0,0
151734,-33.3333333333333,4,2,1,40,0,0
153282,-250,4,2,1,40,0,0
154831,-33.3333333333333,4,2,1,40,0,0
156379,-250,4,2,1,40,0,0
157928,-33.3333333333333,4,2,1,40,0,0
159476,-250,4,2,1,40,0,0
161025,-33.3333333333333,4,2,1,50,0,0
162573,-250,4,2,1,50,0,0
163347,-500,4,2,1,50,0,0
164121,-250,4,2,1,50,0,0
164895,-1000,4,2,1,50,0,0
165670,-250,4,2,1,50,0,0
166444,-500,4,2,1,50,0,0
167218,-250,4,2,1,50,0,0
167992,-1000,4,2,1,50,0,0
168767,-250,4,2,1,50,0,0
169541,-500,4,2,1,50,0,0
170315,-250,4,2,1,50,0,0
171089,-1000,4,2,1,50,0,0
171863,-500,4,2,1,50,0,0
173413,-250,4,2,1,50,0,0

[Colours]
Combo1 : 91,255,226
Combo2 : 145,176,215
Combo3 : 100,137,159
Combo4 : 192,77,255

[HitObjects]
33,197,24768,6,0,P|22:164|45:91,1,75.000002861023,6|0,3:2|0:0,0:0:0:0:
106,109,24961,2,0,P|121:77|189:42,1,75.000002861023,2|0,0:0|0:0,0:0:0:0:
219,98,25155,2,0,P|252:87|325:110,1,75.000002861023,2|0,0:0|0:0,0:0:0:0:
300,87,25542,6,0,P|296:124|307:159,1,75.000002861023,10|0,0:0|0:0,0:0:0:0:
261,226,25736,2,0,P|284:254|317:272,1,75.000002861023,2|0,0:0|0:0,0:0:0:0:
333,352,25929,2,0,P|370:355|405:344,1,75.000002861023,2|0,3:2|0:0,0:0:0:0:
415,346,26316,6,0,L|417:330,1,9.99999999999999,0|0,1:0|0:0,0:0:0:0:
511,362,26509,2,0,L|513:346,1,9.99999999999999,0|0,1:0|0:0,0:0:0:0:
330,269,26703,6,0,L|327:253,1,9.99999999999999,0|0,1:0|0:0,0:0:0:0:
503,235,26897,2,0,L|500:219,1,9.99999999999999,0|0,1:0|0:0,0:0:0:0:
433,45,27090,38,0,L|417:42,1,9.99999999999999,8|0,1:0|0:0,0:0:0:0:
420,209,27284,2,0,L|404:206,1,9.99999999999999,0|0,1:0|0:0,0:0:0:0:
254,91,27477,6,0,L|238:93,1,9.99999999999999,0|0,1:0|0:0,0:0:0:0:
268,204,27671,2,0,L|252:206,1,9.99999999999999,0|0,1:0|0:0,0:0:0:0:
19,158,27864,6,0,P|42:131|116:115,1,75.000002861023,6|0,3:2|0:0,0:0:0:0:
131,177,28058,2,0,P|166:173|230:215,1,75.000002861023,2|0,0:0|0:0,0:0:0:0:
197,269,28251,2,0,P|223:292|239:366,1,75.000002861023,2|0,0:0|0:0,0:0:0:0:
234,335,28638,6,0,P|267:342|338:311,1,75.000002861023,10|0,0:0|0:0,0:0:0:0:
313,253,28832,2,0,P|343:234|370:163,1,75.0000028610231,2|0,0:0|0:0,0:0:0:0:
312,140,29026,2,0,P|319:106|288:35,1,75.000002861023,2|0,3:2|0:0,0:0:0:0:
305,61,29413,6,0,L|302:76,1,9.99999999999999,0|0,1:0|0:0,0:0:0:0:
164,43,29606,2,0,L|161:58,1,9.99999999999999,0|0,1:0|0:0,0:0:0:0:
242,181,29800,6,0,L|244:196,1,9.99999999999999,0|0,1:0|0:0,0:0:0:0:
41,218,29993,2,0,L|43:233,1,9.99999999999999,0|0,1:0|0:0,0:0:0:0:
131,361,30187,38,0,L|146:358,1,9.99999999999999,8|0,1:0|0:0,0:0:0:0:
94,149,30380,2,0,L|109:146,1,9.99999999999999,0|0,1:0|0:0,0:0:0:0:
278,356,30574,6,0,L|293:358,1,9.99999999999999,0|0,1:0|0:0,0:0:0:0:
282,257,30767,2,0,L|297:259,1,9.99999999999999,0|0,1:0|0:0,0:0:0:0:
445,363,30961,6,0,P|463:332|455:257,1,75.000002861023,6|0,3:2|0:0,0:0:0:0:
392,262,31155,2,0,P|384:227|325:179,1,75.0000028610231,2|0,0:0|0:0,0:0:0:0:
284,228,31348,2,0,P|254:210|178:218,1,75.000002861023,2|0,0:0|0:0,0:0:0:0:
207,211,31735,6,0,P|187:180|191:105,1,75.000002861023,10|0,0:0|0:0,0:0:0:0:
254,107,31929,2,0,P|260:71|316:20,1,75.0000028610231,2|0,0:0|0:0,0:0:0:0:
386,128,32122,38,0,P|366:159|370:234,1,75.000002861023,2|0,3:2|0:0,0:0:0:0:
433,232,32316,2,0,P|439:268|495:319,1,75.0000028610231,2|0,0:0|0:0,0:0:0:0:
375,364,32509,22,0,L|377:348,1,9.99999999999999,0|0,1:0|0:0,0:0:0:0:
227,350,32703,2,0,L|229:334,1,9.99999999999999,0|0,1:0|0:0,0:0:0:0:
329,273,32897,6,0,L|326:257,1,9.99999999999999,0|0,1:0|0:0,0:0:0:0:
96,302,33090,2,0,L|93:286,1,9.99999999999999,0|0,1:0|0:0,0:0:0:0:
259,69,33284,38,0,L|268:70,1,9.99999999999999,8|0,1:0|0:0,0:0:0:0:
241,234,33477,2,0,L|250:235,1,9.99999999999999,0|0,1:0|0:0,0:0:0:0:
415,160,33671,6,0,L|424:159,1,9.99999999999999,0|0,1:0|0:0,0:0:0:0:
438,281,33864,2,0,L|447:280,1,9.99999999999999,0|0,1:0|0:0,0:0:0:0:
273,366,34058,6,0,P|238:377|167:353,1,75.0000028610231,6|0,3:2|0:0,0:0:0:0:
185,293,34251,2,0,P|152:277|117:210,1,75.0000028610231,2|0,0:0|0:0,0:0:0:0:
174,180,34445,2,0,P|162:146|186:74,1,75.000002861023,2|0,0:0|0:0,0:0:0:0:
172,101,34832,6,0,P|141:83|66:91,1,75.0000028610231,10|0,0:0|0:0,0:0:0:0:
71,154,35025,2,0,P|36:162|-12:221,1,75.0000028610231,2|0,0:0|0:0,0:0:0:0:
256,212,35219,38,0,P|287:194|362:202,1,75.0000028610231,2|0,3:2|0:0,0:0:0:0:
357,265,35412,2,0,P|392:273|440:332,1,75.0000028610231,2|0,0:0|0:0,0:0:0:0:
224,384,35606,22,0,L|208:382,1,9.99999999999999,0|0,1:0|0:0,0:0:0:0:
232,288,35800,2,0,L|216:286,1,9.99999999999999,0|0,1:0|0:0,0:0:0:0:
108,353,35993,6,0,L|92:355,1,9.99999999999999,0|0,1:0|0:0,0:0:0:0:
79,166,36187,2,0,L|63:168,1,9.99999999999999,0|0,1:0|0:0,0:0:0:0:
312,270,36380,38,0,L|310:286,1,9.99999999999999,0|0,1:0|0:0,0:0:0:0:
110,239,36574,2,0,L|108:255,1,9.99999999999999,0|0,1:0|0:0,0:0:0:0:
388,32,36767,6,0,L|390:48,1,9.99999999999999,0|0,1:0|0:0,0:0:0:0:
40,38,36961,2,0,L|42:54,1,9.99999999999999,0|0,1:0|0:0,0:0:0:0:
101,96,37155,6,0,P|82:128|78:165,1,75.0000028610231,2|0,3:2|0:0,0:0:0:0:
72,171,37542,2,0,P|108:175|139:196,1,75.0000028610231,6|0,0:0|0:0,0:0:0:0:
148,195,37929,6,0,P|142:230|176:297,1,75.0000028610231,10|0,0:0|0:0,0:0:0:0:
233,270,38122,2,0,P|253:299|325:323,1,75.0000028610231,2|0,0:0|0:0,0:0:0:0:
347,263,38316,2,0,P|381:269|449:234,1,75.000002861023,2|0,3:2|0:0,0:0:0:0:
423,250,38703,6,0,L|425:234,1,9.99999999999999,0|0,1:0|0:0,0:0:0:0:
511,261,38897,2,0,L|513:245,1,9.99999999999999,0|0,1:0|0:0,0:0:0:0:
304,131,39090,6,0,L|306:147,1,9.99999999999999,0|0,1:0|0:0,0:0:0:0:
502,98,39284,2,0,L|504:114,1,9.99999999999999,0|0,1:0|0:0,0:0:0:0:
395,163,39477,6,0,L|379:161,2,9.99999999999999,8|0|0,1:0|3:0|0:0,0:0:0:0:
395,163,40251,22,0,L|385:161,1,9.99999999999999,4|0,1:2|0:0,0:0:0:0:
411,3,40445,2,0,L|401:1,1,9.99999999999999,0|0,1:0|0:0,0:0:0:0:
216,137,40638,6,0,L|226:135,1,9.99999999999999,0|0,1:0|0:0,0:0:0:0:
193,44,40832,2,0,L|203:42,1,9.99999999999999,0|0,1:0|0:0,0:0:0:0:
366,82,41026,6,0,L|368:72,1,9.99999999999999,8|0,1:0|3:0,0:0:0:0:
368,72,41800,22,0,L|366:82,1,9.99999999999999,0|0,1:0|0:0,0:0:0:0:
284,63,41993,2,0,L|282:73,1,9.99999999999999,0|0,1:0|0:0,0:0:0:0:
420,247,42187,6,0,L|418:237,1,9.99999999999999,0|0,1:0|0:0,0:0:0:0:
207,285,42380,2,0,L|205:275,1,9.99999999999999,0|0,1:0|0:0,0:0:0:0:
344,164,42574,6,0,L|328:162,2,9.99999999999999,8|0|0,1:0|3:0|3:0,0:0:0:0:
344,164,43348,22,0,L|328:162,1,9.99999999999999,4|0,1:2|0:0,0:0:0:0:
322,378,43542,2,0,L|306:376,1,9.99999999999999,0|0,1:0|0:0,0:0:0:0:
123,211,43735,6,0,L|132:209,1,9.99999999999999,0|0,1:0|0:0,0:0:0:0:
139,339,43929,2,0,L|148:337,1,9.99999999999999,0|0,1:0|0:0,0:0:0:0:
321,287,44122,6,0,L|323:297,1,9.99999999999999,8|0,1:0|3:0,0:0:0:0:
323,297,44897,22,0,L|321:287,1,9.99999999999999,0|0,1:0|0:0,0:0:0:0:
218,311,45090,2,0,L|216:301,1,9.99999999999999,0|0,1:0|0:0,0:0:0:0:
356,75,45284,6,0,L|354:84,1,9.99999999999999,0|0,1:0|0:0,0:0:0:0:
118,62,45477,2,0,L|116:71,1,9.99999999999999,0|0,1:0|0:0,0:0:0:0:
219,226,45671,6,0,L|228:227,2,9.99999999999999,8|0|0,1:0|3:0|0:0,0:0:0:0:
219,226,46445,22,0,L|228:227,1,9.99999999999999,4|0,1:2|0:0,0:0:0:0:
240,32,46638,2,0,L|249:33,1,9.99999999999999,0|0,1:0|0:0,0:0:0:0:
444,273,46832,6,0,L|434:274,1,9.99999999999999,0|0,1:0|0:0,0:0:0:0:
427,161,47026,2,0,L|417:162,1,9.99999999999999,0|0,1:0|0:0,0:0:0:0:
311,218,47219,6,0,L|310:209,1,9.99999999999999,8|0,1:0|3:0,0:0:0:0:
310,209,47993,6,0,L|311:218,4,9.99999999999999
70,96,49542,5,6,3:2:0:0:
145,78,49735,1,2,0:0:0:0:
116,324,49929,5,2,0:0:0:0:
191,342,50122,1,2,0:0:0:0:
446,138,50316,5,10,0:0:0:0:
446,138,50703,1,0,3:0:0:0:
446,138,51090,21,2,0:0:0:0:
371,156,51283,1,2,0:0:0:0:
266,360,51477,5,2,3:2:0:0:
191,342,51670,1,2,0:0:0:0:
152,44,51864,37,10,0:0:0:0:
77,62,52058,1,2,3:2:0:0:
24,312,52251,21,2,0:0:0:0:
24,312,52638,21,6,3:2:0:0:
42,237,52831,1,2,0:0:0:0:
251,190,53026,5,2,0:0:0:0:
233,115,53219,1,2,0:0:0:0:
78,35,53413,5,10,0:0:0:0:
78,35,53800,1,2,3:2:0:0:
78,35,54187,21,2,0:0:0:0:
60,110,54380,1,2,0:0:0:0:
432,140,54574,5,2,3:2:0:0:
450,215,54767,1,2,0:0:0:0:
174,245,54961,37,10,0:0:0:0:
156,320,55154,1,2,3:2:0:0:
489,358,55348,21,2,3:2:0:0:
489,358,55735,21,6,3:2:0:0:
414,376,55928,1,2,0:0:0:0:
370,92,56122,5,2,0:0:0:0:
295,74,56315,1,2,0:0:0:0:
99,237,56509,5,10,0:0:0:0:
99,237,56897,1,2,3:2:0:0:
99,237,57284,21,2,0:0:0:0:
174,219,57477,1,2,0:0:0:0:
253,23,57671,5,2,3:2:0:0:
328,41,57864,1,2,0:0:0:0:
370,313,58058,37,10,0:0:0:0:
446,296,58251,1,2,3:2:0:0:
484,27,58445,21,2,0:0:0:0:
484,27,58832,21,6,3:2:0:0:
432,15,58928,1,0,0:0:0:0:
387,44,59025,5,2,0:0:0:0:
375,95,59122,1,0,0:0:0:0:
403,140,59219,37,2,0:0:0:0:
454,153,59315,1,0,0:0:0:0:
499,126,59412,1,2,0:0:0:0:
197,57,59606,21,10,0:0:0:0:
197,57,59993,1,2,3:2:0:0:
197,57,60380,21,2,0:0:0:0:
300,35,60574,1,2,0:0:0:0:
395,92,60767,5,2,3:2:0:0:
419,198,60961,1,2,0:0:0:0:
362,291,61155,37,10,0:0:0:0:
255,318,61348,1,2,3:2:0:0:
161,262,61542,1,2,3:2:0:0:
161,262,61929,21,6,3:2:0:0:
139,181,62058,1,0,0:0:0:0:
82,239,62187,1,0,0:0:0:0:
144,169,62316,5,2,0:0:0:0:
222,154,62445,1,0,0:0:0:0:
300,139,62574,1,0,0:0:0:0:
397,44,62703,5,10,0:0:0:0:
314,151,62832,1,2,0:0:0:0:
264,35,62961,5,2,0:0:0:0:
181,142,63090,1,2,3:2:0:0:
484,345,63477,5,2,0:0:0:0:
468,266,63606,1,0,0:0:0:0:
454,187,63735,1,0,0:0:0:0:
351,152,63864,5,2,3:2:0:0:
428,172,63993,1,0,0:0:0:0:
406,94,64122,1,0,0:0:0:0:
272,183,64251,5,10,0:0:0:0:
43,255,64445,1,2,3:2:0:0:
272,183,64638,5,2,0:0:0:0:
93,358,65026,5,6,3:2:0:0:
96,340,65122,1,0,0:0:0:0:
99,322,65219,1,0,0:0:0:0:
118,208,65413,5,2,0:0:0:0:
137,94,65606,1,0,0:0:0:0:
397,260,65800,5,10,0:0:0:0:
397,260,66187,5,2,3:2:0:0:
391,53,66574,5,2,0:0:0:0:
319,88,66703,1,0,0:0:0:0:
323,9,66832,1,0,0:0:0:0:
310,106,66961,5,2,3:2:0:0:
231,93,67090,1,0,0:0:0:0:
151,80,67219,1,0,0:0:0:0:
84,135,67348,5,10,0:0:0:0:
119,331,67542,1,2,3:2:0:0:
84,135,67735,5,2,3:2:0:0:
382,311,68122,5,6,3:2:0:0:
303,296,68251,1,0,0:0:0:0:
224,281,68380,1,0,0:0:0:0:
165,208,68509,5,2,0:0:0:0:
214,271,68638,1,0,0:0:0:0:
242,196,68767,1,0,0:0:0:0:
152,200,68897,2,0,P|130:169|130:118,1,66.6666666666666,10|0,0:0|0:0,0:0:0:0:
176,41,69155,5,0,0:0:0:0:
209,122,69284,1,2,3:2:0:0:
209,122,69413,1,2,0:0:0:0:
307,71,69542,5,0,0:0:0:0:
317,157,69671,1,2,0:0:0:0:
317,157,69800,1,2,0:0:0:0:
424,133,69929,5,0,0:0:0:0:
412,218,70058,2,0,P|422:247|468:293,2,66.6666666666666,2|0|0,3:2|0:0|0:0,0:0:0:0:
442,49,70445,21,10,0:0:0:0:
57,100,70638,1,2,3:2:0:0:
442,49,70832,5,0,0:0:0:0:
134,348,71219,38,0,L|132:338,1,9.99999999999999,4|0,1:2|0:0,0:0:0:0:
235,329,71413,2,0,L|233:319,1,9.99999999999999,0|0,1:0|0:0,0:0:0:0:
74,238,71606,6,0,L|75:228,1,9.99999999999999,0|0,1:0|0:0,0:0:0:0:
198,249,71800,2,0,L|199:239,1,9.99999999999999,0|0,1:0|0:0,0:0:0:0:
98,152,71993,38,0,L|96:142,1,9.99999999999999,8|0,1:0|0:0,0:0:0:0:
284,131,72187,2,0,L|282:121,1,9.99999999999999,0|0,1:0|0:0,0:0:0:0:
199,27,72380,6,0,L|189:25,1,9.99999999999999,0|0,3:0|0:0,0:0:0:0:
189,25,72767,38,0,L|198:26,1,9.99999999999999,0|0,1:0|0:0,0:0:0:0:
174,140,72961,2,0,L|183:141,1,9.99999999999999,0|0,1:0|0:0,0:0:0:0:
275,49,73155,6,0,L|284:47,1,9.99999999999999,0|0,1:0|0:0,0:0:0:0:
302,210,73348,2,0,L|311:208,1,9.99999999999999,0|0,1:0|0:0,0:0:0:0:
409,17,73542,38,0,L|418:18,1,9.99999999999999,8|0,1:0|0:0,0:0:0:0:
392,246,73735,2,0,L|401:247,1,9.99999999999999,0|0,1:0|0:0,0:0:0:0:
473,210,73929,5,2,1:3:0:0:
250,334,74122,1,0,3:0:0:0:
26,154,74316,6,0,P|15:121|38:48,1,75.000002861023,6|0,3:2|0:0,0:0:0:0:
99,66,74509,2,0,P|114:34|182:-1,1,75.000002861023,2|0,0:0|0:0,0:0:0:0:
212,55,74703,2,0,P|245:44|318:67,1,75.000002861023,2|0,0:0|0:0,0:0:0:0:
293,43,75090,6,0,P|269:72|260:108,1,75.000002861023,10|0,0:0|0:0,0:0:0:0:
328,149,75283,2,0,P|331:186|349:218,1,75.000002861023,2|0,0:0|0:0,0:0:0:0:
429,201,75477,2,0,P|458:224|494:233,1,75.000002861023,2|0,3:2|0:0,0:0:0:0:
505,235,75864,6,0,L|503:244,1,9.99999999999999,0|0,1:0|0:0,0:0:0:0:
354,228,76058,2,0,L|352:237,1,9.99999999999999,0|0,1:0|0:0,0:0:0:0:
238,378,76251,6,0,L|236:368,1,9.99999999999999,0|0,1:0|0:0,0:0:0:0:
416,340,76445,2,0,L|414:330,1,9.99999999999999,0|0,1:0|0:0,0:0:0:0:
291,158,76638,38,0,L|289:167,1,9.99999999999999,8|0,1:0|0:0,0:0:0:0:
134,142,76832,2,0,L|132:151,1,9.99999999999999,0|0,1:0|0:0,0:0:0:0:
224,291,77026,22,0,L|222:281,1,9.99999999999999,0|6,1:0|3:2,0:0:0:0:
256,192,77800,12,0,78574,3:0:0:0:
253,21,78961,22,0,L|243:19,1,9.99999999999999,0|0,1:0|0:0,0:0:0:0:
241,157,79155,2,0,L|231:155,1,9.99999999999999,0|0,1:0|0:0,0:0:0:0:
93,236,79348,6,0,L|102:234,1,9.99999999999999,0|0,1:0|0:0,0:0:0:0:
68,103,79542,2,0,L|77:101,1,9.99999999999999,0|0,1:0|0:0,0:0:0:0:
158,143,79735,38,0,L|148:141,1,9.99999999999999,8|0,1:0|0:0,0:0:0:0:
131,337,79929,2,0,L|121:335,1,9.99999999999999,0|0,1:0|0:0,0:0:0:0:
45,306,80122,5,2,1:3:0:0:
281,117,80316,1,0,3:0:0:0:
511,310,80509,38,0,L|509:319,1,9.99999999999999,4|0,1:2|0:0,0:0:0:0:
444,384,80703,2,0,L|446:375,1,9.99999999999999,0|0,1:0|0:0,0:0:0:0:
432,284,80897,6,0,L|430:293,1,9.99999999999999,0|0,1:0|0:0,0:0:0:0:
365,358,81091,2,0,L|367:349,1,9.99999999999999,0|0,1:0|0:0,0:0:0:0:
299,122,81284,38,0,L|301:131,1,9.99999999999999,8|0,1:0|0:0,0:0:0:0:
210,272,81477,2,0,L|208:263,1,9.99999999999999,0|0,1:0|0:0,0:0:0:0:
122,130,81671,6,0,L|124:139,1,9.99999999999999,0|0,1:0|0:0,0:0:0:0:
33,280,81864,2,0,L|31:271,1,9.99999999999999,0|0,1:0|0:0,0:0:0:0:
156,48,82058,38,0,L|165:50,1,9.99999999999999,0|0,1:0|0:0,0:0:0:0:
258,22,82251,2,0,L|249:20,1,9.99999999999999,0|0,1:0|0:0,0:0:0:0:
329,88,82445,6,0,L|320:86,1,9.99999999999999,0|0,1:0|0:0,0:0:0:0:
227,114,82638,2,0,L|236:116,1,9.99999999999999,0|0,1:0|0:0,0:0:0:0:
512,249,82832,38,0,L|503:251,1,9.99999999999999,8|0,1:0|0:0,0:0:0:0:
313,371,83026,2,0,L|322:369,1,9.99999999999999,0|0,1:0|0:0,0:0:0:0:
83,305,83219,6,0,L|92:303,1,9.99999999999999,0|0,1:0|0:0,0:0:0:0:
282,184,83413,2,0,L|273:186,1,9.99999999999999,0|0,1:0|0:0,0:0:0:0:
31,85,83606,38,0,L|33:94,1,9.99999999999999,4|0,1:2|0:0,0:0:0:0:
156,160,83800,2,0,L|154:151,1,9.99999999999999,0|0,1:0|0:0,0:0:0:0:
125,56,83993,6,0,L|127:65,1,9.99999999999999,0|0,1:0|0:0,0:0:0:0:
62,189,84187,2,0,L|60:180,1,9.99999999999999,0|0,1:0|0:0,0:0:0:0:
266,275,84380,38,0,L|268:266,1,9.99999999999999,8|0,1:0|0:0,0:0:0:0:
511,103,84574,2,0,L|509:112,1,9.99999999999999,0|0,1:0|0:0,0:0:0:0:
463,326,84767,6,0,L|465:317,1,9.99999999999999,0|0,1:0|0:0,0:0:0:0:
314,52,84961,2,0,L|312:61,1,9.99999999999999,0|0,1:0|0:0,0:0:0:0:
165,363,85155,38,0,L|156:361,1,9.99999999999999,0|0,1:0|0:0,0:0:0:0:
66,343,85348,2,0,L|75:345,1,9.99999999999999,0|0,1:0|0:0,0:0:0:0:
80,244,85542,6,0,L|89:246,1,9.99999999999999,0|0,1:0|0:0,0:0:0:0:
179,264,85735,2,0,L|170:262,1,9.99999999999999,0|0,1:0|0:0,0:0:0:0:
328,368,85929,38,0,L|337:366,1,9.99999999999999,8|0,1:0|0:0,0:0:0:0:
512,324,86122,2,0,L|503:326,1,9.99999999999999,0|0,1:0|0:0,0:0:0:0:
460,144,86316,6,0,L|451:146,1,9.99999999999999,0|0,1:0|0:0,0:0:0:0:
276,188,86509,2,0,L|285:186,1,9.99999999999999,0|0,1:0|0:0,0:0:0:0:
423,287,86703,6,0,P|452:266|475:195,1,75.000002861023,6|0,3:2|0:0,0:0:0:0:
415,172,86896,2,0,P|422:137|387:69,1,75.0000028610231,2|0,0:0|0:0,0:0:0:0:
330,97,87090,2,0,P|309:68|237:45,1,75.000002861023,2|0,0:0|0:0,0:0:0:0:
267,41,87477,6,0,P|280:73|261:146,1,75.000002861023,10|0,0:0|0:0,0:0:0:0:
197,132,87670,2,0,P|184:165|118:202,1,75.0000028610231,2|0,0:0|0:0,0:0:0:0:
85,148,87864,2,0,P|52:160|-20:141,1,75.000002861023,2|0,3:2|0:0,0:0:0:0:
341,372,88251,6,0,L|343:363,1,9.99999999999999,0|0,1:0|0:0,0:0:0:0:
393,132,88445,2,0,L|391:141,1,9.99999999999999,0|0,1:0|0:0,0:0:0:0:
433,355,88638,6,0,L|428:347,1,9.99999999999999,0|0,1:0|0:0,0:0:0:0:
300,148,88832,2,0,L|304:155,1,9.99999999999999,0|0,1:0|0:0,0:0:0:0:
487,277,89026,38,0,L|477:275,1,9.99999999999999,8|0,1:0|0:0,0:0:0:0:
247,226,89220,2,0,L|256:228,1,9.99999999999999,0|0,1:0|0:0,0:0:0:0:
470,185,89413,6,0,L|462:189,1,9.99999999999999,0|0,1:0|0:0,0:0:0:0:
263,318,89607,2,0,L|270:313,1,9.99999999999999,0|0,1:0|0:0,0:0:0:0:
256,192,89800,12,0,90961,3:0:0:0:
14,178,91348,38,0,L|23:176,1,9.99999999999999,0|0,1:0|0:0,0:0:0:0:
41,271,91542,2,0,L|50:269,1,9.99999999999999,0|0,1:0|0:0,0:0:0:0:
333,199,91735,6,0,L|324:201,1,9.99999999999999,0|0,1:0|0:0,0:0:0:0:
306,106,91929,2,0,L|297:108,1,9.99999999999999,0|0,1:0|0:0,0:0:0:0:
163,348,92122,38,0,L|161:339,1,9.99999999999999,8|0,1:0|0:0,0:0:0:0:
256,321,92316,2,0,L|254:312,1,9.99999999999999,0|0,1:0|0:0,0:0:0:0:
184,29,92509,6,0,L|186:38,1,9.99999999999999,0|0,1:0|0:0,0:0:0:0:
91,56,92703,2,0,L|93:65,1,9.99999999999999,0|0,1:0|0:0,0:0:0:0:
256,192,92897,12,0,94058,3:0:0:0:
389,8,94445,38,0,L|387:17,1,9.99999999999999,0|0,1:0|0:0,0:0:0:0:
506,193,94639,2,0,L|497:191,1,9.99999999999999,0|0,1:0|0:0,0:0:0:0:
321,310,94832,6,0,L|323:301,1,9.99999999999999,0|0,1:0|0:0,0:0:0:0:
204,125,95026,2,0,L|213:127,1,9.99999999999999,0|0,1:0|0:0,0:0:0:0:
485,76,95219,38,0,L|477:80,1,9.99999999999999,8|0,1:0|0:0,0:0:0:0:
437,289,95413,2,0,L|432:281,1,9.99999999999999,0|0,1:0|0:0,0:0:0:0:
224,241,95606,6,0,L|231:236,1,9.99999999999999,0|0,1:0|0:0,0:0:0:0:
272,28,95800,2,0,L|276:35,1,9.99999999999999,0|0,1:0|0:0,0:0:0:0:
256,192,95993,12,0,97155,3:0:0:0:
101,384,97542,38,0,L|99:375,1,9.99999999999999,0|0,1:0|0:0,0:0:0:0:
488,305,97735,2,0,L|486:296,1,9.99999999999999,0|0,1:0|0:0,0:0:0:0:
37,166,97929,6,0,L|39:157,1,9.99999999999999,0|0,1:0|0:0,0:0:0:0:
424,245,98122,2,0,L|426:236,1,9.99999999999999,0|0,1:0|0:0,0:0:0:0:
101,106,98316,6,0,L|99:97,1,9.99999999999999,8|0,1:0|3:0,0:0:0:0:
488,27,98703,2,0,L|486:18,1,9.99999999999999,0|0,3:0|0:0,0:0:0:0:
291,56,99090,5,6,3:2:0:0:
291,56,99477,2,0,L|289:47,2,9.99999999999999,2|10|0,0:0|0:0|3:0,0:0:0:0:
291,56,100638,6,0,L|289:47,1,9.99999999999999,0|0,1:0|0:0,0:0:0:0:
154,14,100832,2,0,L|144:13,1,9.99999999999999,0|0,1:0|0:0,0:0:0:0:
71,130,101026,6,0,L|67:138,1,9.99999999999999,0|0,1:0|0:0,0:0:0:0:
157,244,101219,2,0,L|163:250,1,9.99999999999999,0|0,1:0|0:0,0:0:0:0:
294,200,101413,6,0,L|301:195,2,9.99999999999999,8|0|0,1:0|3:0|0:0,0:0:0:0:
294,200,102187,22,0,L|301:195,1,9.99999999999999,4|0,1:2|0:0,0:0:0:0:
420,21,102380,2,0,L|416:29,1,9.99999999999999,0|0,1:0|0:0,0:0:0:0:
423,239,102574,6,0,L|420:230,1,9.99999999999999,0|0,1:0|0:0,0:0:0:0:
291,63,102767,2,0,L|297:69,1,9.99999999999999,0|0,1:0|0:0,0:0:0:0:
500,127,102961,6,0,L|490:126,1,9.99999999999999,8|0,1:0|3:0,0:0:0:0:
490,126,103735,22,0,L|500:127,1,9.99999999999999,0|0,1:0|0:0,0:0:0:0:
436,256,103929,2,0,L|443:261,1,9.99999999999999,0|0,1:0|0:0,0:0:0:0:
323,341,104122,6,0,L|326:349,1,9.99999999999999,0|0,1:0|0:0,0:0:0:0:
183,358,104316,2,0,L|182:367,1,9.99999999999999,0|0,1:0|0:0,0:0:0:0:
53,303,104509,6,0,L|47:310,2,9.99999999999999,8|0|0,1:0|3:0|3:0,0:0:0:0:
183,358,105284,5,6,3:2:0:0:
183,358,105671,2,0,L|182:367,2,9.99999999999999,2|10|2,0:0|0:0|3:2,0:0:0:0:
183,358,106832,6,0,L|182:367,1,9.99999999999999,0|0,1:0|0:0,0:0:0:0:
279,116,107026,2,0,L|285:109,1,9.99999999999999,0|0,1:0|0:0,0:0:0:0:
59,255,107219,6,0,L|50:257,1,9.99999999999999,0|0,1:0|0:0,0:0:0:0:
318,271,107413,2,0,L|326:274,1,9.99999999999999,0|0,1:0|0:0,0:0:0:0:
117,104,107606,6,0,L|112:96,2,9.99999999999999,8|0|0,1:0|3:0|0:0,0:0:0:0:
117,104,108380,22,0,L|112:96,1,9.99999999999999,4|0,1:2|0:0,0:0:0:0:
220,167,108574,2,0,L|211:162,1,9.99999999999999,0|0,1:0|0:0,0:0:0:0:
340,170,108767,6,0,L|330:170,1,9.99999999999999,0|0,1:0|0:0,0:0:0:0:
446,112,108961,2,0,L|438:116,1,9.99999999999999,0|0,1:0|0:0,0:0:0:0:
509,9,109155,6,0,L|504:17,2,9.99999999999999,8|0|0,1:0|3:0|0:0,0:0:0:0:
479,197,117671,54,0,P|490:164|467:91,1,75.000002861023,6|0,3:2|0:0,0:0:0:0:
406,109,117864,2,0,P|391:77|323:42,1,75.000002861023,2|0,0:0|0:0,0:0:0:0:
293,98,118058,2,0,P|260:87|187:110,1,75.000002861023,2|0,0:0|0:0,0:0:0:0:
213,88,118445,6,0,P|224:121|201:194,1,75.000002861023,10|0,0:0|3:0,0:0:0:0:
212,164,119219,6,0,P|190:190|186:267,1,75.000002861023,2|0,0:0|0:0,0:0:0:0:
275,355,119413,2,0,P|263:322|198:280,1,75.000002861023,2|0,0:0|0:0,0:0:0:0:
78,314,119606,2,0,P|111:320|180:285,1,75.000002861023,2|0,3:2|0:0,0:0:0:0:
148,300,119993,38,0,P|144:262|155:227,1,75.000002861023,10|0,0:0|3:0,0:0:0:0:
432,257,120380,2,0,P|435:294|424:329,1,75.000002861023,2|0,3:2|0:0,0:0:0:0:
147,62,120767,38,0,P|136:95|159:168,1,75.000002861023,6|0,3:2|0:0,0:0:0:0:
220,150,120961,2,0,P|235:182|303:217,1,75.000002861023,2|0,0:0|0:0,0:0:0:0:
333,161,121154,2,0,P|366:172|439:149,1,75.000002861023,2|0,0:0|0:0,0:0:0:0:
410,162,121542,6,0,P|406:124|417:89,1,75.000002861023,10|2,0:0|3:2,0:0:0:0:
424,84,122316,6,0,P|408:50|380:25,1,75.000002861023,2|0,0:0|0:0,0:0:0:0:
238,37,122509,2,0,P|216:67|208:103,1,75.000002861023,2|0,0:0|0:0,0:0:0:0:
291,222,122703,2,0,P|328:225|363:214,1,75.000002861023,2|0,3:2|0:0,0:0:0:0:
369,206,123090,38,0,P|372:243|361:278,1,75.000002861023,10|0,0:0|3:0,0:0:0:0:
47,247,123477,2,0,P|43:209|54:174,1,75.000002861023,2|0,3:2|0:0,0:0:0:0:
308,364,123864,38,0,P|273:360|216:309,1,75.000002861023,6|0,3:2|0:0,0:0:0:0:
257,261,124058,2,0,P|233:234|229:157,1,75.000002861023,2|0,0:0|0:0,0:0:0:0:
293,153,124251,2,0,P|296:118|347:61,1,75.000002861023,2|0,0:0|0:0,0:0:0:0:
310,76,124638,6,0,P|282:48|248:35,1,75.000002861023,10|2,0:0|3:2,0:0:0:0:
242,31,125413,6,0,P|214:59|180:72,1,75.000002861023,2|0,0:0|0:0,0:0:0:0:
28,11,125606,2,0,P|66:21|94:44,1,75.000002861023,2|0,0:0|0:0,0:0:0:0:
118,207,125800,2,0,P|107:168|113:132,1,75.000002861023,2|0,3:2|0:0,0:0:0:0:
118,125,126187,38,0,P|154:110|191:112,1,75.000002861023,10|0,0:0|3:0,0:0:0:0:
227,350,126574,2,0,P|191:365|154:363,1,75.000002861023,2|0,3:2|0:0,0:0:0:0:
105,304,126961,1,6,3:2:0:0:
345,34,127348,6,0,P|378:23|451:46,1,75.000002861023,2|0,0:0|0:0,0:0:0:0:
433,107,127541,2,0,P|465:121|500:190,1,75.000002861023,2|0,0:0|0:0,0:0:0:0:
444,220,127735,2,0,P|455:253|432:326,1,75.000002861023,10|0,0:0|0:0,0:0:0:0:
343,331,127929,6,0,P|363:302|363:225,1,75.000002861023,2|0,0:0|0:0,0:0:0:0:
300,224,128122,2,0,P|295:188|241:133,1,75.000002861023,2|0,3:2|0:0,0:0:0:0:
196,179,128316,2,0,P|167:157|91:157,1,75.000002861023,2|0,0:0|0:0,0:0:0:0:
142,307,128509,6,0,P|146:269|135:234,1,75.000002861023,2|0,0:0|3:0,0:0:0:0:
0,249,128897,2,0,P|-4:286|6:321,1,75.000002861023,2|0,3:2|0:0,0:0:0:0:
221,95,129284,6,0,P|231:59|227:22,1,75.000002861023,10|0,0:0|3:0,0:0:0:0:
92,7,129672,2,0,P|81:42|85:79,1,75.000002861023,2|0,3:2|0:0,0:0:0:0:
256,192,130058,12,0,131219,3:0:0:0:
412,123,131606,38,0,P|422:158|418:195,1,75.000002861023,2|0,0:0|0:0,0:0:0:0:
266,209,131993,2,0,P|255:173|259:136,1,75.000002861023,2|0,3:2|0:0,0:0:0:0:
371,333,132380,22,0,P|359:299|298:254,1,75.000002861023,10|0,0:0|0:0,0:0:0:0:
260,304,132574,2,0,P|228:286|152:298,1,75.000002861023,2|0,3:2|0:0,0:0:0:0:
25,244,132767,6,0,P|36:210|97:165,1,75.000002861023,2|0,0:0|0:0,0:0:0:0:
136,215,132961,2,0,P|167:197|243:209,1,75.000002861023,2|0,0:0|0:0,0:0:0:0:
128,48,133155,6,0,P|117:83|121:120,1,75.000002861023,2|0,3:2|0:0,0:0:0:0:
274,134,133542,2,0,P|284:98|280:61,1,75.000002861023,2|0,0:0|0:0,0:0:0:0:
35,129,133929,22,0,P|27:163|58:233,1,75.000002861023,10|0,0:0|0:0,0:0:0:0:
116,209,134122,2,0,P|134:240|206:267,1,75.000002861023,2|0,0:0|0:0,0:0:0:0:
246,372,134316,6,0,P|238:337|269:267,1,75.000002861023,2|0,3:2|0:0,0:0:0:0:
327,292,134509,2,0,P|345:260|417:233,1,75.000002861023,2|0,0:0|0:0,0:0:0:0:
480,329,134703,6,0,P|442:333|407:322,1,75.000002861023,2|0,0:0|0:0,0:0:0:0:
428,123,135090,2,0,P|465:118|500:129,1,75.000002861023,2|0,3:2|0:0,0:0:0:0:
273,384,135477,22,0,P|303:366|334:296,1,75.000002861023,10|0,0:0|0:0,0:0:0:0:
278,270,135670,2,0,P|288:235|261:163,1,75.000002861023,2|0,3:2|0:0,0:0:0:0:
301,40,135864,6,0,P|309:74|282:145,1,75.000002861023,2|0,3:2|0:0,0:0:0:0:
223,124,136058,2,0,P|206:156|135:187,1,75.000002861023,2|0,0:0|0:0,0:0:0:0:
63,125,136251,38,0,P|91:104|168:104,1,75.000002861023,2|0,3:2|0:0,0:0:0:0:
68,279,136445,2,0,P|73:244|127:190,1,75.000002861023,2|0,0:0|0:0,0:0:0:0:
180,384,136638,6,0,P|159:355|159:278,1,75.000002861023,2|0,0:0|0:0,0:0:0:0:
334,379,136832,2,0,P|299:373|245:319,1,75.000002861023,2|0,0:0|0:0,0:0:0:0:
232,40,137026,38,0,P|201:19|165:13,1,75.000002861023,10|0,0:0|0:0,0:0:0:0:
350,74,137220,2,0,P|343:37|322:7,1,75.000002861023,2|0,0:0|0:0,0:0:0:0:
406,179,137413,6,0,P|427:148|434:112,1,75.000002861023,2|0,3:2|0:0,0:0:0:0:
371,294,137607,2,0,P|408:287|439:266,1,75.000002861023,2|0,0:0|0:0,0:0:0:0:
317,157,137800,6,0,P|321:194|310:229,1,75.000002861023,2|0,0:0|0:0,0:0:0:0:
147,215,138187,2,0,P|142:177|153:142,1,75.000002861023,2|0,3:2|0:0,0:0:0:0:
395,13,138574,22,0,P|392:48|344:107,1,75.000002861023,10|0,0:0|0:0,0:0:0:0:
295,69,138767,2,0,P|269:94|192:102,1,75.000002861023,2|0,0:0|0:0,0:0:0:0:
58,106,138961,6,0,P|60:141|108:200,1,75.000002861023,2|0,0:0|0:0,0:0:0:0:
158,162,139154,2,0,P|183:187|260:195,1,75.000002861023
482,336,139348,38,0,P|479:300|431:241,1,75.000002861023,2|0,3:2|0:0,0:0:0:0:
305,184,139542,2,0,P|307:219|355:278,1,75.000002861023,2|0,0:0|0:0,0:0:0:0:
316,347,139735,6,0,P|354:345|387:328,1,75.000002861023,2|0,0:0|0:0,0:0:0:0:
469,171,139929,2,0,P|432:174|399:191,1,75.000002861023,2|0,0:0|0:0,0:0:0:0:
50,308,140122,38,0,P|52:270|69:237,1,75.000002861023,10|0,0:0|0:0,0:0:0:0:
234,95,140316,2,0,P|231:133|214:166,1,75.000002861023,2|0,0:0|0:0,0:0:0:0:
248,293,140509,6,0,P|210:291|177:274,1,75.000002861023,2|0,3:2|0:0,0:0:0:0:
36,110,140703,2,0,P|73:112|106:129,1,75.000002861023,2|0,0:0|0:0,0:0:0:0:
326,101,140897,6,0,P|328:63|345:30,1,75.000002861023,2|0,0:0|3:0,0:0:0:0:
512,85,141284,2,0,P|509:122|492:155,1,75.000002861023,2|0,3:2|0:0,0:0:0:0:
190,366,141671,6,0,P|172:332|170:295,1,75.000002861023,2|0,0:0|3:0,0:0:0:0:
336,241,142058,2,0,P|353:274|355:311,1,75.000002861023,2|0,3:2|0:0,0:0:0:0:
344,372,148638,38,0,P|378:370|438:322,1,75.000002861023,6|0,3:2|0:0,0:0:0:0:
399,272,148832,2,0,P|423:246|431:170,1,75.000002861023,2|0,0:0|0:0,0:0:0:0:
369,162,149025,2,0,P|367:127|319:67,1,75.000002861023,2|0,0:0|0:0,0:0:0:0:
341,94,149413,6,0,P|328:126|264:168,1,75.000002861023,10|0,0:0|0:0,0:0:0:0:
228,116,149606,2,0,P|196:131|121:115,1,75.000002861023,2|0,0:0|0:0,0:0:0:0:
134,53,149800,2,0,P|101:40|59:-23,1,75.000002861023,2|0,3:2|0:0,0:0:0:0:
65,13,150187,6,0,L|63:22,1,9.99999999999999,0|0,1:0|0:0,0:0:0:0:
217,59,150380,2,0,L|215:68,1,9.99999999999999,0|0,1:0|0:0,0:0:0:0:
0,171,150574,6,0,L|2:180,1,9.99999999999999,0|0,1:0|0:0,0:0:0:0:
202,144,150767,2,0,L|204:153,1,9.99999999999999,0|0,1:0|0:0,0:0:0:0:
50,359,150961,38,0,L|59:361,1,9.99999999999999,8|0,1:0|0:0,0:0:0:0:
77,136,151155,2,0,L|86:138,1,9.99999999999999,0|0,1:0|0:0,0:0:0:0:
217,321,151348,6,0,L|226:319,1,9.99999999999999,0|0,1:0|0:0,0:0:0:0:
207,230,151542,2,0,L|216:228,1,9.99999999999999,0|0,1:0|0:0,0:0:0:0:
469,338,151735,6,0,P|441:357|364:358,1,75.000002861023,6|0,3:2|0:0,0:0:0:0:
363,295,151929,2,0,P|327:289|273:235,1,75.000002861023,2|0,0:0|0:0,0:0:0:0:
317,190,152122,2,0,P|296:161|296:84,1,75.000002861023,2|0,0:0|0:0,0:0:0:0:
294,114,152509,6,0,P|266:94|189:93,1,75.000002861023,10|0,0:0|0:0,0:0:0:0:
188,157,152703,2,0,P|152:162|98:216,1,75.000002861023,2|0,0:0|0:0,0:0:0:0:
142,262,152896,2,0,P|121:290|121:367,1,75.000002861023,2|0,3:2|0:0,0:0:0:0:
108,338,153284,6,0,L|117:340,1,9.99999999999999,0|0,1:0|0:0,0:0:0:0:
130,217,153477,2,0,L|139:219,1,9.99999999999999,0|0,1:0|0:0,0:0:0:0:
258,379,153671,6,0,L|267:377,1,9.99999999999999,0|0,1:0|0:0,0:0:0:0:
219,139,153864,2,0,L|228:137,1,9.99999999999999,0|0,1:0|0:0,0:0:0:0:
488,340,154058,38,0,L|490:331,1,9.99999999999999,8|0,1:0|0:0,0:0:0:0:
319,318,154251,2,0,L|321:309,1,9.99999999999999,0|0,1:0|0:0,0:0:0:0:
475,209,154445,6,0,L|473:200,1,9.99999999999999,0|0,1:0|0:0,0:0:0:0:
349,228,154638,2,0,L|347:219,1,9.99999999999999,0|0,1:0|0:0,0:0:0:0:
391,57,154832,6,0,P|396:90|361:159,1,75.000002861023,6|0,3:2|0:0,0:0:0:0:
304,131,155025,2,0,P|283:159|210:183,1,75.000002861023,2|0,0:0|0:0,0:0:0:0:
190,125,155219,2,0,P|155:130|86:95,1,75.000002861023,2|0,0:0|0:0,0:0:0:0:
117,112,155606,6,0,P|88:130|60:202,1,75.000002861023,10|0,0:0|0:0,0:0:0:0:
119,226,155800,2,0,P|111:260|142:330,1,75.000002861023,2|0,0:0|0:0,0:0:0:0:
250,320,155993,38,0,P|221:301|193:229,1,75.000002861023,2|0,3:2|0:0,0:0:0:0:
252,206,156187,2,0,P|244:171|275:101,1,75.000002861023,2|0,0:0|0:0,0:0:0:0:
481,53,156380,22,0,L|479:62,1,9.99999999999999,0|0,1:0|0:0,0:0:0:0:
322,28,156574,2,0,L|320:37,1,9.99999999999999,0|0,1:0|0:0,0:0:0:0:
510,152,156767,6,0,L|512:161,1,9.99999999999999,0|0,1:0|0:0,0:0:0:0:
280,170,156961,2,0,L|282:179,1,9.99999999999999,0|0,1:0|0:0,0:0:0:0:
396,358,157155,38,0,L|387:356,1,9.99999999999999,8|0,1:0|0:0,0:0:0:0:
427,123,157348,2,0,L|418:121,1,9.99999999999999,0|0,1:0|0:0,0:0:0:0:
224,303,157542,6,0,L|215:305,1,9.99999999999999,0|0,1:0|0:0,0:0:0:0:
202,190,157735,2,0,L|193:192,1,9.99999999999999,0|0,1:0|0:0,0:0:0:0:
47,254,157929,6,0,P|71:277|147:290,1,75.000002861023,6|0,3:2|0:0,0:0:0:0:
158,227,158122,2,0,P|193:227|255:182,1,75.000002861023,2|0,0:0|0:0,0:0:0:0:
220,131,158316,2,0,P|244:106|257:30,1,75.000002861023,2|0,0:0|0:0,0:0:0:0:
266,63,158703,6,0,P|241:39|165:26,1,75.000002861023,10|0,0:0|0:0,0:0:0:0:
155,90,158896,2,0,P|119:89|57:134,1,75.000002861023,2|0,0:0|0:0,0:0:0:0:
309,227,159090,38,0,P|333:203|409:190,1,75.000002861023,2|0,3:2|0:0,0:0:0:0:
420,254,159283,2,0,P|455:253|517:298,1,75.000002861023,2|0,0:0|0:0,0:0:0:0:
479,37,159477,22,0,L|494:41,1,9.99999999999999,0|0,1:0|0:0,0:0:0:0:
458,167,159671,2,0,L|467:169,1,9.99999999999999,0|0,1:0|0:0,0:0:0:0:
308,68,159864,6,0,L|323:64,1,9.99999999999999,0|0,1:0|0:0,0:0:0:0:
325,164,160058,2,0,L|340:160,1,9.99999999999999,0|0,1:0|0:0,0:0:0:0:
212,39,160251,38,0,L|221:41,1,9.99999999999999,8|0,1:0|0:0,0:0:0:0:
184,269,160445,2,0,L|193:271,1,9.99999999999999,0|0,1:0|0:0,0:0:0:0:
39,19,160638,6,0,L|54:15,1,9.99999999999999,0|0,1:0|0:0,0:0:0:0:
84,373,160832,2,0,L|99:369,1,9.99999999999999,0|0,1:0|0:0,0:0:0:0:
148,305,161026,6,0,P|172:328|248:341,1,75.000002861023,2|0,3:2|0:0,0:0:0:0:
219,339,161413,2,0,P|243:315|319:302,1,75.000002861023,6|0,0:0|0:0,0:0:0:0:
289,308,161800,6,0,P|320:320|395:300,1,75.000002861023,10|0,0:0|0:0,0:0:0:0:
379,238,161993,2,0,P|411:224|449:157,1,75.000002861023,2|0,0:0|0:0,0:0:0:0:
397,125,162187,2,0,P|409:92|389:17,1,75.000002861023,2|0,3:2|0:0,0:0:0:0:
399,47,162574,6,0,L|397:56,1,9.99999999999999,0|0,1:0|0:0,0:0:0:0:
287,28,162767,2,0,L|285:37,1,9.99999999999999,0|0,1:0|0:0,0:0:0:0:
308,199,162961,6,0,L|306:190,1,9.99999999999999,0|0,1:0|0:0,0:0:0:0:
111,236,163155,2,0,L|109:227,1,9.99999999999999,0|0,1:0|0:0,0:0:0:0:
217,83,163348,6,0,L|208:81,2,9.99999999999999,8|0|0,1:0|3:0|0:0,0:0:0:0:
217,83,164122,22,0,L|208:81,1,9.99999999999999,4|0,1:2|0:0,0:0:0:0:
184,305,164316,2,0,L|175:303,1,9.99999999999999,0|0,1:0|0:0,0:0:0:0:
51,73,164509,6,0,L|60:71,1,9.99999999999999,0|0,1:0|0:0,0:0:0:0:
83,209,164703,2,0,L|92:207,1,9.99999999999999,0|0,1:0|0:0,0:0:0:0:
139,125,164897,6,0,L|137:116,1,9.99999999999999,8|0,1:0|3:0,0:0:0:0:
137,116,165671,22,0,L|139:125,1,9.99999999999999,0|0,1:0|0:0,0:0:0:0:
281,84,165864,2,0,L|283:93,1,9.99999999999999,0|0,1:0|0:0,0:0:0:0:
177,232,166058,6,0,L|179:223,1,9.99999999999999,0|0,1:0|0:0,0:0:0:0:
366,258,166251,2,0,L|368:249,1,9.99999999999999,0|0,1:0|0:0,0:0:0:0:
254,174,166445,6,0,L|264:172,2,9.99999999999999,8|0|0,1:0|3:0|3:0,0:0:0:0:
254,174,167219,22,0,L|264:172,1,9.99999999999999,4|0,1:2|0:0,0:0:0:0:
302,384,167413,2,0,L|312:382,1,9.99999999999999,0|0,1:0|0:0,0:0:0:0:
472,209,167606,6,0,L|462:207,1,9.99999999999999,0|0,1:0|0:0,0:0:0:0:
453,345,167800,2,0,L|443:343,1,9.99999999999999,0|0,1:0|0:0,0:0:0:0:
318,239,167993,6,0,L|320:249,1,9.99999999999999,8|0,1:0|3:0,0:0:0:0:
320,249,168767,22,0,L|318:239,1,9.99999999999999,0|0,1:0|0:0,0:0:0:0:
169,282,168961,2,0,L|167:272,1,9.99999999999999,0|0,1:0|0:0,0:0:0:0:
270,98,169155,6,0,L|268:108,1,9.99999999999999,0|0,1:0|0:0,0:0:0:0:
39,81,169348,2,0,L|37:91,1,9.99999999999999,0|0,1:0|0:0,0:0:0:0:
186,198,169542,6,0,L|176:196,2,9.99999999999999,8|0|0,1:0|3:0|0:0,0:0:0:0:
186,198,170316,22,0,L|176:196,1,9.99999999999999,4|0,1:2|0:0,0:0:0:0:
207,17,170509,2,0,L|197:15,1,9.99999999999999,0|0,1:0|0:0,0:0:0:0:
51,182,170703,6,0,L|61:180,1,9.99999999999999,0|0,1:0|0:0,0:0:0:0:
31,48,170897,2,0,L|41:46,1,9.99999999999999,0|0,1:0|0:0,0:0:0:0:
162,102,171090,6,0,L|160:92,1,9.99999999999999,8|0,1:0|3:0,0:0:0:0:
360,136,173509,6,0,L|362:146,1,9.99999999999999
