osu file format v14

[General]
AudioFilename: audio.mp3
AudioLeadIn: 0
PreviewTime: 26219
Countdown: 0
SampleSet: Soft
StackLeniency: 0.4
Mode: 0
LetterboxInBreaks: 0
WidescreenStoryboard: 0

[Editor]
Bookmarks: 24767,49542,80509,86703,111477,117671,142445,148638,173413
DistanceSpacing: 1.7
BeatDivisor: 4
GridSize: 16
TimelineZoom: 1.7

[Metadata]
Title:XO TOUR Llif3
TitleUnicode:XO TOUR Llif3
Artist:Lil Uzi Vert
ArtistUnicode:Lil Uzi Vert
Creator:Macy
Version:Insane
Source:
Tags:rap hip hop lil uzi vert xo tour life llif3
BeatmapID:1270999
BeatmapSetID:601677

[Difficulty]
HPDrainRate:5.5
CircleSize:4.1
OverallDifficulty:7.5
ApproachRate:9
SliderMultiplier:2
SliderTickRate:1

[Events]
//Background and Video events
0,0,"sx.jpg",0,0
Video,-207,"(1) Lil Uzi Vert - XO Tour Llif3 (Official Lyric Video) (1).mp4"
//Break Periods
2,111677,117071
2,142645,147090
//Storyboard Layer 0 (Background)
//Storyboard Layer 1 (Fail)
//Storyboard Layer 2 (Pass)
//Storyboard Layer 3 (Foreground)
//Storyboard Sound Samples

[TimingPoints]
24768,387.096774193548,4,2,1,80,1,0
49350,-100,4,2,1,5,0,0
49544,-100,4,2,1,80,0,0
86703,-100,4,2,1,80,0,1
109929,-100,4,2,1,80,0,0
148638,-100,4,2,1,80,0,1
171864,-100,4,2,1,80,0,0

[Colours]
Combo1 : 207,205,205
Combo2 : 128,0,255
Combo3 : 254,35,112
Combo4 : 126,136,254

[HitObjects]
126,188,24767,5,4,0:0:0:0:
283,160,24961,1,0,0:0:0:0:
110,190,25155,6,0,L|220:170,1,100
437,203,25542,1,8,0:0:0:0:
437,203,25639,1,0,0:0:0:0:
437,203,25735,1,0,0:0:0:0:
332,287,25929,2,0,L|221:306,1,100,4|0,0:0|0:0,0:0:0:0:
110,190,26316,5,0,0:0:0:0:
283,160,26510,1,0,0:0:0:0:
124,66,26703,1,4,0:0:0:0:
116,181,26897,1,0,0:0:0:0:
224,39,27090,2,0,P|280:28|340:34,1,100,8|4,0:0|0:0,0:0:0:0:
381,174,27477,2,0,L|267:157,1,100
455,31,27864,6,0,L|480:247,1,200,4|0,0:0|0:0,0:0:0:0:
361,365,28445,1,0,0:0:0:0:
388,164,28639,1,8,0:0:0:0:
450,308,28832,1,0,0:0:0:0:
450,308,28929,1,0,0:0:0:0:
450,308,29026,1,4,0:0:0:0:
263,243,29219,1,0,0:0:0:0:
388,164,29413,6,0,L|496:172,1,100
342,48,29800,2,0,P|293:41|242:47,1,100,4|0,0:0|0:0,0:0:0:0:
116,146,30187,1,8,0:0:0:0:
213,233,30381,1,4,0:0:0:0:
101,133,30574,1,4,0:0:0:0:
108,322,30768,1,0,0:0:0:0:
251,142,30961,6,0,P|355:127|458:137,1,200,4|0,0:0|0:0,0:0:0:0:
348,289,31542,1,0,0:0:0:0:
251,142,31735,1,8,0:0:0:0:
251,142,31832,1,0,0:0:0:0:
251,142,31929,1,0,0:0:0:0:
242,319,32123,1,4,0:0:0:0:
388,220,32316,1,0,0:0:0:0:
329,342,32510,5,0,0:0:0:0:
366,114,32703,1,0,0:0:0:0:
455,304,32897,2,0,P|464:257|464:201,1,100,4|0,0:0|0:0,0:0:0:0:
307,158,33284,1,8,0:0:0:0:
449,118,33477,1,4,0:0:0:0:
298,258,33671,1,4,0:0:0:0:
298,258,33767,1,0,0:0:0:0:
298,258,33864,1,0,0:0:0:0:
113,143,34058,6,0,B|190:112|238:192|306:157,1,200,4|0,0:0|0:0,0:0:0:0:
351,313,34639,1,0,0:0:0:0:
204,266,34832,2,0,P|156:249|115:221,1,100,8|0,0:0|0:0,0:0:0:0:
61,77,35219,1,4,0:0:0:0:
158,102,35413,1,0,0:0:0:0:
255,127,35606,5,0,0:0:0:0:
115,221,35800,1,4,0:0:0:0:
126,24,35993,1,4,0:0:0:0:
219,205,36187,1,0,0:0:0:0:
69,88,36381,1,8,0:0:0:0:
112,227,36574,1,4,0:0:0:0:
281,147,36768,1,4,0:0:0:0:
281,147,36864,1,4,0:0:0:0:
281,147,36961,1,4,0:0:0:0:
153,13,37155,6,0,P|81:62|85:183,1,200,4|0,0:0|0:0,0:0:0:0:
209,247,37929,1,8,0:0:0:0:
209,247,38026,1,0,0:0:0:0:
209,247,38123,1,0,0:0:0:0:
281,147,38316,2,0,L|302:47,1,100,4|0,0:0|0:0,0:0:0:0:
167,128,38703,5,0,0:0:0:0:
217,274,38897,1,0,0:0:0:0:
274,154,39090,1,4,0:0:0:0:
104,187,39284,1,0,0:0:0:0:
227,279,39477,2,0,L|355:290,1,100,8|4,0:0|0:0,0:0:0:0:
456,245,39864,1,0,0:0:0:0:
387,62,40058,1,0,0:0:0:0:
270,174,40252,5,4,0:0:0:0:
447,237,40445,1,0,0:0:0:0:
388,82,40639,1,0,0:0:0:0:
334,276,40832,1,0,0:0:0:0:
461,152,41026,2,0,L|481:48,1,100,8|0,0:0|0:0,0:0:0:0:
479,53,41316,1,0,0:0:0:0:
479,53,41413,1,4,0:0:0:0:
322,11,41606,1,0,0:0:0:0:
280,169,41800,5,0,0:0:0:0:
379,91,41993,1,0,0:0:0:0:
198,36,42187,1,4,0:0:0:0:
291,184,42381,1,0,0:0:0:0:
323,2,42574,1,8,0:0:0:0:
221,147,42768,1,4,0:0:0:0:
115,138,42961,2,0,L|7:126,1,100,4|0,0:0|0:0,0:0:0:0:
94,255,43348,5,4,0:0:0:0:
243,307,43542,1,0,0:0:0:0:
157,141,43735,1,0,0:0:0:0:
141,350,43929,1,0,0:0:0:0:
304,230,44122,1,8,0:0:0:0:
304,230,44219,1,0,0:0:0:0:
304,230,44316,1,0,0:0:0:0:
399,103,44510,2,0,L|499:91,1,100,4|0,0:0|0:0,0:0:0:0:
355,164,44897,5,0,0:0:0:0:
411,352,45090,1,0,0:0:0:0:
285,221,45284,1,4,0:0:0:0:
272,378,45477,1,0,0:0:0:0:
429,269,45671,2,0,L|464:165,1,100,8|4,0:0|0:0,0:0:0:0:
366,52,46058,1,4,0:0:0:0:
366,52,46155,1,4,0:0:0:0:
366,52,46252,1,4,0:0:0:0:
254,172,46445,5,4,0:0:0:0:
359,60,46639,1,0,0:0:0:0:
167,114,46832,1,0,0:0:0:0:
372,191,47026,1,0,0:0:0:0:
239,2,47219,1,8,0:0:0:0:
256,188,47413,1,0,0:0:0:0:
256,188,47510,1,0,0:0:0:0:
256,188,47606,1,4,0:0:0:0:
355,66,47800,1,0,0:0:0:0:
256,192,47993,12,0,49348,0:0:0:0:
177,222,49542,5,4,0:0:0:0:
290,234,49735,1,0,0:0:0:0:
302,121,49929,1,0,0:0:0:0:
189,109,50123,1,0,0:0:0:0:
86,240,50316,2,0,L|140:340,1,100,8|0,0:0|0:0,0:0:0:0:
279,377,50703,2,0,L|225:277,1,100,4|0,0:0|0:0,0:0:0:0:
173,211,51090,5,0,0:0:0:0:
286,223,51284,1,0,0:0:0:0:
399,235,51477,2,0,L|517:248,1,100,4|0,0:0|0:0,0:0:0:0:
353,132,51864,2,0,L|471:145,1,100,8|4,0:0|0:0,0:0:0:0:
389,232,52252,1,0,0:0:0:0:
276,220,52445,1,0,0:0:0:0:
366,113,52639,5,4,0:0:0:0:
479,125,52832,1,0,0:0:0:0:
389,232,53026,1,0,0:0:0:0:
363,98,53219,1,0,0:0:0:0:
482,216,53413,2,0,P|484:273|468:331,1,100,8|0,0:0|0:0,0:0:0:0:
340,294,53800,2,0,P|313:344|270:387,1,100,4|0,0:0|0:0,0:0:0:0:
163,349,54187,5,0,0:0:0:0:
195,172,54381,1,0,0:0:0:0:
332,288,54574,1,4,0:0:0:0:
179,260,54768,1,0,0:0:0:0:
279,141,54961,1,8,0:0:0:0:
255,274,55155,1,4,0:0:0:0:
102,246,55348,2,0,L|1:228,1,100,4|0,0:0|0:0,0:0:0:0:
115,134,55735,5,4,0:0:0:0:
213,215,55929,1,0,0:0:0:0:
217,70,56123,1,0,0:0:0:0:
99,143,56316,1,0,0:0:0:0:
173,290,56510,2,0,L|288:296,1,100,8|0,0:0|0:0,0:0:0:0:
391,224,56897,2,0,L|276:218,1,100,4|0,0:0|0:0,0:0:0:0:
189,142,57284,5,0,0:0:0:0:
326,88,57477,1,0,0:0:0:0:
278,232,57671,1,4,0:0:0:0:
243,75,57864,1,0,0:0:0:0:
376,160,58058,2,0,L|488:164,1,100,8|4,0:0|0:0,0:0:0:0:
512,266,58445,2,0,L|400:262,1,100
335,328,58832,6,0,L|279:326,1,50,4|0,0:0|0:0,0:0:0:0:
171,249,59026,2,0,L|227:251,1,50
323,215,59219,1,0,0:0:0:0:
323,215,59316,1,0,0:0:0:0:
323,215,59413,2,0,L|379:217,1,50
487,149,59606,2,0,P|438:118|380:103,1,100,8|0,0:0|0:0,0:0:0:0:
323,34,59993,2,0,P|266:32|208:48,1,100,4|0,0:0|0:0,0:0:0:0:
137,120,60381,6,0,L|131:174,1,50
205,272,60574,2,0,L|211:218,1,50,4|0,0:0|0:0,0:0:0:0:
320,150,60768,1,4,0:0:0:0:
320,150,60864,1,0,0:0:0:0:
320,150,60961,2,0,L|314:204,1,50
298,345,61155,1,8,0:0:0:0:
220,230,61348,1,4,0:0:0:0:
377,272,61542,1,4,0:0:0:0:
377,272,61639,1,4,0:0:0:0:
377,272,61735,1,4,0:0:0:0:
221,362,61929,6,0,L|140:367,2,66.6666666666667,4|0|0,0:0|0:0|0:0,0:0:0:0:
302,276,62316,2,0,L|383:271,2,66.6666666666667
221,190,62703,2,0,L|140:195,2,66.6666666666667,8|0|0,0:0|0:0|0:0,0:0:0:0:
302,104,63090,2,0,P|362:88|450:92,1,133.333333333333,4|0,0:0|0:0,0:0:0:0:
488,162,63477,6,0,P|476:195|449:241,2,66.6666666666667
319,236,63864,2,0,P|330:204|345:174,2,66.6666666666667,4|0|0,0:0|0:0|0:0,0:0:0:0:
259,317,64252,2,0,L|126:333,1,133.333333333333,8|0,0:0|0:0,0:0:0:0:
12,263,64639,2,0,L|144:246,1,133.333333333333
221,165,65026,6,0,L|270:158,2,50,4|0|0,0:0|0:0|0:0,0:0:0:0:
316,77,65413,2,0,L|423:64,1,100
505,149,65800,1,8,0:0:0:0:
411,204,65993,1,0,0:0:0:0:
317,259,66187,2,0,P|267:261|218:250,1,100,4|0,0:0|0:0,0:0:0:0:
159,177,66574,6,0,L|153:93,2,66.6666666666667
256,98,66961,2,0,L|256:32,2,66.6666666666667,4|0|0,0:0|0:0|0:0,0:0:0:0:
353,177,67348,2,0,L|359:93,2,66.6666666666667,8|0|0,0:0|0:0|0:0,0:0:0:0:
256,240,67735,2,0,L|256:352,1,100
127,341,68122,5,4,0:0:0:0:
129,319,68251,2,0,P|140:289|160:258,1,66.6666666666667
105,200,68509,1,0,0:0:0:0:
119,185,68638,2,0,P|146:169|181:158,1,66.6666666666667
176,77,68896,1,8,0:0:0:0:
196,75,69025,2,0,P|227:80|261:94,1,66.6666666666667
366,148,69284,2,0,P|394:160|424:182,2,66.6666666666667,4|0|0,0:0|0:0|0:0,0:0:0:0:
263,198,69671,6,0,L|173:150,2,66.6666666666667
274,307,70058,2,0,L|364:355,2,66.6666666666667,4|0|0,0:0|0:0|0:0,0:0:0:0:
159,370,70445,2,0,P|90:365|23:344,1,133.333333333333,8|0,0:0|0:0,0:0:0:0:
4,238,70832,2,0,L|147:245,1,133.333333333333
221,202,71219,5,4,0:0:0:0:
331,87,71412,1,0,0:0:0:0:
319,226,71606,1,0,0:0:0:0:
235,65,71800,1,0,0:0:0:0:
410,135,71993,2,0,P|422:184|425:234,1,100,8|0,0:0|0:0,0:0:0:0:
318,336,72380,2,0,P|305:283|303:232,1,100,4|0,0:0|0:0,0:0:0:0:
327,100,72767,5,0,0:0:0:0:
427,144,72961,1,4,0:0:0:0:
485,286,73154,1,4,0:0:0:0:
385,242,73348,1,0,0:0:0:0:
505,115,73541,1,8,0:0:0:0:
482,272,73735,1,4,0:0:0:0:
341,165,73929,1,4,0:0:0:0:
341,165,74025,1,4,0:0:0:0:
341,165,74122,1,4,0:0:0:0:
186,264,74316,6,0,L|396:240,1,200,4|0,0:0|0:0,0:0:0:0:
486,140,74896,1,0,0:0:0:0:
366,57,75090,2,0,P|316:60|267:71,1,100,8|0,0:0|0:0,0:0:0:0:
150,237,75477,2,0,L|270:223,1,100,4|0,0:0|0:0,0:0:0:0:
356,166,75864,5,0,0:0:0:0:
233,93,76058,1,0,0:0:0:0:
130,228,76251,1,4,0:0:0:0:
239,172,76445,1,0,0:0:0:0:
81,107,76638,1,8,0:0:0:0:
138,241,76832,2,0,L|180:332,2,100,4|0|0,0:0|0:0|0:0,0:0:0:0:
23,171,77412,6,0,P|45:262|109:355,1,200,4|0,0:0|0:0,0:0:0:0:
250,380,77993,1,0,0:0:0:0:
280,241,78187,2,0,P|285:194|277:138,1,100,8|0,0:0|0:0,0:0:0:0:
154,37,78574,2,0,P|140:82|139:138,1,100,4|0,0:0|0:0,0:0:0:0:
119,260,78961,5,0,0:0:0:0:
246,240,79154,1,0,0:0:0:0:
148,129,79348,1,4,0:0:0:0:
113,272,79541,1,0,0:0:0:0:
240,142,79735,1,8,0:0:0:0:
254,316,79929,1,4,0:0:0:0:
105,192,80122,2,0,L|-7:203,1,100,4|0,0:0|0:0,0:0:0:0:
65,91,80509,5,4,0:0:0:0:
147,288,80703,1,0,0:0:0:0:
172,127,80896,1,0,0:0:0:0:
16,254,81090,1,0,0:0:0:0:
170,296,81283,1,8,0:0:0:0:
89,172,81477,1,0,0:0:0:0:
64,374,81671,1,4,0:0:0:0:
214,189,81864,1,0,0:0:0:0:
342,285,82058,5,0,0:0:0:0:
182,295,82251,1,0,0:0:0:0:
244,108,82445,1,4,0:0:0:0:
395,134,82638,1,0,0:0:0:0:
256,234,82832,1,8,0:0:0:0:
349,24,83025,1,4,0:0:0:0:
446,248,83219,2,0,P|439:307|426:350,1,100,4|0,0:0|0:0,0:0:0:0:
284,376,83606,5,4,0:0:0:0:
353,140,83800,1,0,0:0:0:0:
454,262,83993,1,0,0:0:0:0:
226,293,84187,1,0,0:0:0:0:
367,124,84380,1,8,0:0:0:0:
344,334,84574,1,0,0:0:0:0:
231,167,84767,1,4,0:0:0:0:
386,114,84961,1,0,0:0:0:0:
241,281,85154,5,0,0:0:0:0:
290,31,85348,1,4,0:0:0:0:
351,211,85541,1,4,0:0:0:0:
177,66,85735,1,0,0:0:0:0:
402,109,85929,1,8,0:0:0:0:
228,294,86122,1,4,0:0:0:0:
154,50,86316,1,4,0:0:0:0:
154,50,86412,1,4,0:0:0:0:
154,50,86509,1,4,0:0:0:0:
384,222,86703,6,0,B|256:254|320:190|144:222,1,200,4|0,0:0|0:0,0:0:0:0:
68,303,87283,1,0,0:0:0:0:
226,340,87477,2,0,L|336:330,1,100,8|0,0:0|0:0,0:0:0:0:
384,222,87864,2,0,L|274:232,1,100,4|0,0:0|0:0,0:0:0:0:
215,355,88251,5,0,0:0:0:0:
351,320,88445,1,0,0:0:0:0:
212,212,88638,1,4,0:0:0:0:
215,344,88832,1,0,0:0:0:0:
401,201,89025,1,8,0:0:0:0:
201,213,89219,1,4,0:0:0:0:
360,328,89412,2,0,P|413:323|470:309,1,100
383,196,89800,6,0,B|304:182|304:182|259:158|259:158|180:144,1,200,4|0,0:0|0:0,0:0:0:0:
47,73,90381,1,0,0:0:0:0:
204,161,90574,1,8,0:0:0:0:
173,46,90768,1,0,0:0:0:0:
173,46,90864,1,0,0:0:0:0:
173,46,90961,1,4,0:0:0:0:
112,214,91155,1,0,0:0:0:0:
283,91,91348,6,0,P|331:85|390:87,1,100
443,242,91735,2,0,P|395:231|341:209,1,100,4|0,0:0|0:0,0:0:0:0:
271,75,92123,1,8,0:0:0:0:
447,80,92316,1,4,0:0:0:0:
321,207,92510,1,4,0:0:0:0:
331,0,92703,1,0,0:0:0:0:
509,188,92897,6,0,P|412:170|314:211,1,200,4|0,0:0|0:0,0:0:0:0:
271,362,93477,1,0,0:0:0:0:
205,243,93671,1,8,0:0:0:0:
205,243,93767,1,0,0:0:0:0:
205,243,93864,2,0,P|196:194|194:145,2,100,0|4|0,0:0|0:0|0:0,0:0:0:0:
256,356,94445,5,0,0:0:0:0:
319,243,94639,1,0,0:0:0:0:
223,157,94832,1,4,0:0:0:0:
160,270,95026,1,0,0:0:0:0:
2,297,95219,1,8,0:0:0:0:
113,207,95413,1,4,0:0:0:0:
97,371,95606,1,4,0:0:0:0:
97,371,95703,1,0,0:0:0:0:
97,371,95800,1,0,0:0:0:0:
21,182,95993,6,0,P|30:102|101:5,1,200,4|0,0:0|0:0,0:0:0:0:
245,2,96574,1,0,0:0:0:0:
365,98,96768,2,0,P|363:146|352:204,1,100,8|0,0:0|0:0,0:0:0:0:
353,197,97058,1,0,0:0:0:0:
353,197,97155,1,4,0:0:0:0:
178,62,97348,1,0,0:0:0:0:
253,8,97542,5,0,0:0:0:0:
373,102,97735,1,4,0:0:0:0:
178,62,97929,1,4,0:0:0:0:
371,191,98123,1,0,0:0:0:0:
103,116,98316,1,8,0:0:0:0:
264,17,98510,1,4,0:0:0:0:
384,213,98703,1,4,0:0:0:0:
384,213,98800,1,4,0:0:0:0:
384,213,98897,1,4,0:0:0:0:
210,327,99090,5,4,0:0:0:0:
210,327,99477,2,0,L|322:325,1,100
487,269,99864,1,8,0:0:0:0:
487,269,100252,2,0,L|375:267,1,100,4|0,0:0|0:0,0:0:0:0:
244,216,100639,5,0,0:0:0:0:
487,269,100832,1,0,0:0:0:0:
382,127,101026,1,4,0:0:0:0:
290,322,101219,1,0,0:0:0:0:
460,188,101413,2,0,P|480:135|382:27,1,200,8|0,0:0|0:0,0:0:0:0:
171,240,102187,5,4,0:0:0:0:
259,73,102381,1,0,0:0:0:0:
328,270,102574,1,0,0:0:0:0:
263,81,102768,1,0,0:0:0:0:
84,183,102961,2,0,P|69:255|152:343,1,200,8|4,0:0|0:0,0:0:0:0:
341,163,103735,5,0,0:0:0:0:
171,240,103929,1,0,0:0:0:0:
297,365,104123,1,4,0:0:0:0:
207,125,104316,1,0,0:0:0:0:
101,323,104510,2,0,L|310:367,2,200,8|0|4,0:0|0:0|0:0,0:0:0:0:
37,149,105671,5,0,0:0:0:0:
136,155,106058,2,0,L|134:204,2,50,8|0|0,0:0|0:0|0:0,0:0:0:0:
235,161,106445,1,4,0:0:0:0:
334,167,106832,5,0,0:0:0:0:
136,155,107026,1,0,0:0:0:0:
124,353,107219,1,4,0:0:0:0:
322,365,107413,1,0,0:0:0:0:
237,119,107606,2,0,P|171:54|57:84,1,200,8|0,0:0|0:0,0:0:0:0:
321,280,108381,5,4,0:0:0:0:
53,287,108574,1,0,0:0:0:0:
269,145,108768,1,0,0:0:0:0:
202,384,108961,1,0,0:0:0:0:
117,177,109155,2,0,P|105:116|109:72,1,100,8|0,0:0|0:0,0:0:0:0:
277,46,109542,2,0,P|278:108|266:150,1,100,4|0,0:0|0:0,0:0:0:0:
256,192,109929,12,0,111477,0:0:0:0:
164,184,117671,6,0,B|232:184|232:184|281:199|281:199|361:199,1,200,4|0,0:0|0:0,0:0:0:0:
487,258,118252,1,0,0:0:0:0:
350,316,118445,2,0,P|296:313|242:303,1,100,8|0,0:0|0:0,0:0:0:0:
164,184,118832,2,0,P|218:187|272:197,1,100,4|0,0:0|0:0,0:0:0:0:
358,324,119219,5,0,0:0:0:0:
398,215,119413,1,0,0:0:0:0:
250,305,119606,2,0,L|146:321,1,100,4|0,0:0|0:0,0:0:0:0:
40,214,119993,2,0,P|93:207|148:208,1,100,8|4,0:0|0:0,0:0:0:0:
74,384,120381,2,0,L|75:281,1,100
127,118,120768,5,4,0:0:0:0:
134,123,121155,2,0,L|240:129,1,100
428,97,121542,2,0,P|350:62|225:53,1,200,8|4,0:0|0:0,0:0:0:0:
192,194,122123,1,0,0:0:0:0:
298,171,122316,1,0,0:0:0:0:
233,59,122510,1,0,0:0:0:0:
238,278,122703,5,4,0:0:0:0:
239,290,123090,1,8,0:0:0:0:
302,162,123284,1,4,0:0:0:0:
182,198,123477,2,0,L|60:209,1,100,4|0,0:0|0:0,0:0:0:0:
161,358,123864,6,0,P|248:323|273:225,1,200,4|0,0:0|0:0,0:0:0:0:
199,95,124445,1,0,0:0:0:0:
108,188,124639,2,0,L|94:295,1,100,8|0,0:0|0:0,0:0:0:0:
199,95,125026,2,0,L|213:202,1,100,4|0,0:0|0:0,0:0:0:0:
335,214,125413,2,0,P|332:255|314:336,1,100
449,179,125800,2,0,P|451:220|469:301,1,100,4|0,0:0|0:0,0:0:0:0:
343,125,126187,6,0,P|296:116|237:114,1,100,8|4,0:0|0:0,0:0:0:0:
419,57,126574,1,4,0:0:0:0:
419,57,126671,1,4,0:0:0:0:
419,57,126768,1,4,0:0:0:0:
249,8,126961,6,0,P|161:48|143:142,1,200,4|0,0:0|0:0,0:0:0:0:
209,282,127542,1,0,0:0:0:0:
299,172,127735,2,0,L|334:71,1,100,8|0,0:0|0:0,0:0:0:0:
446,202,128123,2,0,L|345:231,1,100,4|0,0:0|0:0,0:0:0:0:
460,115,128510,5,0,0:0:0:0:
436,280,128703,1,4,0:0:0:0:
299,172,128897,2,0,L|193:176,1,100,4|0,0:0|0:0,0:0:0:0:
42,167,129284,1,8,0:0:0:0:
139,80,129477,1,4,0:0:0:0:
186,276,129671,1,4,0:0:0:0:
186,276,129768,1,4,0:0:0:0:
186,276,129864,1,4,0:0:0:0:
254,115,130058,6,0,L|459:122,2,200,4|0|8,0:0|0:0|0:0,0:0:0:0:
254,115,130929,1,0,0:0:0:0:
254,115,131026,1,0,0:0:0:0:
175,267,131219,2,0,L|75:263,1,100,4|0,0:0|0:0,0:0:0:0:
259,341,131606,6,0,L|358:337,1,100
469,229,131993,2,0,P|422:217|365:213,1,100,4|0,0:0|0:0,0:0:0:0:
248,227,132381,2,0,L|30:275,1,200,8|0,0:0|0:0,0:0:0:0:
152,345,132961,1,0,0:0:0:0:
183,156,133155,5,4,0:0:0:0:
257,238,133348,1,0,0:0:0:0:
324,106,133542,2,0,P|330:58|323:6,1,100
403,143,133929,2,0,L|438:248,1,100,8|0,0:0|0:0,0:0:0:0:
333,366,134316,2,0,P|317:318|315:268,1,100,4|0,0:0|0:0,0:0:0:0:
394,149,134703,5,0,0:0:0:0:
395,295,134897,1,0,0:0:0:0:
242,242,135090,2,0,L|136:250,1,100,4|0,0:0|0:0,0:0:0:0:
6,157,135477,1,8,0:0:0:0:
163,118,135671,1,4,0:0:0:0:
243,243,135864,2,0,P|261:298|267:353,1,100,4|0,0:0|0:0,0:0:0:0:
116,378,136252,5,4,0:0:0:0:
137,275,136445,1,0,0:0:0:0:
50,321,136639,1,0,0:0:0:0:
71,218,136832,1,0,0:0:0:0:
203,332,137026,2,0,L|310:328,1,100,8|0,0:0|0:0,0:0:0:0:
395,240,137413,2,0,L|288:244,1,100,4|0,0:0|0:0,0:0:0:0:
137,275,137800,5,0,0:0:0:0:
222,129,137993,1,0,0:0:0:0:
225,232,138187,1,4,0:0:0:0:
113,102,138381,1,0,0:0:0:0:
313,154,138574,2,0,P|358:175|408:209,1,100,8|4,0:0|0:0,0:0:0:0:
434,341,138961,1,4,0:0:0:0:
434,341,139058,1,4,0:0:0:0:
434,341,139155,1,4,0:0:0:0:
322,281,139348,5,4,0:0:0:0:
473,241,139542,1,0,0:0:0:0:
319,163,139735,1,0,0:0:0:0:
444,167,139929,1,0,0:0:0:0:
215,251,140122,2,0,L|229:149,1,100,8|0,0:0|0:0,0:0:0:0:
228,151,140413,1,0,0:0:0:0:
228,151,140509,1,4,0:0:0:0:
438,161,140703,1,0,0:0:0:0:
319,163,140897,5,0,0:0:0:0:
431,46,141090,1,4,0:0:0:0:
304,19,141284,1,4,0:0:0:0:
444,167,141477,1,0,0:0:0:0:
244,105,141671,2,0,L|143:131,1,100,8|4,0:0|0:0,0:0:0:0:
53,256,142058,1,4,0:0:0:0:
53,256,142155,1,4,0:0:0:0:
53,256,142252,1,4,0:0:0:0:
236,222,142445,5,6,0:0:0:0:
126,188,148639,5,4,0:0:0:0:
283,160,148832,1,0,0:0:0:0:
110,190,149026,6,0,L|220:170,1,100
392,88,149413,1,8,0:0:0:0:
392,88,149510,1,0,0:0:0:0:
392,88,149606,1,0,0:0:0:0:
397,226,149800,2,0,P|392:278|380:329,1,100,4|0,0:0|0:0,0:0:0:0:
219,373,150187,5,0,0:0:0:0:
256,248,150381,1,0,0:0:0:0:
381,324,150574,1,4,0:0:0:0:
226,366,150768,1,0,0:0:0:0:
345,212,150961,1,8,0:0:0:0:
310,363,151155,1,4,0:0:0:0:
181,269,151348,2,0,L|164:156,1,100
329,25,151735,6,0,L|300:223,1,200,4|0,0:0|0:0,0:0:0:0:
166,170,152316,1,0,0:0:0:0:
314,34,152510,1,8,0:0:0:0:
383,136,152703,1,0,0:0:0:0:
383,136,152800,1,0,0:0:0:0:
383,136,152897,1,4,0:0:0:0:
231,95,153090,1,0,0:0:0:0:
418,10,153284,5,0,0:0:0:0:
300,42,153477,1,0,0:0:0:0:
383,136,153671,2,0,P|391:194|392:259,1,100,4|0,0:0|0:0,0:0:0:0:
297,367,154058,1,8,0:0:0:0:
318,210,154252,1,4,0:0:0:0:
405,330,154445,2,0,L|506:305,1,100,4|0,2:0|2:0,2:0:0:0:
292,282,154832,6,0,P|195:292|93:323,1,200,4|0,0:0|0:0,0:0:0:0:
114,169,155413,1,0,0:0:0:0:
267,148,155606,1,8,0:0:0:0:
267,148,155703,1,0,0:0:0:0:
267,148,155800,1,0,0:0:0:0:
148,262,155993,2,0,L|109:156,1,100,4|0,0:0|0:0,0:0:0:0:
278,49,156381,6,0,P|268:103|267:162,1,100
312,300,156768,1,4,0:0:0:0:
375,137,156961,1,0,0:0:0:0:
212,220,157155,1,8,0:0:0:0:
321,308,157348,1,4,0:0:0:0:
276,161,157542,1,4,0:0:0:0:
276,161,157639,1,4,0:0:0:0:
276,161,157735,1,4,0:0:0:0:
124,321,157929,6,0,B|204:353|252:273|364:321,1,200,4|0,0:0|0:0,0:0:0:0:
470,337,158510,1,0,0:0:0:0:
332,214,158703,2,0,P|277:208|216:213,1,100,8|0,0:0|0:0,0:0:0:0:
400,136,159090,2,0,P|454:130|515:135,1,100,4|0,0:0|0:0,0:0:0:0:
313,36,159477,5,0,0:0:0:0:
491,51,159671,1,4,0:0:0:0:
347,182,159864,1,4,0:0:0:0:
383,2,160058,1,0,0:0:0:0:
483,200,160252,1,8,0:0:0:0:
290,110,160445,1,4,0:0:0:0:
498,51,160639,1,4,0:0:0:0:
498,51,160735,1,4,0:0:0:0:
498,51,160832,1,4,0:0:0:0:
347,182,161026,6,0,P|259:222|241:316,2,200,4|0|8,0:0|0:0|0:0,0:0:0:0:
347,182,161897,1,0,0:0:0:0:
347,182,161993,1,0,0:0:0:0:
166,179,162187,1,4,0:0:0:0:
347,182,162574,5,0,0:0:0:0:
178,178,162768,1,0,0:0:0:0:
298,93,162961,1,4,0:0:0:0:
310,279,163155,1,0,0:0:0:0:
172,171,163348,2,0,L|95:103,1,100,8|4,0:0|0:0,0:0:0:0:
250,14,163735,2,0,L|240:121,1,100
161,280,164123,5,4,0:0:0:0:
157,126,164316,1,0,0:0:0:0:
266,218,164510,1,0,0:0:0:0:
83,210,164703,1,0,0:0:0:0:
256,117,164897,2,0,P|314:118|370:131,1,100,8|0,0:0|0:0,0:0:0:0:
355,126,165187,1,0,0:0:0:0:
355,126,165284,1,4,0:0:0:0:
458,237,165477,1,0,0:0:0:0:
302,288,165671,5,0,0:0:0:0:
352,137,165864,1,0,0:0:0:0:
413,333,166058,1,4,0:0:0:0:
262,210,166252,1,0,0:0:0:0:
451,237,166445,1,8,0:0:0:0:
292,294,166639,1,4,0:0:0:0:
237,132,166832,2,0,L|126:120,1,100,4|0,0:0|0:0,0:0:0:0:
31,52,167219,5,4,0:0:0:0:
189,6,167413,1,0,0:0:0:0:
136,170,167606,1,0,0:0:0:0:
97,5,167800,1,0,0:0:0:0:
271,71,167993,1,8,0:0:0:0:
271,71,168090,1,0,0:0:0:0:
271,71,168187,1,0,0:0:0:0:
130,174,168381,2,0,L|104:65,1,100,4|0,0:0|0:0,0:0:0:0:
262,70,168768,5,0,0:0:0:0:
221,227,168961,1,0,0:0:0:0:
181,114,169155,1,4,0:0:0:0:
361,176,169348,1,0,0:0:0:0:
206,232,169542,1,8,0:0:0:0:
329,77,169735,1,4,0:0:0:0:
396,274,169929,1,4,0:0:0:0:
396,274,170026,1,4,0:0:0:0:
396,274,170123,1,4,0:0:0:0:
191,237,170316,5,4,0:0:0:0:
353,179,170510,1,0,0:0:0:0:
256,358,170703,1,0,0:0:0:0:
236,137,170897,1,0,0:0:0:0:
396,274,171090,1,8,0:0:0:0:
178,242,171284,1,0,0:0:0:0:
178,242,171381,1,0,0:0:0:0:
178,242,171477,1,4,0:0:0:0:
320,67,171671,1,0,0:0:0:0:
377,265,171864,5,0,0:0:0:0:
116,110,172058,1,0,0:0:0:0:
339,57,172252,1,0,0:0:0:0:
172,252,172446,1,0,0:0:0:0:
223,0,172639,1,0,0:0:0:0:
172,252,173413,5,6,0:0:0:0:
