osu file format v14

[General]
AudioFilename: audio.mp3
AudioLeadIn: 0
PreviewTime: -1
Countdown: 1
SampleSet: Normal
StackLeniency: 0.7
Mode: 0
LetterboxInBreaks: 0
WidescreenStoryboard: 0

[Editor]
DistanceSpacing: 0.7
BeatDivisor: 2
GridSize: 4
TimelineZoom: 1.3

[Metadata]
Title:New Patek
TitleUnicode:New Patek
Artist:Lil Uzi Vert
ArtistUnicode:Lil Uzi Vert
Creator:Blackweb
Version:anime bicthes
Source:
Tags:rap, trap, cloud rap, jump training, practice, jump, fun, practice
BeatmapID:1841133
BeatmapSetID:880457

[Difficulty]
HPDrainRate:6
CircleSize:3.5
OverallDifficulty:7
ApproachRate:8.5
SliderMultiplier:1.4
SliderTickRate:1

[Events]
//Background and Video events
0,0,"29ae1f3020c819639aeac32779f0ab17.png",0,0
//Break Periods
2,32422,34766
2,42352,44697
//Storyboard Layer 0 (Background)
//Storyboard Layer 1 (Fail)
//Storyboard Layer 2 (Pass)
//Storyboard Layer 3 (Foreground)
//Storyboard Sound Samples

[TimingPoints]
15774.0074119671,413.793103448276,4,1,0,100,1,0

[HitObjects]
328,292,9153,6,0,P|368:260|380:224,1,70
380,64,9567,1,0,0:0:0:0:
380,64,9670,1,0,0:0:0:0:
380,64,9774,1,0,0:0:0:0:
116,220,9980,5,0,0:0:0:0:
376,244,10187,1,0,0:0:0:0:
240,44,10394,1,0,0:0:0:0:
248,316,10601,1,0,0:0:0:0:
392,60,10808,1,0,0:0:0:0:
88,168,11015,1,0,0:0:0:0:
376,244,11222,1,0,0:0:0:0:
240,44,11429,1,0,0:0:0:0:
164,312,11636,5,0,0:0:0:0:
400,116,11842,1,0,0:0:0:0:
100,56,12049,1,0,0:0:0:0:
204,336,12256,1,0,0:0:0:0:
244,348,12360,1,0,0:0:0:0:
292,356,12463,5,0,0:0:0:0:
424,48,12670,1,0,0:0:0:0:
124,184,12877,1,0,0:0:0:0:
124,184,12980,1,0,0:0:0:0:
124,184,13084,1,0,0:0:0:0:
292,356,13291,5,0,0:0:0:0:
416,56,13498,1,0,0:0:0:0:
428,292,13705,1,0,0:0:0:0:
220,60,13911,1,0,0:0:0:0:
448,176,14118,1,0,0:0:0:0:
88,284,14325,1,0,0:0:0:0:
220,60,14532,2,0,P|264:36|304:28,1,70
448,176,14946,5,0,0:0:0:0:
219,61,15153,1,0,0:0:0:0:
262,293,15360,1,0,0:0:0:0:
360,67,15567,1,0,0:0:0:0:
384,56,15670,1,0,0:0:0:0:
416,52,15774,5,0,0:0:0:0:
364,336,15980,1,0,0:0:0:0:
168,100,16187,1,0,0:0:0:0:
168,100,16291,1,0,0:0:0:0:
168,100,16394,1,0,0:0:0:0:
436,204,16601,5,0,0:0:0:0:
112,260,16808,1,0,0:0:0:0:
260,40,17015,1,0,0:0:0:0:
328,328,17222,1,0,0:0:0:0:
108,120,17429,1,0,0:0:0:0:
416,132,17636,1,0,0:0:0:0:
192,328,17842,1,0,0:0:0:0:
248,24,18049,1,0,0:0:0:0:
376,284,18256,5,0,0:0:0:0:
92,104,18463,1,0,0:0:0:0:
440,184,18670,1,0,0:0:0:0:
192,328,18877,1,0,0:0:0:0:
152,320,18980,1,0,0:0:0:0:
112,292,19084,5,0,0:0:0:0:
64,80,19291,1,0,0:0:0:0:
344,36,19498,1,0,0:0:0:0:
344,36,19601,1,0,0:0:0:0:
344,36,19705,1,0,0:0:0:0:
320,316,19911,5,0,0:0:0:0:
196,40,20118,1,0,0:0:0:0:
136,312,20325,1,0,0:0:0:0:
436,104,20532,1,0,0:0:0:0:
60,248,20739,6,0,L|148:208,1,70
320,16,21153,2,0,L|304:88,1,70
288,328,21567,1,0,0:0:0:0:
168,56,21774,1,0,0:0:0:0:
108,320,21980,1,0,0:0:0:0:
436,128,22187,1,0,0:0:0:0:
436,88,22291,1,0,0:0:0:0:
424,48,22394,5,0,0:0:0:0:
124,108,22601,1,0,0:0:0:0:
264,320,22808,1,0,0:0:0:0:
264,320,22911,1,0,0:0:0:0:
264,320,23015,1,0,0:0:0:0:
372,60,23222,5,0,0:0:0:0:
256,320,23429,1,0,0:0:0:0:
468,236,23636,1,0,0:0:0:0:
124,104,23842,1,0,0:0:0:0:
384,312,24049,1,0,0:0:0:0:
264,32,24256,1,0,0:0:0:0:
128,312,24463,1,0,0:0:0:0:
436,112,24670,5,0,0:0:0:0:
80,176,24877,1,0,0:0:0:0:
436,276,25084,1,0,0:0:0:0:
204,36,25291,1,0,0:0:0:0:
160,324,25498,1,0,0:0:0:0:
192,340,25601,1,0,0:0:0:0:
228,348,25705,6,0,L|248:348,4,17.5
216,80,26118,1,0,0:0:0:0:
356,308,26325,1,0,0:0:0:0:
112,260,26532,1,0,0:0:0:0:
344,112,26739,1,0,0:0:0:0:
244,344,26946,1,0,0:0:0:0:
136,88,27153,1,0,0:0:0:0:
408,248,27360,1,0,0:0:0:0:
112,260,27567,1,0,0:0:0:0:
332,96,27774,6,0,L|360:80,4,17.5
124,56,28187,1,0,0:0:0:0:
232,300,28394,1,0,0:0:0:0:
252,36,28601,1,0,0:0:0:0:
72,240,28808,1,0,0:0:0:0:
72,240,28911,1,0,0:0:0:0:
72,240,29015,5,0,0:0:0:0:
448,144,29222,1,0,0:0:0:0:
240,340,29429,1,0,0:0:0:0:
240,340,29532,1,0,0:0:0:0:
240,340,29636,1,0,0:0:0:0:
128,48,29842,1,0,0:0:0:0:
368,248,30049,1,0,0:0:0:0:
76,264,30256,1,0,0:0:0:0:
340,40,30463,1,0,0:0:0:0:
248,336,30670,6,0,L|224:256,1,70
340,40,31084,2,0,L|312:128,1,70
132,240,31498,1,0,0:0:0:0:
408,88,31705,1,0,0:0:0:0:
352,328,31911,1,0,0:0:0:0:
196,48,32118,1,0,0:0:0:0:
196,48,32222,1,0,0:0:0:0:
316,296,35636,5,0,0:0:0:0:
408,80,35842,1,0,0:0:0:0:
212,216,36049,1,0,0:0:0:0:
212,216,36153,1,0,0:0:0:0:
212,216,36256,1,0,0:0:0:0:
440,212,36463,1,0,0:0:0:0:
296,80,36670,1,0,0:0:0:0:
352,328,36877,1,0,0:0:0:0:
424,60,37084,1,0,0:0:0:0:
176,288,37291,5,0,0:0:0:0:
456,212,37498,1,0,0:0:0:0:
148,112,37705,1,0,0:0:0:0:
280,348,37911,1,0,0:0:0:0:
292,60,38118,1,0,0:0:0:0:
144,276,38325,2,0,P|192:256|208:236,1,70
392,76,38739,1,0,0:0:0:0:
372,36,38842,1,0,0:0:0:0:
320,28,38946,5,0,0:0:0:0:
152,72,39153,1,0,0:0:0:0:
208,332,39360,1,0,0:0:0:0:
208,332,39463,1,0,0:0:0:0:
208,332,39567,5,0,0:0:0:0:
408,176,39774,1,0,0:0:0:0:
152,200,39980,1,0,0:0:0:0:
340,312,40187,1,0,0:0:0:0:
232,88,40394,2,0,B|276:32|292:32|300:60,1,70
456,76,40808,5,0,0:0:0:0:
240,264,41015,1,0,0:0:0:0:
476,244,41222,1,0,0:0:0:0:
196,72,41429,1,0,0:0:0:0:
280,352,41636,1,0,0:0:0:0:
348,144,41842,1,0,0:0:0:0:
124,296,42049,2,0,L|88:320,1,35
248,72,45567,5,0,0:0:0:0:
316,320,45774,1,0,0:0:0:0:
392,176,45980,1,0,0:0:0:0:
392,176,46084,1,0,0:0:0:0:
392,176,46187,1,0,0:0:0:0:
144,252,46394,5,0,0:0:0:0:
296,56,46601,1,0,0:0:0:0:
300,324,46808,1,0,0:0:0:0:
136,80,47015,1,0,0:0:0:0:
384,192,47222,5,0,0:0:0:0:
100,264,47429,1,0,0:0:0:0:
208,48,47636,1,0,0:0:0:0:
280,336,47842,1,0,0:0:0:0:
388,64,48049,1,0,0:0:0:0:
64,188,48256,2,0,P|64:240|72:264,1,70
224,328,48670,1,0,0:0:0:0:
268,336,48774,1,0,0:0:0:0:
312,336,48877,6,0,L|336:336,4,17.5
416,136,49291,1,0,0:0:0:0:
432,336,49498,1,0,0:0:0:0:
236,176,49705,1,0,0:0:0:0:
452,228,49911,1,0,0:0:0:0:
216,308,50118,5,0,0:0:0:0:
352,88,50325,1,0,0:0:0:0:
336,344,50532,1,0,0:0:0:0:
184,136,50739,1,0,0:0:0:0:
416,216,50946,2,0,L|444:216,4,17.5
167,68,51360,2,0,L|187:148,1,70
244,340,51774,1,0,0:0:0:0:
444,156,51980,1,0,0:0:0:0:
448,112,52084,1,0,0:0:0:0:
416,76,52187,5,0,0:0:0:0:
192,40,52394,1,0,0:0:0:0:
176,316,52601,1,0,0:0:0:0:
176,316,52705,1,0,0:0:0:0:
176,316,52808,1,0,0:0:0:0:
388,128,53015,5,0,0:0:0:0:
104,176,53222,1,0,0:0:0:0:
380,200,53429,1,0,0:0:0:0:
116,92,53636,1,0,0:0:0:0:
228,320,53842,1,0,0:0:0:0:
368,48,54049,1,0,0:0:0:0:
64,236,54256,1,0,0:0:0:0:
428,304,54463,1,0,0:0:0:0:
224,76,54670,5,0,0:0:0:0:
196,280,54877,1,0,0:0:0:0:
336,204,55084,1,0,0:0:0:0:
116,144,55291,1,0,0:0:0:0:
96,184,55394,1,0,0:0:0:0:
104,232,55498,6,0,L|112:252,4,17.5
312,332,55911,2,0,L|336:264,1,70
208,40,56325,2,0,L|228:132,1,70
336,268,56739,1,0,0:0:0:0:
80,144,56946,1,0,0:0:0:0:
380,128,57153,1,0,0:0:0:0:
136,320,57360,1,0,0:0:0:0:
252,56,57567,2,0,L|264:32,4,17.5
288,328,57980,5,0,0:0:0:0:
120,104,58187,1,0,0:0:0:0:
392,236,58394,1,0,0:0:0:0:
104,220,58601,1,0,0:0:0:0:
88,256,58705,1,0,0:0:0:0:
104,300,58808,6,0,P|160:316|196:312,1,70
392,236,59222,2,0,P|340:240|296:260,1,70
168,316,59636,1,0,0:0:0:0:
272,124,59842,1,0,0:0:0:0:
296,352,60049,1,0,0:0:0:0:
200,52,60256,1,0,0:0:0:0:
392,268,60463,6,0,L|300:268,1,70
104,192,60877,2,0,L|184:192,1,70
372,56,61291,2,0,L|324:116,1,70
168,336,61705,2,0,L|220:272,1,70
216,272,62015,1,0,0:0:0:0:
224,256,62118,6,0,L|240:232,4,17.5
