osu file format v14

[General]
AudioFilename: audio.mp3
AudioLeadIn: 0
PreviewTime: 31449
Countdown: 0
SampleSet: Soft
StackLeniency: 0.3
Mode: 0
LetterboxInBreaks: 0
WidescreenStoryboard: 1

[Editor]
Bookmarks: 16437,31996,55335
DistanceSpacing: 1
BeatDivisor: 6
GridSize: 8
TimelineZoom: 2.5

[Metadata]
Title:20 Min (Cut Ver.)
TitleUnicode:20 Min (Cut Ver.)
Artist:Lil Uzi Vert
ArtistUnicode:Lil Uzi Vert
Creator:jamesjan3
Version:dooe's Insane
Source:
Tags:komore schoolboy dooe -doodle hip hop rap trap hip-hop hood deluxe english short version edit minutes mins luv love is rage 2 soundcloud
BeatmapID:2665688
BeatmapSetID:1277762

[Difficulty]
HPDrainRate:5
CircleSize:3.7
OverallDifficulty:7
ApproachRate:8.4
SliderMultiplier:1.8
SliderTickRate:1

[Events]
//Background and Video events
0,0,"a088430a-9f83-441c-8a41-64ee771535f2.png",0,0
//Break Periods
//Storyboard Layer 0 (Background)
//Storyboard Layer 1 (Fail)
//Storyboard Layer 2 (Pass)
//Storyboard Layer 3 (Foreground)
//Storyboard Layer 4 (Overlay)
//Storyboard Sound Samples

[TimingPoints]
-1127,486.223662884927,4,2,1,40,1,0
817,-100,4,2,1,40,0,0
1304,-200,4,2,1,40,0,0
1790,-66.6666666666667,4,2,1,40,0,0
2155,-66.6666666666667,4,2,1,5,0,0
2276,-133.333333333333,4,2,1,40,0,0
2762,-100,4,2,1,40,0,0
3127,-100,4,2,1,5,0,0
3249,-133.333333333333,4,2,1,40,0,0
3370,-133.333333333333,4,2,1,5,0,0
3492,-133.333333333333,4,2,1,40,0,0
3613,-133.333333333333,4,2,1,5,0,0
3735,-66.6666666666667,4,2,1,40,0,0
4099,-66.6666666666667,4,2,1,5,0,0
4221,-80,4,2,1,40,0,0
4586,-80,4,2,1,5,0,0
4707,-100,4,2,1,40,0,0
4829,-100,4,2,1,5,0,0
4950,-100,4,2,1,40,0,0
5315,-100,4,2,1,5,0,0
5437,-100,4,2,1,40,0,0
5680,-66.6666666666667,4,2,1,40,0,0
6652,-100,4,2,1,40,0,0
7017,-100,4,2,1,5,0,0
7138,-133.333333333333,4,2,1,40,0,0
7260,-133.333333333333,4,2,1,5,0,0
7381,-133.333333333333,4,2,1,40,0,0
7503,-133.333333333333,4,2,1,5,0,0
7625,-66.6666666666667,4,2,1,40,0,0
8111,-100,4,2,1,40,0,0
8232,-100,4,2,1,5,0,0
8354,-80,4,2,1,40,0,0
8475,-80,4,2,1,5,0,0
8597,-100,4,2,1,40,0,0
9569,-66.6666666666667,4,2,1,40,0,0
10542,-100,4,2,1,40,0,0
10907,-100,4,2,1,5,0,0
11028,-133.333333333333,4,2,1,40,0,0
11150,-133.333333333333,4,2,1,5,0,0
11271,-133.333333333333,4,2,1,40,0,0
11393,-133.333333333333,4,2,1,5,0,0
11514,-66.6666666666667,4,2,1,40,0,0
11879,-66.6666666666667,4,2,1,5,0,0
12001,-100,4,2,1,40,0,0
12122,-100,4,2,1,5,0,0
12244,-80,4,2,1,40,0,0
12365,-80,4,2,1,5,0,0
12487,-100,4,2,1,40,0,0
13459,-66.6666666666667,4,2,1,40,0,0
14432,-133.333333333333,4,2,1,30,0,0
15039,-133.333333333333,4,2,1,5,0,0
15161,-100,4,2,1,40,0,0
15283,-100,4,2,1,5,0,0
15404,-80,4,2,1,50,0,0
15526,-80,4,2,1,5,0,0
15647,-66.6666666666667,4,2,1,60,0,0
15769,-66.6666666666667,4,2,1,5,0,0
15890,-66.6666666666667,4,2,1,60,0,0
16377,-100,4,2,1,60,0,0
16863,-66.6666666666667,4,2,1,60,0,0
17227,-66.6666666666667,4,2,1,5,0,0
17349,-66.6666666666667,4,2,1,60,0,0
18321,-133.333333333333,4,2,1,60,0,0
18929,-133.333333333333,4,2,1,5,0,0
19051,-133.333333333333,4,2,1,60,0,0
19172,-133.333333333333,4,2,1,5,0,0
19294,-100,4,2,1,60,0,0
19415,-100,4,2,1,5,0,0
19537,-100,4,2,1,60,0,0
19659,-100,4,2,1,5,0,0
19780,-80,4,2,1,60,0,0
19902,-80,4,2,1,5,0,0
20023,-80,4,2,1,60,0,0
20145,-80,4,2,1,5,0,0
20266,-100,4,2,1,60,0,0
20753,-66.6666666666667,4,2,1,60,0,0
21117,-66.6666666666667,4,2,1,5,0,0
21239,-66.6666666666667,4,2,1,60,0,0
22211,-133.333333333333,4,2,1,60,0,0
22819,-133.333333333333,4,2,1,5,0,0
22941,-133.333333333333,4,2,1,60,0,0
23062,-133.333333333333,4,2,1,5,0,0
23184,-100,4,2,1,60,0,0
23305,-100,4,2,1,5,0,0
23427,-100,4,2,1,60,0,0
23548,-100,4,2,1,5,0,0
23670,-80,4,2,1,60,0,0
23791,-80,4,3,1,5,0,0
23913,-80,4,2,1,60,0,0
24035,-80,4,2,1,5,0,0
24156,-100,4,2,1,60,0,0
24642,-66.6666666666667,4,2,1,60,0,0
25007,-66.6666666666667,4,2,1,5,0,0
25129,-66.6666666666667,4,2,1,60,0,0
26101,-133.333333333333,4,2,1,60,0,0
26709,-133.333333333333,4,2,1,5,0,0
26830,-133.333333333333,4,2,1,60,0,0
26952,-133.333333333333,4,2,1,5,0,0
27073,-100,4,2,1,60,0,0
27195,-100,4,2,1,5,0,0
27317,-100,4,2,1,60,0,0
27438,-100,4,2,1,5,0,0
27560,-80,4,2,1,60,0,0
27681,-80,4,2,1,5,0,0
27803,-80,4,2,1,60,0,0
27924,-80,4,2,1,5,0,0
28046,-100,4,2,1,60,0,0
28532,-66.6666666666667,4,2,1,60,0,0
28897,-66.6666666666667,4,2,1,5,0,0
29018,-66.6666666666667,4,2,1,60,0,0
29991,-133.333333333333,4,2,1,60,0,0
30599,-133.333333333333,4,2,1,5,0,0
30720,-133.333333333333,4,2,1,60,0,0
30842,-133.333333333333,4,2,1,5,0,0
30963,-100,4,2,1,60,0,0
31085,-100,4,2,1,5,0,0
31206,-100,4,2,1,60,0,0
31328,-100,4,2,1,5,0,0
31449,-66.6666666666667,4,2,1,60,0,0
31936,-66.6666666666667,4,2,1,70,0,0
32422,-100,4,2,1,70,0,0
32908,-66.6666666666667,4,2,1,70,0,0
33394,-100,4,2,1,70,0,0
33881,-66.6666666666667,4,2,1,70,0,0
34772,-144.927536231884,4,2,1,5,0,0
34853,-66.6666666666667,4,2,1,70,0,0
36312,-100,4,2,1,70,0,0
36798,-66.6666666666667,4,2,1,70,0,0
37284,-100,4,2,1,70,0,0
37770,-66.6666666666667,4,2,1,70,0,0
38257,-100,4,2,1,70,0,0
38743,-66.6666666666667,4,2,1,70,0,0
39148,-144.927536231884,4,2,1,5,0,0
39229,-57.1428571428571,4,2,1,70,0,0
39634,-144.927536231884,4,2,1,5,0,0
39715,-50,4,2,1,70,0,0
40202,-66.6666666666667,4,2,1,60,0,0
40688,-133.333333333333,4,2,1,30,0,0
41174,-100,4,2,1,70,0,0
41660,-50,4,2,1,70,0,0
42146,-66.6666666666667,4,2,1,60,0,0
42633,-133.333333333333,4,2,1,30,0,0
43119,-100,4,2,1,70,0,0
44172,-144.927536231884,4,2,1,5,0,0
44253,-66.6666666666667,4,2,1,70,0,0
44334,-144.927536231884,4,2,1,5,0,0
44415,-50,4,2,1,70,0,0
44496,-144.927536231884,4,2,1,5,0,0
44578,-100,4,2,1,70,0,0
46036,-50,4,2,1,70,0,0
46117,-144.927536231884,4,2,1,5,0,0
46198,-66.6666666666667,4,2,1,70,0,0
46279,-144.927536231884,4,2,1,5,0,0
46360,-100,4,2,1,70,0,0
46441,-144.927536231884,4,2,1,5,0,0
46522,-100,4,2,1,70,0,0
46887,-144.927536231884,4,2,1,5,0,0
47009,-80,4,2,1,70,0,0
47981,-100,4,2,1,70,0,0
48062,-144.927536231884,4,2,1,5,0,0
48143,-80,4,2,1,70,0,0
48224,-144.927536231884,4,2,1,5,0,0
48305,-66.6666666666667,4,2,1,70,0,0
48386,-144.927536231884,4,2,1,5,0,0
48467,-80,4,2,1,70,0,0
49926,-100,4,2,1,70,0,0
50412,-66.6666666666667,4,2,1,70,0,0
50898,-80,4,2,1,70,0,0
51871,-100,4,2,1,70,0,0
51952,-144.927536231884,4,2,1,5,0,0
52033,-66.6666666666667,4,2,1,70,0,0
52114,-144.927536231884,4,2,1,5,0,0
52195,-50,4,2,1,70,0,0
52276,-144.927536231884,4,2,1,5,0,0
52358,-100,4,2,1,70,0,0
53816,-50,4,2,1,70,0,0
53897,-144.927536231884,4,2,1,5,0,0
53978,-66.6666666666667,4,2,1,70,0,0
54059,-144.927536231884,4,2,1,5,0,0
54140,-100,4,2,1,70,0,0
54221,-144.927536231884,4,2,1,5,0,0
54302,-100,4,2,1,70,0,0
54667,-100,4,2,1,5,0,0
54788,-80,4,2,1,70,0,0
55193,-144.927536231884,4,2,1,5,0,0
55274,-66.6666666666667,4,2,1,70,0,0
56166,-144.927536231884,4,2,1,5,0,0
56247,-100,4,2,1,70,0,0
57706,-66.6666666666667,4,2,1,70,0,0
58111,-144.927536231884,4,2,1,5,0,0
58192,-100,4,2,1,70,0,0
59650,-66.6666666666667,4,2,1,70,0,0
60056,-144.927536231884,4,2,1,5,0,0
60136,-100,4,2,1,70,0,0
61595,-66.6666666666667,4,2,1,70,0,0
62001,-66.6666666666667,4,2,1,5,0,0
62082,-100,4,2,1,50,0,0
63054,-100,4,2,1,25,0,0
63540,-100,4,2,1,10,0,0

[Colours]
Combo1 : 123,253,231
Combo2 : 255,179,255
Combo3 : 255,179,181

[HitObjects]
204,164,817,6,0,P|250:169|316:214,1,120,0|0,3:0|0:0,0:0:0:0:
423,349,1304,2,0,P|424:371|411:353,1,60,2|0,0:0|0:0,0:0:0:0:
393,249,1790,6,0,B|420:230|458:249|458:249|381:254|342:309,1,202.500007724762,8|0,0:0|0:0,0:0:0:0:
278,355,2276,2,0,P|245:348|221:325,1,67.5000025749208,2|0,0:0|0:0,0:0:0:0:
26,151,2762,6,0,P|37:214|99:234,1,135,0|0,3:0|0:0,0:0:0:0:
108,241,3249,2,0,L|114:208,1,33.7500012874604,2|0,3:2|0:0,0:0:0:0:
133,130,3492,2,0,L|139:97,1,33.7500012874604,2|0,0:0|0:0,0:0:0:0:
287,24,3735,6,0,B|342:1|342:1|383:38|374:98|336:125,1,202.500007724762,8|0,0:0|0:0,0:0:0:0:
390,185,4221,2,0,B|294:161|351:128|250:99,1,168.75,2|0,0:0|0:0,0:0:0:0:
184,147,4707,6,0,P|168:170|166:201,1,45,2|0,3:2|0:0,0:0:0:0:
170,209,4950,1,2,0:0:0:0:
112,279,5193,2,0,P|90:260|80:231,1,45,2|0,0:0|0:0,0:0:0:0:
79,224,5437,1,2,0:0:0:0:
251,300,5680,6,0,B|311:298|334:206|334:206|316:300|361:330,1,270.000010299683,8|2,0:0|0:2,0:0:0:0:
460,135,6652,6,0,P|441:90|353:83,1,135,2|0,3:2|0:0,0:0:0:0:
351,71,7138,2,0,L|342:112,1,33.7500012874604,2|0,3:2|0:0,0:0:0:0:
325,178,7381,2,0,L|316:219,1,33.7500012874604,2|0,0:0|0:0,0:0:0:0:
450,369,7625,6,0,P|438:304|422:229,1,135.000005149842,8|2,0:0|3:2,0:0:0:0:
424,236,8111,2,0,P|441:257|468:272,1,45,2|0,0:0|0:0,0:0:0:0:
355,350,8354,2,0,P|345:317|321:287,1,56.25,2|0,0:0|0:0,0:0:0:0:
222,194,8597,6,0,P|158:207|110:232,1,120,2|2,3:2|0:0,0:0:0:0:
103,245,9083,2,0,P|84:222|78:192,1,60,2|0,0:0|0:0,0:0:0:0:
112,121,9407,1,2,0:0:0:0:
65,19,9569,6,0,B|18:24|-17:47|-17:47|82:45|152:114,1,270.000010299683,10|0,0:0|0:0,0:0:0:0:
153,123,10218,2,0,P|173:120|207:93,1,45.0000017166138,2|2,0:0|0:0,0:0:0:0:
382,37,10542,6,0,P|431:87|399:154,1,135,2|0,3:2|0:0,0:0:0:0:
417,156,11028,2,0,L|364:143,1,33.7500012874604,2|0,3:2|0:0,0:0:0:0:
308,128,11271,2,0,L|255:115,1,33.7500012874604,2|0,0:0|0:0,0:0:0:0:
149,223,11514,6,0,P|122:269|238:347,1,202.500007724762,10|0,0:0|0:0,0:0:0:0:
224,366,12001,2,0,P|233:353|263:333,1,45,2|0,0:0|0:0,0:0:0:0:
287,263,12244,2,0,P|311:262|352:284,1,56.25,2|0,0:0|0:0,0:0:0:0:
419,349,12487,6,0,P|431:290|466:221,1,120,2|0,3:2|0:0,0:0:0:0:
365,135,12973,2,0,L|382:202,2,60,2|0|0,0:0|0:0|0:0,0:0:0:0:
377,26,13459,6,0,B|413:20|433:-15|433:-15|469:52|443:126|361:136,1,270.000010299683,10|2,0:0|0:0,0:0:0:0:
356,123,14108,2,0,P|339:108|312:100,1,45.0000017166138,2|2,0:0|0:0,0:0:0:0:
153,198,14432,1,2,3:2:0:0:
153,198,14918,6,0,L|198:208,1,33.7500012874604,2|0,3:2|0:0,0:0:0:0:
173,115,15161,6,0,L|183:70,1,45,2|0,0:0|0:0,0:0:0:0:
90,95,15404,6,0,L|35:83,1,56.25,8|0,0:0|0:0,0:0:0:0:
70,178,15647,6,0,L|54:247,1,67.5000025749208,2|0,3:2|0:0,0:0:0:0:
116,345,15890,5,2,0:0:0:0:
121,358,16134,1,2,0:0:0:0:
238,216,16377,6,0,P|266:239|264:305,1,90,2|0,3:1|0:0,0:0:0:0:
272,291,16863,2,0,P|228:249|247:115,1,202.500007724762,2|0,0:1|0:0,0:0:0:0:
418,73,17349,5,8,0:2:0:0:
312,40,17592,1,0,0:0:0:0:
423,66,17835,1,0,0:0:0:0:
311,31,18078,1,2,0:3:0:0:
416,182,18321,6,0,L|497:161,1,67.5000025749208,2|0,3:1|0:0,0:0:0:0:
482,166,18808,6,0,L|489:115,1,33.7500012874604,2|0,3:1|0:0,0:0:0:0:
468,242,19051,2,0,L|463:275,1,33.7500012874604
346,149,19294,6,0,L|337:80,1,45,8|0,0:0|0:0,0:0:0:0:
357,239,19537,2,0,L|362:283,1,45,2|0,0:0|0:0,0:0:0:0:
219,173,19780,6,0,L|186:92,1,56.25,2|0,0:0|0:0,0:0:0:0:
257,268,20023,2,0,L|278:320,1,56.25,2|0,0:0|0:0,0:0:0:0:
71,339,20266,6,0,P|65:305|104:256,1,90,2|0,3:1|0:0,0:0:0:0:
95,261,20753,2,0,P|158:188|129:96,1,202.500007724762,2|0,0:1|0:0,0:0:0:0:
67,28,21239,5,8,0:0:0:0:
34,134,21482,1,0,0:0:0:0:
60,23,21725,1,0,0:0:0:0:
25,135,21968,1,2,0:3:0:0:
191,103,22211,6,0,L|207:174,1,67.5000025749208,2|0,3:1|0:0,0:0:0:0:
205,168,22697,6,0,L|262:155,1,33.7500012874604,2|0,3:1|0:0,0:0:0:0:
305,205,22941,2,0,L|312:237,1,33.7500012874604
119,242,23184,6,0,L|79:199,1,45,8|0,0:0|0:0,0:0:0:0:
80,124,23428,2,0,L|114:92,1,45,2|0,3:1|0:0,0:0:0:0:
218,261,23670,6,0,L|200:316,1,56.25,2|0,0:0|0:0,0:0:0:0:
125,365,23914,2,0,L|67:347,1,56.25,2|0,0:0|0:0,0:0:0:0:
80,124,24156,6,0,P|56:84|4:75,1,90,2|0,3:1|0:0,0:0:0:0:
16,73,24642,2,0,P|46:133|176:130,1,202.500007724762,2|0,0:1|0:0,0:0:0:0:
247,37,25129,5,8,0:0:0:0:
353,70,25372,1,0,0:0:0:0:
242,44,25615,1,0,0:0:0:0:
354,79,25858,1,2,0:3:0:0:
287,217,26101,6,0,L|270:125,1,67.5000025749208,2|0,3:1|0:0,0:0:0:0:
274,150,26587,6,0,L|328:139,1,33.7500012874604,2|0,3:1|0:0,0:0:0:0:
385,127,26830,2,0,L|439:116,1,33.7500012874604
456,198,27073,6,0,L|411:206,1,45,8|0,0:0|0:0,0:0:0:0:
320,226,27316,2,0,L|275:234,1,45,2|0,0:0|0:0,0:0:0:0:
274,324,27560,6,0,L|331:312,1,56.25,2|0,0:0|0:0,0:0:0:0:
437,289,27803,2,0,L|494:277,1,56.25,2|0,0:0|0:0,0:0:0:0:
397,80,28046,6,0,P|359:106|350:154,1,90,2|0,3:1|0:0,0:0:0:0:
349,147,28532,2,0,P|302:84|167:91,1,202.500007724762,2|0,0:1|0:0,0:0:0:0:
74,226,29018,5,8,0:0:0:0:
180,193,29261,1,0,0:0:0:0:
69,219,29504,1,0,0:0:0:0:
181,184,29747,1,2,0:3:0:0:
87,107,29991,6,0,L|18:91,1,67.5000025749208,2|0,3:1|0:0,0:0:0:0:
21,92,30477,6,0,L|14:46,1,33.7500012874604,2|0,3:1|0:0,0:0:0:0:
92,27,30720,2,0,L|97:60,1,33.7500012874604
257,218,30963,6,0,L|267:149,1,45,8|0,0:0|0:0,0:0:0:0:
185,140,31206,2,0,L|177:190,1,45,2|0,3:1|0:0,0:0:0:0:
68,352,31449,6,0,B|44:341|44:341|32:278,2,90.0000034332277,2|0|0,0:0|0:0|0:0,0:0:0:0:
213,308,31936,6,0,P|181:278|138:272,1,90.0000034332277,2|0,3:3|0:0,0:0:0:0:
120,284,32260,1,0,0:3:0:0:
71,139,32422,2,0,P|81:165|85:219,1,60,2|0,0:0|0:0,0:0:0:0:
160,64,32746,1,2,0:3:0:0:
208,185,32908,2,0,P|181:119|120:59,1,135.000005149842,8|0,0:0|0:0,0:0:0:0:
287,21,33394,6,0,L|269:99,2,60,2|0|0,0:0|0:0|0:0,0:0:0:0:
466,50,33881,6,0,P|433:79|389:84,1,90.0000034332277,2|0,3:3|0:0,0:0:0:0:
372,73,34205,1,2,0:0:0:0:
429,255,34367,2,0,B|461:211|422:210|457:159,1,90.0000034332277,2|0,3:2|0:0,0:0:0:0:
345,162,34691,2,0,P|347:183|365:220,1,45.0000017166138,2|0,0:3|0:0,0:0:0:0:
489,311,34853,2,0,P|411:268|325:243,1,180.000006866455,8|0,0:0|0:0,0:0:0:0:
250,287,35339,6,0,B|224:252|224:252|242:188,2,90.0000034332277,2|0|0,0:0|0:0|0:0,0:0:0:0:
96,357,35825,6,0,P|101:321|121:251,1,90.0000034332277,2|0,3:3|0:0,0:0:0:0:
31,122,36150,1,2,0:0:0:0:
80,184,36312,2,0,P|87:210|95:248,1,60,2|0,0:0|0:0,0:0:0:0:
285,85,36636,1,2,0:3:0:0:
242,153,36798,2,0,P|193:150|144:83,1,135.000005149842,8|0,0:0|0:0,0:0:0:0:
363,30,37284,6,0,L|378:88,2,60,2|0|0,0:0|0:0|0:0,0:0:0:0:
479,123,37770,6,0,P|453:157|442:205,1,90.0000034332277,2|0,3:3|0:0,0:0:0:0:
324,322,38095,1,2,0:0:0:0:
360,227,38257,2,0,P|372:254|392:277,1,60,2|2,3:2|0:0,0:0:0:0:
410,289,38581,1,2,0:3:0:0:
287,356,38743,6,0,B|162:335|248:284|90:246,1,225.000008583069,8|0,0:0|0:0,0:0:0:0:
24,279,39229,2,0,P|91:220|81:143,1,157.500001502037,2|0,0:3|0:0,0:0:0:0:
103,14,39715,6,0,P|46:33|4:75,2,120,2|0|0,3:2|0:0|0:0,0:0:0:0:
143,89,40202,2,0,P|108:120|88:165,2,90.0000034332277,2|2|2,0:3|0:3|0:3,0:0:0:0:
205,147,40688,2,0,P|195:167|192:189,2,45.0000017166138,2|2|2,0:3|0:3|0:3,0:0:0:0:
356,79,41174,5,2,0:0:0:0:
347,53,41336,1,2,0:0:0:0:
336,31,41498,1,2,0:0:0:0:
401,172,41660,6,0,P|457:191|499:233,2,120,2|0|2,3:2|0:0|0:0,0:0:0:0:
359,242,42146,2,0,P|394:273|414:318,2,90.0000034332277,2|2|2,3:3|0:3|0:3,0:0:0:0:
297,300,42633,2,0,P|306:320|310:342,2,45.0000017166138,2|2|2,0:3|0:3|0:3,0:0:0:0:
135,187,43119,5,2,0:0:0:0:
144,161,43281,1,2,0:0:0:0:
155,139,43443,1,2,0:0:0:0:
52,353,43605,5,2,3:3:0:0:
106,297,43767,1,2,0:0:0:0:
180,273,43929,1,2,0:0:0:0:
40,361,44091,6,0,P|22:355|-2:336,1,30,2|0,0:3|0:0,0:0:0:0:
93,284,44253,6,0,P|74:262|62:231,1,45.0000017166138,2|0,0:3|0:0,0:0:0:0:
188,257,44415,6,0,P|183:233|184:180,1,60,2|0,0:3|0:0,0:0:0:0:
286,284,44578,5,8,0:0:0:0:
286,284,44821,1,0,0:0:0:0:
447,94,45064,6,0,P|414:110|376:114,2,60,2|0|0,0:0|0:0|0:0,0:0:0:0:
442,220,45550,5,2,3:0:0:0:
365,203,45712,1,2,0:0:0:0:
303,158,45874,1,2,0:0:0:0:
454,229,46036,6,0,P|456:265|445:304,1,60,2|0,3:3|0:0,0:0:0:0:
362,216,46198,6,0,P|352:245|328:270,1,45.0000017166138,2|0,0:3|0:0,0:0:0:0:
289,158,46360,6,0,P|270:176|249:183,1,30,2|0,0:3|0:0,0:0:0:0:
224,82,46522,5,8,0:0:0:0:
238,4,46766,2,0,L|231:48,1,45,0|0,3:2|0:0,0:0:0:0:
73,176,47009,6,0,B|55:167|55:167|41:102,2,75,2|0|0,0:0|0:0|0:0,0:0:0:0:
134,103,47495,5,2,3:0:0:0:
165,176,47657,1,2,0:0:0:0:
128,248,47819,1,2,0:0:0:0:
198,321,47981,6,0,L|189:274,1,30,2|0,0:3|0:0,0:0:0:0:
116,258,48143,6,0,L|107:211,1,37.5,2|0,0:3|0:0,0:0:0:0:
179,179,48305,6,0,L|165:108,1,45.0000017166138,2|0,0:3|0:0,0:0:0:0:
120,72,48467,5,8,0:0:0:0:
120,72,48710,1,0,0:0:0:0:
293,102,48954,6,0,B|271:72|271:72|228:61,2,75,2|0|0,0:0|0:0|0:0,0:0:0:0:
355,171,49440,5,2,3:0:0:0:
431,154,49602,1,2,0:0:0:0:
471,86,49764,1,2,0:0:0:0:
368,18,49926,6,0,P|365:42|382:76,1,60,2|0,3:0|0:2,0:0:0:0:
498,195,50250,1,2,0:3:0:0:
451,259,50412,2,0,B|482:171|420:190|470:84,1,180,8|0,0:0|0:0,0:0:0:0:
470,84,50898,6,0,L|454:11,2,75,2|0|0,0:0|0:0|0:0,0:0:0:0:
369,221,51385,5,2,3:0:0:0:
315,165,51547,1,2,0:0:0:0:
241,141,51709,1,2,0:0:0:0:
381,229,51871,6,0,P|399:223|423:204,1,30,2|0,0:3|0:0,0:0:0:0:
328,152,52033,6,0,P|347:130|359:99,1,45.0000017166138,2|0,0:3|0:0,0:0:0:0:
233,125,52195,6,0,P|238:101|237:48,1,60,2|0,0:3|0:0,0:0:0:0:
132,153,52357,5,8,0:0:0:0:
132,153,52600,1,0,0:0:0:0:
50,266,52843,6,0,L|28:194,2,60,2|0|0,0:0|0:0|0:0,0:0:0:0:
152,316,53330,5,2,3:0:0:0:
229,299,53492,1,2,0:0:0:0:
291,254,53654,1,0,0:0:0:0:
140,325,53816,6,0,P|138:361|149:400,1,60,2|0,3:3|0:0,0:0:0:0:
232,312,53978,6,0,P|242:341|266:366,1,45.0000017166138,2|0,0:3|0:0,0:0:0:0:
305,254,54140,6,0,P|324:272|345:279,1,30,2|0,0:3|0:0,0:0:0:0:
354,169,54302,5,8,0:0:0:0:
340,91,54545,2,0,L|347:135,1,45,0|0,3:0|0:0,0:0:0:0:
144,220,54788,6,0,B|95:234|114:313|194:216|180:138,1,187.5,2|0,0:0|0:0,0:0:0:0:
140,61,55275,5,2,3:3:0:0:
363,154,55437,1,2,0:0:0:0:
234,10,55599,1,2,0:0:0:0:
194,152,55761,2,0,P|263:95|412:65,1,225.000008583069,2|0,0:3|0:0,0:0:0:0:
471,115,56247,6,0,L|491:39,2,60,10|0|0,0:0|0:0|0:0,0:0:0:0:
382,221,56733,2,0,L|362:145,2,60,2|0|0,0:0|0:0|0:0,0:0:0:0:
465,330,57219,5,2,3:3:0:0:
267,239,57382,1,2,0:3:0:0:
396,384,57544,1,2,0:3:0:0:
489,236,57706,2,0,P|368:271|284:331,1,225.000008583069,2|0,3:0|0:0,0:0:0:0:
214,364,58192,6,0,P|181:357|157:336,2,60,10|0|0,0:0|0:0|0:0,0:0:0:0:
104,214,58678,2,0,P|137:221|161:242,2,60,2|0|0,0:0|0:0|0:0,0:0:0:0:
61,338,59164,5,2,3:0:0:0:
0,287,59326,2,0,P|9:261|12:225,1,60,2|0,0:0|0:0,0:0:0:0:
239,82,59650,2,0,P|168:170|133:280,1,225.000008583069,2|0,0:3|0:0,0:0:0:0:
187,341,60137,6,0,P|207:335|239:301,2,60,10|0|0,0:0|0:0|0:0,0:0:0:0:
53,290,60623,2,0,P|44:261|50:232,2,60,2|0|0,0:0|0:0|0:0,0:0:0:0:
135,156,61109,5,2,3:0:0:0:
292,299,61271,1,2,0:0:0:0:
239,105,61433,1,2,0:0:0:0:
140,261,61595,2,0,P|205:210|356:164,1,225.000008583069,2|0,3:0|0:0,0:0:0:0:
453,125,62082,2,0,P|424:95|369:70,1,90,8|0,0:0|3:0,0:0:0:0:
155,103,62568,5,2,0:0:0:0:
55,67,63054,5,2,0:0:0:0:
0,0,63540,5,2,0:0:0:0:
