osu file format v14

[General]
AudioFilename: audio.mp3
AudioLeadIn: 0
PreviewTime: 31449
Countdown: 0
SampleSet: Soft
StackLeniency: 0.7
Mode: 0
LetterboxInBreaks: 0
WidescreenStoryboard: 1

[Editor]
Bookmarks: 16376,31935,55274
DistanceSpacing: 1
BeatDivisor: 6
GridSize: 32
TimelineZoom: 2.5

[Metadata]
Title:20 Min (Cut Ver.)
TitleUnicode:20 Min (Cut Ver.)
Artist:Lil Uzi Vert
ArtistUnicode:Lil Uzi Vert
Creator:jamesjan3
Version:Hard
Source:
Tags:komore schoolboy dooe -doodle hip hop rap trap hip-hop hood deluxe english short version edit minutes mins luv love is rage 2 soundcloud
BeatmapID:2684338
BeatmapSetID:1277762

[Difficulty]
HPDrainRate:4
CircleSize:3
OverallDifficulty:6
ApproachRate:8
SliderMultiplier:2
SliderTickRate:1

[Events]
//Background and Video events
0,0,"a088430a-9f83-441c-8a41-64ee771535f2.png",0,0
//Break Periods
//Storyboard Layer 0 (Background)
//Storyboard Layer 1 (Fail)
//Storyboard Layer 2 (Pass)
//Storyboard Layer 3 (Foreground)
//Storyboard Layer 4 (Overlay)
//Storyboard Sound Samples

[TimingPoints]
-1127,486.223662884927,4,2,1,40,1,0
331,-133.333333333333,4,2,1,40,0,0
14918,-100,4,2,1,40,0,0
15404,-80,4,2,1,50,0,0
15647,-80,4,2,1,65,0,0
15890,-66.6666666666667,4,2,1,80,0,0
16133,-66.6666666666667,4,2,1,95,0,0
16377,-100,4,2,1,65,0,0
16863,-66.6666666666667,4,2,1,65,0,0
17592,-100,4,2,1,65,0,0
20753,-66.6666666666667,4,2,1,65,0,0
21482,-100,4,2,1,65,0,0
24642,-66.6666666666667,4,2,1,65,0,0
25372,-100,4,2,1,65,0,0
28532,-66.6666666666667,4,2,1,65,0,0
29261,-100,4,2,1,65,0,0
31571,-100,4,2,1,75,0,0
32746,-66.6666666666667,4,2,1,75,0,0
33394,-100,4,2,1,75,0,0
34691,-66.6666666666667,4,2,1,75,0,0
35339,-100,4,2,1,75,0,0
36636,-66.6666666666667,4,2,1,75,0,0
37284,-100,4,2,1,75,0,0
38581,-66.6666666666667,4,2,1,75,0,0
39229,-100,4,2,1,75,0,0
40202,-66.6666666666667,4,2,1,75,0,0
41174,-100,4,2,1,75,0,0
42146,-66.6666666666667,4,2,1,75,0,0
43119,-80,4,2,1,75,0,0
44415,-66.6666666666667,4,2,1,75,0,0
45064,-80,4,2,1,75,0,0
46360,-66.6666666666667,4,2,1,75,0,0
47009,-80,4,2,1,75,0,0
48305,-66.6666666666667,4,2,1,75,0,0
48954,-80,4,2,1,75,0,0
50250,-66.6666666666667,4,2,1,75,0,0
50898,-80,4,2,1,75,0,0
52195,-66.6666666666667,4,2,1,75,0,0
52843,-80,4,2,1,75,0,0
54140,-66.6666666666667,4,2,1,75,0,0
55274,-80,4,2,1,75,0,0
55761,-66.6666666666667,4,2,1,75,0,0
56247,-80,4,2,1,75,0,0
57219,-66.6666666666667,4,2,1,75,0,0
58192,-80,4,2,1,75,0,0
59164,-66.6666666666667,4,2,1,75,0,0
60137,-80,4,2,1,75,0,0
61109,-66.6666666666667,4,2,1,75,0,0
62568,-100,4,2,1,50,0,0
63054,-100,4,2,1,25,0,0
63540,-100,4,2,1,10,0,0

[Colours]
Combo1 : 123,253,231
Combo2 : 255,179,255
Combo3 : 255,179,181

[HitObjects]
118,256,331,6,0,L|110:326,2,50.0000019073487,2|2|2,0:0|0:0|0:0,0:0:0:0:
178,197,817,2,0,B|186:176|186:176|155:47,2,150.000005722046,0|2|8,3:0|0:0|0:0,0:0:0:0:
301,333,2276,5,2,0:0:0:0:
301,333,2438,1,2,0:0:0:0:
301,333,2600,1,2,0:0:0:0:
301,333,2762,2,0,P|301:276|381:268,2,150.000005722046,0|2|8,3:0|3:2|0:0,0:0:0:0:
207,374,3978,1,2,0:0:0:0:
103,383,4221,2,0,P|65:370|17:283,1,112.500004291535,2|0,0:0|0:0,0:0:0:0:
20,277,4707,6,0,L|36:182,1,75.0000028610231,2|0,3:2|0:0,0:0:0:0:
129,151,5193,2,0,L|113:56,1,75.0000028610231,2|0,0:0|0:0,0:0:0:0:
38,10,5680,1,8,0:0:0:0:
222,55,6166,1,2,0:0:0:0:
388,0,6652,6,0,L|451:8,2,50.0000019073487,2|0|0,3:2|0:0|0:0,0:0:0:0:
365,83,7138,2,0,L|302:91,2,50.0000019073487,2|0|0,3:2|0:0|0:0,0:0:0:0:
412,153,7625,1,8,0:0:0:0:
305,219,7868,2,0,B|228:204|253:271|160:258,1,150.000005722046,2|0,3:2|0:0,0:0:0:0:
70,188,8597,6,0,B|77:114|77:114|86:105|86:105|93:32,2,150.000005722046,2|2|8,3:2|0:0|0:0,0:0:0:0:
0,268,9813,2,0,P|56:239|114:324,1,175.00000667572,2|2,0:0|0:0,0:0:0:0:
104,329,10542,5,0,3:0:0:0:
276,359,11028,2,0,L|380:379,1,75.0000028610231,2|0,3:2|0:0,0:0:0:0:
451,340,11514,1,10,0:0:0:0:
502,251,11757,1,2,0:0:0:0:
430,102,12487,5,2,3:2:0:0:
430,102,12649,1,2,0:0:0:0:
430,102,12811,1,2,0:0:0:0:
430,102,12973,2,0,B|409:91|409:91|321:113,1,100.000003814697,2|0,0:0|0:0,0:0:0:0:
264,157,13459,2,0,L|207:144,2,50.0000019073487,8|0|0,0:0|0:0|0:0,0:0:0:0:
334,109,13945,2,0,P|360:136|368:172,1,75.0000028610231,2|0,0:0|0:0,0:0:0:0:
357,298,14432,5,0,3:0:0:0:
357,298,14918,6,0,P|316:281|309:218,1,100,2|2,3:2|0:0,0:0:0:0:
334,109,15404,6,0,P|296:173|241:138,1,125,8|2,0:0|3:2,0:0:0:0:
181,69,15890,6,0,P|218:136|150:184,1,150.000005722046,2|2,0:0|0:0,0:0:0:0:
53,93,16377,6,0,B|44:45|44:45|73:-1,1,100,2|0,3:1|0:0,0:0:0:0:
181,69,16863,2,0,B|185:132|140:165|140:165|88:209|120:281,1,225.000008583069,2|0,0:1|0:0,0:0:0:0:
115,269,17349,1,8,0:0:0:0:
205,335,17592,2,0,L|321:313,2,100,0|0|2,0:0|0:0|0:3,0:0:0:0:
52,357,18321,5,2,3:1:0:0:
52,357,18808,2,0,P|26:320|49:259,1,100,2|0,3:1|0:0,0:0:0:0:
78,173,19294,1,8,0:0:0:0:
183,171,19537,1,2,0:0:0:0:
240,257,19780,1,2,0:0:0:0:
195,353,20023,1,2,0:0:0:0:
329,366,20266,6,0,B|381:368|381:368|411:326,1,100,2|0,3:1|0:0,0:0:0:0:
476,229,20753,2,0,B|459:136|459:136|447:81|362:88|377:166,1,225.000008583069,2|0,0:1|0:0,0:0:0:0:
375,147,21239,1,8,0:0:0:0:
284,181,21482,2,0,L|275:306,2,100,0|0|2,0:0|0:0|0:3,0:0:0:0:
305,25,22211,5,2,3:1:0:0:
305,25,22697,2,0,P|290:79|237:96,1,100,2|0,3:1|0:0,0:0:0:0:
162,154,23184,1,8,0:0:0:0:
71,100,23427,2,0,L|89:1,2,100,2|2|2,3:1|0:0|0:0,0:0:0:0:
45,240,24156,6,0,B|94:233|94:233|136:269,1,100,2|0,3:1|0:0,0:0:0:0:
193,371,24642,2,0,B|233:389|261:351|261:351|296:301|296:301|326:256|378:280,1,225.000008583069,2|0,0:1|0:0,0:0:0:0:
371,277,25129,1,8,0:0:0:0:
473,248,25372,2,0,P|476:297|466:360,2,100,0|0|2,0:0|0:0|0:3,0:0:0:0:
512,94,26101,5,2,3:1:0:0:
512,94,26587,2,0,P|455:126|433:170,1,100,2|0,3:1|0:0,0:0:0:0:
343,204,27073,1,8,0:0:0:0:
264,145,27317,1,2,0:0:0:0:
301,54,27560,1,2,0:0:0:0:
401,64,27803,1,2,0:0:0:0:
264,145,28046,6,0,B|220:120|220:120|205:71,1,100,2|0,3:1|0:0,0:0:0:0:
35,46,28532,2,0,B|45:-12|131:1|119:65|119:65|104:166,1,225.000008583069,2|0,0:1|0:0,0:0:0:0:
106,146,29018,1,8,0:0:0:0:
36,220,29261,2,0,L|52:328,1,100
136,368,29748,1,2,0:3:0:0:
230,250,29991,5,2,3:1:0:0:
230,250,30477,2,0,P|282:289|287:344,1,100,2|0,3:1|0:0,0:0:0:0:
378,365,30963,1,8,0:0:0:0:
457,300,31206,1,2,3:1:0:0:
414,206,31449,6,0,L|342:191,2,66.6666666666667,2|2|2,0:0|0:0|0:0,0:0:0:0:
496,172,31936,2,0,P|498:123|432:71,1,133.333333333333,2|0,3:2|0:0,0:0:0:0:
372,14,32422,1,2,0:0:0:0:
322,26,32584,1,2,0:0:0:0:
300,74,32746,6,0,L|311:173,1,100.000003814697,2|8,0:3|0:0,0:0:0:0:
143,329,33394,6,0,P|188:352|213:347,2,66.6666666666667,2|2|2,0:0|0:0|0:0,0:0:0:0:
96,257,33881,2,0,L|111:180,2,66.6666666666667,2|0|0,3:2|0:0|0:0,0:0:0:0:
57,333,34367,1,2,3:2:0:0:
12,315,34529,1,2,0:0:0:0:
5,270,34691,6,0,L|23:170,1,100.000003814697,2|8,0:3|0:0,0:0:0:0:
172,30,35339,6,0,P|219:31|253:60,2,66.6666666666667,2|2|2,0:0|0:0|0:0,0:0:0:0:
191,111,35825,2,0,B|181:134|181:134|207:267,1,133.333333333333,2|0,3:2|0:0,0:0:0:0:
248,312,36312,1,2,0:0:0:0:
293,297,36474,1,2,0:0:0:0:
316,251,36636,6,0,P|321:201|298:158,1,100.000003814697,2|8,0:0|0:0,0:0:0:0:
504,16,37284,6,0,L|493:82,1,66.6666666666667,2|0,0:0|0:0,0:0:0:0:
413,119,37608,1,2,0:0:0:0:
413,119,37770,2,0,L|351:92,2,66.6666666666667,2|0|0,3:2|0:0|0:0,0:0:0:0:
485,167,38257,1,2,3:2:0:0:
501,214,38419,1,2,0:0:0:0:
490,261,38581,6,0,P|460:288|399:282,1,100.000003814697,2|8,0:3|0:0,0:0:0:0:
294,229,38986,1,0,3:2:0:0:
183,285,39229,2,0,L|195:392,1,100,2|0,0:0|0:0,0:0:0:0:
50,308,39715,5,2,3:2:0:0:
28,262,39877,1,2,0:0:0:0:
54,219,40039,1,2,0:0:0:0:
34,169,40202,6,0,P|20:120|44:66,2,100.000003814697,2|2|2,0:3|0:0|0:3,0:0:0:0:
107,125,40688,1,8,0:0:0:0:
255,33,41174,6,0,L|333:43,1,66.6666666666667,2|0,0:0|0:0,0:0:0:0:
390,105,41498,1,2,0:0:0:0:
390,105,41660,2,0,L|468:95,2,66.6666666666667,2|0|0,3:2|0:0|0:0,0:0:0:0:
319,163,42146,6,0,P|296:222|311:272,2,100.000003814697,2|0|2,3:3|0:0|0:3,0:0:0:0:
279,85,42633,1,8,0:0:0:0:
69,83,43119,6,0,L|61:-11,2,83.3333333333333,2|2|2,0:0|0:0|0:0,0:0:0:0:
139,133,43605,2,0,B|106:114|77:143|70:176|70:176|55:246,1,166.666666666667,2|0,3:2|0:0,0:0:0:0:
8,325,44091,5,2,0:3:0:0:
92,357,44253,1,2,0:2:0:0:
135,281,44415,2,0,B|166:287|166:287|221:343,1,100.000003814697,2|8,0:3|0:0,0:0:0:0:
473,237,45064,6,0,L|481:143,2,83.3333333333333,2|2|2,0:0|0:0|0:0,0:0:0:0:
462,325,45550,2,0,B|456:285|417:280|417:280|379:276|379:276|348:272|339:233,1,166.666666666667,2|0,3:2|0:0,0:0:0:0:
276,178,46036,5,2,3:3:0:0:
288,93,46198,1,2,0:0:0:0:
356,40,46360,2,0,B|385:44|385:44|413:112,1,100.000003814697,2|8,0:3|0:0,0:0:0:0:
339,236,46766,1,0,3:0:0:0:
187,164,47009,6,0,P|174:131|177:79,2,83.3333333333333,2|2|2,0:0|0:0|0:0,0:0:0:0:
192,250,47495,2,0,P|163:215|56:253,1,166.666666666667,2|0,3:2|0:0,0:0:0:0:
20,322,47981,5,2,0:3:0:0:
104,339,48143,1,2,0:0:0:0:
190,355,48305,2,0,B|216:360|216:360|265:339|265:339|290:346,1,100.000003814697,2|8,0:3|0:0,0:0:0:0:
408,144,48954,6,0,L|398:59,2,83.3333333333333,2|2|2,0:0|0:0|0:0,0:0:0:0:
398,233,49440,2,0,P|379:191|265:200,1,166.666666666667,2|0,3:2|0:0,0:0:0:0:
187,170,49926,5,2,3:3:0:0:
131,237,50088,1,2,0:0:0:0:
172,314,50250,2,2,B|147:324|115:311|109:269|109:269|95:141|95:141|92:108|72:83|35:95,1,300.000011444092,2|0,0:3|0:0,0:0:0:0:
15,175,50898,6,0,L|0:296,2,83.3333333333333,2|2|2,0:0|0:0|0:0,0:0:0:0:
43,92,51385,2,0,B|83:86|83:86|122:81|140:111|171:106|171:106|215:97,1,166.666666666667,2|0,3:2|0:0,0:0:0:0:
265,35,51871,5,2,0:3:0:0:
351,46,52033,1,2,0:0:0:0:
439,59,52195,2,0,B|452:72|452:72|439:159,1,100.000003814697,2|8,0:3|0:0,0:0:0:0:
251,369,52843,6,0,L|130:354,2,83.3333333333333,2|2|2,0:0|0:0|0:0,0:0:0:0:
315,310,53330,2,0,P|289:241|203:246,1,166.666666666667,2|0,3:2|0:0,0:0:0:0:
121,227,53816,5,2,3:3:0:0:
73,302,53978,1,2,0:0:0:0:
32,227,54140,2,0,B|20:204|20:204|45:130,1,100.000003814697,2|8,0:3|0:0,0:0:0:0:
179,59,54545,1,0,3:0:0:0:
364,102,54788,6,2,P|297:147|210:298,1,225.000008583069,2|0,0:2|0:0,0:1:0:0:
224,270,55274,6,0,L|238:366,2,83.3333333333333,2|0|2,3:2|0:0|0:0,0:0:0:0:
142,234,55761,2,0,B|119:210|119:210|126:137,1,100.000003814697,2|0,0:3|0:0,0:0:0:0:
257,15,56247,6,0,L|356:31,1,83.3333333333333,8|0,0:0|0:0,0:0:0:0:
386,108,56571,1,2,0:0:0:0:
386,108,56733,2,0,L|287:124,2,83.3333333333333,2|2|2,0:0|0:0|0:0,0:0:0:0:
482,164,57219,6,0,P|443:188|430:259,1,100.000003814697,2|0,3:0|0:3,0:0:0:0:
385,325,57543,1,2,0:0:0:0:
312,262,57706,2,0,B|286:254|286:254|155:287,1,150.000005722046,2|0,3:0|0:0,0:0:0:0:
30,345,58192,6,0,L|114:371,2,83.3333333333333,10|2|2,0:0|0:0|0:0,0:0:0:0:
14,260,58678,2,0,L|0:152,1,83.3333333333333,2|0,0:0|0:0,0:0:0:0:
43,98,59002,1,2,0:0:0:0:
109,158,59164,6,0,P|165:156|208:18,1,200.000007629395,2|0,3:2|0:0,0:0:0:0:
137,71,59650,2,0,B|132:93|132:93|154:277,1,200.000007629395,2|0,0:0|0:0,0:0:0:0:
149,360,60137,2,0,P|109:349|80:317,2,83.3333333333333,10|2|2,0:0|0:0|0:0,0:0:0:0:
228,322,60623,2,0,P|276:311|308:274,1,83.3333333333333,2|0,0:0|0:0,0:0:0:0:
339,205,60947,1,2,0:0:0:0:
398,277,61109,6,0,B|405:329|405:329|376:374,2,100.000003814697,2|0|2,3:0|0:0|0:0,0:0:0:0:
459,212,61595,2,0,B|434:135|344:150|344:150|249:169|224:81,1,300.000011444092,2|8,3:0|0:0,0:0:0:0:
110,28,62325,1,0,3:0:0:0:
28,116,62568,6,0,P|46:141|44:125,1,100,2|2,0:0|0:0,0:0:0:0:
