osu file format v14

[General]
AudioFilename: audio.mp3
AudioLeadIn: 0
PreviewTime: 31449
Countdown: 0
SampleSet: Soft
StackLeniency: 0.7
Mode: 0
LetterboxInBreaks: 0
WidescreenStoryboard: 0

[Editor]
Bookmarks: 16376,31935,55274
DistanceSpacing: 1
BeatDivisor: 6
GridSize: 32
TimelineZoom: 2.5

[Metadata]
Title:20 Min (Cut Ver.)
TitleUnicode:20 Min (Cut Ver.)
Artist:Lil Uzi Vert
ArtistUnicode:Lil Uzi Vert
Creator:jamesjan3
Version:Extra
Source:
Tags:komore schoolboy dooe -doodle hip hop rap trap hip-hop hood deluxe english short version edit minutes mins luv love is rage 2 soundcloud
BeatmapID:2654645
BeatmapSetID:1277762

[Difficulty]
HPDrainRate:5.5
CircleSize:3.7
OverallDifficulty:8
ApproachRate:9
SliderMultiplier:2
SliderTickRate:1

[Events]
//Background and Video events
0,0,"a088430a-9f83-441c-8a41-64ee771535f2.png",0,0
//Break Periods
//Storyboard Layer 0 (Background)
//Storyboard Layer 1 (Fail)
//Storyboard Layer 2 (Pass)
//Storyboard Layer 3 (Foreground)
//Storyboard Layer 4 (Overlay)
//Storyboard Sound Samples

[TimingPoints]
-1127,486.223662884927,4,2,1,40,1,0
330,-66.6666666666667,4,2,1,40,0,0
817,-133.333333333333,4,2,1,40,0,0
2275,-66.6666666666667,4,2,1,40,0,0
2761,-133.333333333333,4,2,1,40,0,0
4220,-100,4,2,1,40,0,0
4586,-100,4,2,1,5,0,0
4706,-133.333333333333,4,2,1,40,0,0
6165,-100,4,2,1,40,0,0
6247,-100,4,2,1,5,0,0
6651,-133.333333333333,4,2,1,40,0,0
7867,-100,4,2,1,40,0,0
8475,-100,4,2,1,5,0,0
8596,-133.333333333333,4,2,1,40,0,0
9569,-100,4,2,1,40,0,0
10541,-133.333333333333,4,2,1,40,0,0
11757,-100,4,2,1,40,0,0
12486,-133.333333333333,4,2,1,40,0,0
13458,-100,4,2,1,40,0,0
14431,-133.333333333333,4,2,1,40,0,0
14917,-88.8888888888889,4,2,1,40,0,0
15079,-100,4,2,1,5,0,0
15160,-60.6060606060606,4,2,1,40,0,0
15322,-66.6666666666667,4,2,1,5,0,0
15403,-44.4444444444445,4,2,1,50,0,0
15565,-50,4,2,1,5,0,0
15646,-36.3636363636364,4,2,1,65,0,0
15808,-40,4,2,1,5,0,0
15889,-33.3333333333333,4,2,1,80,0,0
16052,-36.3636363636364,4,2,1,5,0,0
16133,-30.3030303030303,4,2,1,95,0,0
16295,-33.3333333333333,4,2,1,5,0,0
16376,-80,4,2,1,65,0,0
16740,-80,4,2,1,5,0,0
16862,-40,4,2,1,65,0,0
17287,-40,4,2,1,5,0,0
17348,-40,4,2,1,65,0,0
18199,-40,4,2,1,5,0,0
18321,-50,4,2,1,65,0,0
18442,-50,4,2,1,5,0,0
18807,-50,4,2,1,65,0,0
18928,-50,4,2,1,5,0,0
19050,-66.6666666666667,4,2,1,65,0,0
19171,-66.6666666666667,4,2,1,5,0,0
19293,-66.6666666666667,4,2,1,65,0,0
19415,-66.6666666666667,4,2,1,5,0,0
19536,-66.6666666666667,4,2,1,65,0,0
19658,-66.6666666666667,4,2,1,5,0,0
19779,-50,4,2,1,65,0,0
19901,-50,4,2,1,5,0,0
20022,-50,4,2,1,65,0,0
20144,-50,4,2,1,5,0,0
20265,-80,4,2,1,65,0,0
20630,-80,4,2,1,5,0,0
20752,-40,4,2,1,65,0,0
21177,-40,4,2,1,5,0,0
21238,-40,4,2,1,65,0,0
22089,-40,4,2,1,5,0,0
22210,-50,4,2,1,65,0,0
22332,-50,4,2,1,5,0,0
22697,-50,4,2,1,65,0,0
22818,-50,4,2,1,5,0,0
22940,-66.6666666666667,4,2,1,65,0,0
23061,-66.6666666666667,4,2,1,5,0,0
23183,-66.6666666666667,4,2,1,65,0,0
23304,-66.6666666666667,4,2,1,5,0,0
23426,-66.6666666666667,4,2,1,65,0,0
23547,-66.6666666666667,4,2,1,5,0,0
23669,-50,4,2,1,65,0,0
23791,-50,4,2,1,5,0,0
23912,-50,4,2,1,65,0,0
24034,-50,4,2,1,5,0,0
24155,-80,4,2,1,65,0,0
24520,-80,4,2,1,5,0,0
24641,-40,4,2,1,65,0,0
25067,-40,4,2,1,5,0,0
25128,-40,4,2,1,65,0,0
25979,-40,4,2,1,5,0,0
26100,-50,4,2,1,65,0,0
26222,-50,4,2,1,5,0,0
26586,-50,4,2,1,65,0,0
26708,-50,4,2,1,5,0,0
26829,-66.6666666666667,4,2,1,65,0,0
26951,-66.6666666666667,4,2,1,5,0,0
27073,-66.6666666666667,4,2,1,65,0,0
27194,-66.6666666666667,4,2,1,5,0,0
27316,-66.6666666666667,4,2,1,65,0,0
27437,-66.6666666666667,4,2,1,5,0,0
27559,-50,4,2,1,65,0,0
27680,-50,4,2,1,5,0,0
27802,-50,4,2,1,65,0,0
27923,-50,4,2,1,5,0,0
28045,-80,4,2,1,65,0,0
28410,-80,4,2,1,5,0,0
28531,-40,4,2,1,65,0,0
28957,-40,4,2,1,5,0,0
29017,-40,4,2,1,65,0,0
29868,-40,4,2,1,5,0,0
29990,-40,4,2,1,65,0,0
30111,-40,4,2,1,5,0,0
30476,-40,4,2,1,65,0,0
30598,-40,4,2,1,5,0,0
30719,-66.6666666666667,4,2,1,65,0,0
30841,-66.6666666666667,4,2,1,5,0,0
30962,-66.6666666666667,4,2,1,65,0,0
31084,-66.6666666666667,4,2,1,5,0,0
31205,-66.6666666666667,4,2,1,65,0,0
31327,-66.6666666666667,4,2,1,5,0,0
31449,-66.6666666666667,4,2,1,65,0,0
31571,-66.6666666666667,4,2,1,75,0,0
31935,-40,4,2,1,75,0,0
32502,-40,4,2,1,5,0,0
32583,-40,4,2,1,75,0,0
32664,-40,4,2,1,5,0,0
32745,-100,4,2,1,75,0,0
33393,-50,4,2,1,75,0,0
34366,-40,4,2,1,75,0,0
34447,-40,4,2,1,5,0,0
34528,-40,4,2,1,75,0,0
34609,-40,4,2,1,5,0,0
34690,-100,4,2,1,75,0,0
35703,-100,4,2,1,5,0,0
35825,-40,4,2,1,75,0,0
36392,-40,4,2,1,5,0,0
36473,-40,4,2,1,75,0,0
36554,-40,4,2,1,5,0,0
36635,-100,4,2,1,75,0,0
37769,-50,4,2,1,75,0,0
38256,-40,4,2,1,75,0,0
38337,-40,4,2,1,5,0,0
38418,-40,4,2,1,75,0,0
38499,-40,4,2,1,5,0,0
38580,-100,4,2,1,75,0,0
39228,-40,4,2,1,75,0,0
39390,-40,4,2,1,5,0,0
39471,-100,4,2,1,75,0,0
39593,-100,4,2,1,5,0,0
39714,-40,4,2,1,75,0,0
40201,-40,4,2,1,75,0,0
40282,-40,4,2,1,5,0,0
40363,-40,4,2,1,75,0,0
40444,-40,4,2,1,5,0,0
40525,-100,4,2,1,75,0,0
41659,-50,4,2,1,75,0,0
42146,-40,4,2,1,75,0,0
42227,-40,4,2,1,5,0,0
42308,-40,4,2,1,75,0,0
42389,-40,4,2,1,5,0,0
42470,-100,4,2,1,75,0,0
43361,-100,4,2,1,75,0,0
43483,-100,4,2,1,5,0,0
43604,-40,4,2,1,75,0,0
44171,-40,4,2,1,5,0,0
44252,-40,4,2,1,75,0,0
44334,-40,4,2,1,5,0,0
44415,-100,4,2,1,75,0,0
44740,-100,4,2,1,35,0,0
44982,-100,4,2,1,5,0,0
45063,-50,4,2,1,75,0,0
46116,-50,4,2,1,5,0,0
46197,-50,4,2,1,75,0,0
46278,-50,4,2,1,5,0,0
46359,-100,4,2,1,75,0,0
46765,-50,4,2,1,75,0,0
46886,-50,4,2,1,5,0,0
47008,-50,4,2,1,75,0,0
47494,-40,4,2,1,75,0,0
48061,-40,4,2,1,5,0,0
48142,-40,4,2,1,75,0,0
48223,-40,4,2,1,5,0,0
48304,-100,4,2,1,75,0,0
48629,-100,4,2,1,35,0,0
48872,-100,4,2,1,5,0,0
48953,-100,4,2,1,75,0,0
49439,-40,4,2,1,75,0,0
50006,-40,4,2,1,5,0,0
50087,-40,4,2,1,75,0,0
50168,-40,4,2,1,5,0,0
50249,-80,4,2,1,75,0,0
50776,-80,4,2,1,5,0,0
50898,-80,4,2,1,75,0,0
51384,-40,4,2,1,75,0,0
51951,-40,4,2,1,5,0,0
52032,-40,4,2,1,75,0,0
52113,-40,4,2,1,5,0,0
52194,-100,4,2,1,75,0,0
52519,-100,4,2,1,35,0,0
52761,-100,4,2,1,5,0,0
52842,-100,4,2,1,75,0,0
53329,-40,4,2,1,75,0,0
53896,-40,4,2,1,5,0,0
53977,-40,4,2,1,75,0,0
54058,-40,4,2,1,5,0,0
54139,-100,4,2,1,75,0,0
54544,-50,4,2,1,75,0,0
54666,-50,4,2,1,5,0,0
54787,-40,4,2,1,75,0,0
55193,-40,4,2,1,5,0,0
55274,-50,4,2,1,75,0,0
55760,-66.6666666666667,4,2,1,75,0,0
57218,-40,4,2,1,75,0,0
57299,-40,4,2,1,5,0,0
57381,-40,4,2,1,75,0,0
57462,-40,4,2,1,5,0,0
57543,-40,4,2,1,75,0,0
57624,-40,4,2,1,5,0,0
57705,-66.6666666666667,4,2,1,75,0,0
59163,-40,4,2,1,75,0,0
59487,-66.6666666666667,4,2,1,75,0,0
59569,-66.6666666666667,4,2,1,5,0,0
59650,-66.6666666666667,4,2,1,75,0,0
61108,-40,4,2,1,75,0,0
61594,-50,4,2,1,75,0,0
61959,-50,4,2,1,75,0,0
62081,-50,4,2,1,75,0,0
62202,-50,4,2,1,5,0,0
62324,-66.6666666666667,4,2,1,75,0,0
62445,-66.6666666666667,4,2,1,5,0,0
62567,-100,4,2,1,50,0,0
63053,-200,4,2,1,25,0,0
63296,-200,4,2,1,5,0,0
63539,-200,4,2,1,10,0,0

[Colours]
Combo1 : 123,253,231
Combo2 : 255,179,255
Combo3 : 255,179,181

[HitObjects]
71,208,331,6,0,P|32:172|20:116,2,100.000003814697,2|2|2,0:0|0:0|0:0,0:0:0:0:
272,65,818,6,0,L|171:81,1,100,0|0,3:0|0:0,0:0:0:0:
280,152,1304,2,0,L|412:132,1,100
432,69,1790,1,8,0:0:0:0:
81,256,2276,6,0,P|34:231|11:187,2,100,2|2|2,0:0|0:0|0:0,0:0:0:0:
238,65,2762,6,0,L|145:106,1,100,0|0,3:0|0:0,0:0:0:0:
268,147,3248,2,0,L|391:93,1,100,0|0,3:0|0:0,0:0:0:0:
397,25,3735,1,10,0:0:0:0:
390,20,3978,1,2,0:0:0:0:
472,106,4221,6,0,B|510:157|473:188|455:180|414:224|471:279,1,150,2|0,0:0|0:0,0:0:0:0:
492,378,4707,6,0,L|387:359,1,100.000003814697,2|0,3:2|0:0,0:0:0:0:
288,299,5194,2,0,L|358:291,1,50.0000019073487,2|0,0:0|0:0,0:0:0:0:
337,293,5437,1,2,0:0:0:0:
123,364,5680,1,8,0:0:0:0:
123,364,6166,6,0,P|110:335|117:307,1,33.3333333333333,2|0,0:3|0:0,0:0:0:0:
246,47,6652,6,0,L|289:53,2,37.5000014305115,2|0|0,3:2|0:0|0:0,0:0:0:0:
402,108,7138,2,0,L|320:130,1,75.0000028610231,2|0,3:2|0:0,0:0:0:0:
500,136,7625,5,8,0:0:0:0:
493,148,7868,2,0,B|459:166|447:207|469:227|496:289|399:380|336:279,1,250,2|0,3:2|0:0,0:0:0:0:
224,363,8597,6,0,L|237:292,1,50,2|0,3:2|0:0,0:0:0:0:
179,244,8921,1,2,0:0:0:0:
117,355,9083,2,0,L|112:283,2,50,2|0|0,0:0|0:0|0:0,0:0:0:0:
0,228,9570,6,0,P|25:196|63:179,1,66.6666666666667,10|0,0:0|0:0,0:0:0:0:
110,127,9894,2,0,P|73:100|27:104,1,66.6666666666667,2|0,0:0|0:0,0:0:0:0:
5,25,10218,1,2,0:0:0:0:
5,25,10299,1,2,0:0:0:0:
311,176,10542,6,0,L|191:203,1,100.000003814697,2|0,3:2|0:0,0:0:0:0:
378,237,11028,2,0,L|364:308,1,50,2|0,3:2|0:0,0:0:0:0:
368,286,11271,1,2,0:0:0:0:
272,93,11514,6,0,P|270:79|297:53,1,50.0000019073487,10|0,0:0|0:0,0:0:0:0:
349,114,11758,2,0,B|392:177|339:225|289:202|264:245|319:289|286:316,1,200,2|0,0:0|0:0,0:0:0:0:
84,364,12487,6,0,L|91:313,2,50,2|0|0,3:2|0:0|0:0,0:0:0:0:
16,269,12973,2,0,L|7:166,1,100.000003814697,2|0,0:0|0:0,0:0:0:0:
179,105,13459,6,0,P|156:148|121:171,2,66.6666666666667,10|0|0,0:0|0:0|0:0,0:0:0:0:
42,24,13946,1,2,0:0:0:0:
79,105,14108,1,2,0:0:0:0:
79,105,14189,1,2,0:0:0:0:
291,72,14432,6,0,L|300:154,1,75.0000028610231,2|0,3:2|0:0,0:0:0:0:
299,146,14918,6,0,L|290:71,1,75.000002861023,2|0,3:2|0:0,0:0:0:0:
271,57,15161,2,0,L|321:168,1,110.000001049042,2|0,0:0|0:0,0:0:0:0:
357,154,15404,2,0,L|224:57,1,150.000005722046,8|0,0:0|0:0,0:0:0:0:
207,108,15647,2,0,L|435:120,1,183.333335081736,2|0,3:2|0:0,0:0:0:0:
389,58,15890,2,0,L|201:180,1,200.000007629395,2|0,0:0|0:0,0:0:0:0:
285,231,16134,2,0,L|324:-8,1,220.000002098084,2|0,0:0|0:0,0:0:0:0:
321,14,16377,6,0,B|272:9|242:41|242:41|207:83|149:63,1,187.5,2|2,3:1|0:0,0:0:0:0:
150,63,16863,6,0,B|184:27|252:40|263:103|263:103|292:226|292:226|305:290|384:306|417:242,1,437.5,2|0,0:1|0:0,0:0:0:0:
412,249,17349,5,8,0:2:0:0:
111,363,17592,1,0,0:0:0:0:
150,63,17835,1,0,0:0:0:0:
240,194,18078,6,0,B|221:219|229:251|229:251|186:219|202:193,1,125,2|0,0:3|0:0,0:0:0:0:
38,114,18322,6,0,L|53:6,1,100,2|0,3:1|0:0,0:0:0:0:
51,14,18808,2,0,L|38:114,1,100,2|0,3:1|0:0,0:0:0:0:
24,248,19051,2,0,L|13:334,1,75.0000028610231
290,308,19294,6,0,P|297:290|258:237,1,75.0000028610231,8|0,0:0|0:0,0:0:0:0:
136,276,19537,2,0,P|128:293|167:346,1,75.0000028610231,2|0,0:0|0:0,0:0:0:0:
286,319,19780,6,0,P|256:257|308:190,1,100,2|0,0:0|0:0,0:0:0:0:
161,346,20023,2,0,P|165:297|138:256,1,100,2|0,0:0|0:0,0:0:0:0:
153,11,20266,6,0,B|133:60|168:90|168:90|210:128|181:185,1,187.5,2|0,3:1|0:0,0:0:0:0:
184,182,20753,6,0,B|138:138|179:66|243:77|243:77|366:98|366:98|434:110|473:34|418:-2,1,437.5,2|0,0:1|0:0,0:0:0:0:
427,5,21239,5,8,0:0:0:0:
267,207,21482,1,0,0:0:0:0:
512,257,21725,1,0,0:0:0:0:
381,120,21968,6,0,B|401:138|397:181|397:181|410:143|452:128,1,125,2|0,0:3|0:0,0:0:0:0:
431,9,22211,6,0,P|357:22|328:54,1,100,2|0,3:1|0:0,0:0:0:0:
340,36,22698,6,0,P|381:10|431:9,1,100,2|0,3:1|0:0,0:0:0:0:
434,136,22941,2,0,P|477:158|501:193,1,75.0000028610231
331,355,23184,6,0,P|297:334|283:290,1,75.0000028610231,8|0,0:0|0:0,0:0:0:0:
457,273,23427,2,0,P|456:312|424:346,1,75.0000028610231,2|0,3:1|0:0,0:0:0:0:
323,366,23670,6,0,P|309:304|245:253,1,100,2|0,0:0|0:0,0:0:0:0:
447,345,23913,2,0,P|442:282|488:214,1,100,2|0,0:0|0:0,0:0:0:0:
419,71,24156,6,0,B|368:54|341:91|341:91|306:136|247:111,1,187.5,2|0,3:1|0:0,0:0:0:0:
252,113,24642,6,0,B|296:67|368:108|357:172|357:172|338:290|338:290|324:355|228:348|224:284,1,437.5,2|0,0:1|0:0,0:0:0:0:
225,293,25129,5,8,0:0:0:0:
58,126,25372,1,0,0:0:0:0:
1,364,25615,1,0,0:0:0:0:
101,275,25858,6,0,B|127:262|142:226|142:226|116:246|77:230,1,125,2|0,0:3|0:0,0:0:0:0:
57,126,26102,6,0,P|20:159|4:206,1,100,2|0,3:1|0:0,0:0:0:0:
4,206,26587,6,0,P|21:159|58:126,1,100,2|0,3:1|0:0,0:0:0:0:
78,38,26830,2,0,P|126:29|174:43,1,75.0000028610231
340,122,27074,6,0,P|315:166|277:174,1,75.0000028610231,8|0,0:0|0:0,0:0:0:0:
212,109,27317,2,0,P|237:65|275:57,1,75.0000028610231,2|0,0:0|0:0,0:0:0:0:
377,178,27560,6,0,P|338:162|259:184,1,100,2|0,0:0|0:0,0:0:0:0:
179,35,27803,2,0,P|207:65|215:147,1,100,2|0,0:0|0:0,0:0:0:0:
83,346,28046,6,0,B|90:292|135:284|135:284|190:272|194:208,1,187.5,2|0,3:1|0:0,0:0:0:0:
194,213,28532,6,0,B|146:254|208:318|252:273|252:273|310:211|398:209|438:346|347:387|287:367|276:324,1,437.5,2|0,0:1|0:0,0:0:0:0:
288,344,29018,5,8,0:0:0:0:
299,115,29262,1,0,0:0:0:0:
512,220,29505,1,0,0:0:0:0:
359,267,29748,6,0,B|338:244|352:209|352:209|386:226|380:269,1,125,2|0,0:3|0:0,0:0:0:0:
292,348,29991,6,0,L|158:337,1,125,2|0,3:1|0:0,0:0:0:0:
167,337,30477,6,0,L|292:348,1,125,2|0,3:1|0:0,0:0:0:0:
388,312,30720,2,0,L|463:288,1,75.0000028610231
440,64,30963,6,0,P|407:91|390:154,1,75.0000028610231,8|0,0:0|0:0,0:0:0:0:
465,174,31206,2,0,P|498:147|515:84,1,75.0000028610231,2|0,3:1|0:0,0:0:0:0:
374,2,31450,5,2,0:0:0:0:
389,224,31612,1,2,0:0:0:0:
276,29,31774,1,2,0:0:0:0:
168,243,31936,6,0,B|185:266|185:266|237:259|266:218|252:156,2,166.666666666667,2|0|0,3:3|0:0|0:3,0:0:0:0:
21,75,32422,2,0,P|42:28|92:1,1,83.3333333333333,2|0,0:0|0:0,0:0:0:0:
182,44,32584,2,0,P|196:82|189:123,1,83.3333333333333,2|0,0:0|0:0,0:0:0:0:
51,243,32746,6,0,B|74:167|74:167|81:162|81:162|110:76,1,166.666666666667,2|0,0:3|0:0,0:0:0:0:
335,21,33394,6,0,L|475:37,2,133.333333333333,2|0|0,0:0|0:0|0:0,0:0:0:0:
276,262,33881,2,0,P|338:269|380:191,1,133.333333333333,2|0,3:3|0:0,0:0:0:0:
349,109,34205,1,2,0:0:0:0:
194,215,34367,6,0,L|129:268,1,83.3333333333333,2|0,3:2|0:0,0:0:0:0:
174,38,34529,2,0,L|100:0,1,83.3333333333333,2|0,0:0|0:0,0:0:0:0:
86,138,34691,6,0,B|169:127|169:127|177:131|177:131|252:119,1,166.666666666667,2|0,0:3|0:0,0:0:0:0:
512,295,35339,5,2,0:0:0:0:
469,372,35501,1,2,0:0:0:0:
469,372,35582,2,0,P|438:357|433:342,1,50,2|0,0:0|0:0,0:0:0:0:
353,193,35826,6,0,B|315:178|284:221|284:221|293:268|251:307,1,166.666666666667,2|0,3:3|0:0,0:0:0:0:
90,362,36150,1,0,0:0:0:0:
147,296,36312,6,0,P|163:257|217:236,1,83.3333333333333,2|0,0:0|0:0,0:0:0:0:
0,227,36474,2,0,P|35:247|50:285,1,83.3333333333333,2|0,0:0|0:0,0:0:0:0:
90,362,36636,6,0,B|95:285|95:285|101:280|101:280|108:182,1,166.666666666667,2|0,0:3|0:0,0:0:0:0:
342,72,37284,5,2,0:0:0:0:
192,41,37446,1,2,0:0:0:0:
342,72,37608,1,2,0:0:0:0:
123,105,37770,6,0,P|55:76|34:16,1,133.333333333333,2|0,3:3|0:0,0:0:0:0:
8,165,38095,1,2,0:0:0:0:
214,149,38257,6,0,L|308:124,1,83.3333333333333,2|0,3:2|0:0,0:0:0:0:
266,296,38419,2,0,L|189:245,1,83.3333333333333,2|0,0:0|0:0,0:0:0:0:
344,226,38581,6,0,B|429:235|429:235|434:239|434:239|516:252,1,166.666666666667,2|0,0:3|3:0,0:0:0:0:
470,19,39229,6,2,B|448:42|396:53|396:53|449:44|501:69,1,166.666666666667,2|0,0:3|0:0,0:2:0:0:
494,62,39472,6,0,L|484:-6,1,50,2|0,0:3|0:0,0:0:0:0:
233,48,39715,6,0,B|195:35|161:70|161:70|119:111|71:82,1,166.666666666667,2|0,3:0|0:0,0:0:0:0:
213,201,40040,1,2,0:0:0:0:
416,288,40202,6,0,P|377:346|336:350,1,83.3333333333333,2|0,0:3|0:0,0:0:0:0:
333,138,40364,2,0,P|371:79|412:75,1,83.3333333333333,2|0,0:0|0:0,0:0:0:0:
450,211,40526,6,0,B|405:200|405:200|344:229|344:229|287:216,1,166.666666666667,2|0,0:3|0:0,0:0:0:0:
76,384,41174,5,2,0:0:0:0:
98,141,41336,1,2,0:0:0:0:
76,384,41498,1,2,0:0:0:0:
7,143,41660,6,0,P|20:90|99:54,1,133.333333333333,2|0,3:3|0:0,0:0:0:0:
229,55,41984,1,2,0:0:0:0:
85,53,42147,6,0,P|44:66|17:96,1,83.3333333333333,2|0,3:3|0:0,0:0:0:0:
236,145,42309,2,0,P|277:132|304:102,1,83.3333333333333,2|0,0:0|0:0,0:0:0:0:
229,55,42471,6,0,B|178:71|178:71|141:127|141:127|97:141,1,166.666666666667,2|0,0:3|0:0,0:0:0:0:
0,382,43119,5,2,0:0:0:0:
59,315,43281,1,2,0:0:0:0:
59,315,43362,2,0,P|96:318|107:339,1,50,2|0,0:0|0:0,0:0:0:0:
351,370,43605,6,0,B|375:381|375:381|427:355|445:298|411:236,2,166.666666666667,2|0|0,3:0|0:0|0:0,0:0:0:0:
251,337,44091,6,0,L|262:247,1,83.3333333333333,2|0,0:3|0:0,0:0:0:0:
152,108,44253,2,0,L|229:165,1,83.3333333333333,2|0,0:3|0:0,0:0:0:0:
386,148,44415,6,0,L|311:175,2,66.6666666666667,2|8|2,0:3|0:0|0:3,0:0:0:0:
342,152,44902,6,0,L|285:171,1,33.3333333333333,2|0,0:3|0:0,0:0:0:0:
143,222,45064,5,2,0:0:0:0:
75,120,45226,1,2,0:0:0:0:
125,358,45388,1,2,0:0:0:0:
34,45,45550,6,0,P|101:36|153:80,1,133.333333333333,2|0,3:0|0:0,0:0:0:0:
351,62,45874,1,2,0:0:0:0:
261,198,46036,6,0,L|246:124,1,66.6666666666667,2|0,3:3|0:0,0:0:0:0:
406,159,46198,2,0,L|373:224,1,66.6666666666667,2|0,0:0|0:0,0:0:0:0:
287,348,46360,6,0,L|301:282,2,66.6666666666667,2|8|0,0:3|0:0|0:0,0:0:0:0:
380,354,46766,2,0,P|435:340|451:258,1,100,0|0,3:2|0:0,0:0:0:0:
480,86,47009,5,2,0:0:0:0:
274,196,47171,1,2,0:0:0:0:
512,170,47333,1,2,0:0:0:0:
345,21,47495,6,0,B|305:5|273:43|273:43|241:77|183:58,1,166.666666666667,2|0,3:0|0:0,0:0:0:0:
54,10,47819,1,2,0:0:0:0:
203,152,47981,6,0,P|168:166|133:211,1,83.3333333333333,2|0,0:3|0:0,0:0:0:0:
3,84,48143,2,0,P|21:121|20:162,1,83.3333333333333,2|0,0:3|0:0,0:0:0:0:
31,298,48305,6,0,L|3:358,2,66.6666666666667,2|8|2,0:3|0:0|0:3,0:0:0:0:
26,280,48792,6,0,L|3:330,1,33.3333333333333,2|0,0:3|0:0,0:0:0:0:
96,384,48954,5,2,0:0:0:0:
273,264,49116,1,2,0:0:0:0:
471,356,49278,1,2,0:0:0:0:
449,165,49440,6,0,P|426:88|339:63,1,166.666666666667,2|0,3:0|0:0,0:0:0:0:
142,82,49764,1,2,0:0:0:0:
281,347,49926,6,0,L|272:265,1,83.3333333333333,2|0,3:0|0:0,0:0:0:0:
249,103,50088,2,0,L|238:21,1,83.3333333333333,2|0,0:3|0:0,0:0:0:0:
385,174,50250,6,2,B|353:208|301:187|301:187|254:170|213:203|213:203|178:230|129:204,1,270.833333333333,2|0,0:3|0:0,0:2:0:0:
31,227,50899,5,2,0:0:0:0:
270,265,51061,1,2,0:0:0:0:
213,12,51223,1,2,0:0:0:0:
43,131,51385,6,0,B|23:157|23:157|48:231|145:224|183:170,1,166.666666666667,2|0,3:0|0:0,0:0:0:0:
213,12,51709,1,0,0:0:0:0:
95,54,51871,6,0,P|137:62|166:95,1,83.3333333333333,2|0,0:3|0:0,0:0:0:0:
325,87,52033,2,0,P|282:83|245:106,1,83.3333333333333,2|0,0:3|0:0,0:0:0:0:
181,266,52195,6,0,L|174:332,2,66.6666666666667,2|8|2,0:3|0:0|0:3,0:0:0:0:
163,258,52681,6,0,L|157:316,1,33.3333333333333,2|0,0:3|0:0,0:0:0:0:
49,369,52843,5,2,0:0:0:0:
176,109,53006,1,2,0:0:0:0:
247,384,53168,1,2,0:0:0:0:
440,149,53330,6,0,B|444:102|381:88|368:136|368:136|347:242,1,166.666666666667,2|0,3:0|0:0,0:0:0:0:
336,329,53654,1,0,0:0:0:0:
486,274,53816,6,0,L|371:260,1,83.3333333333333,2|0,3:3|0:0,0:0:0:0:
209,239,53978,2,0,L|324:253,1,83.3333333333333,2|0,0:3|0:0,0:0:0:0:
440,149,54140,6,0,L|510:137,2,66.6666666666667,2|8|0,0:3|0:0|0:0,0:0:0:0:
352,97,54545,2,0,P|312:87|270:146,1,100,0|0,3:0|0:0,0:0:0:0:
14,261,54788,6,2,B|16:290|74:317|121:253|76:203|76:203|29:148|44:37|185:48|189:134,1,416.666666666667,2|0,0:0|0:0,0:1:0:0:
223,199,55275,6,0,L|206:345,1,133.333333333333,2|0,3:3|0:0,0:0:0:0:
352,97,55599,1,2,0:0:0:0:
301,329,55761,6,0,B|343:337|367:307|367:307|397:268|437:282,1,150.000005722046,2|0,0:3|0:0,0:0:0:0:
12,66,56247,5,10,0:0:0:0:
252,36,56409,1,2,0:0:0:0:
41,164,56571,1,2,0:0:0:0:
125,4,56733,5,2,0:0:0:0:
230,218,56895,1,2,0:0:0:0:
393,41,57057,1,2,0:0:0:0:
378,338,57219,6,0,L|349:259,1,83.3333333333333,2|0,3:3|0:0,0:0:0:0:
329,163,57382,6,0,L|410:177,1,83.3333333333333,2|0,0:3|0:0,0:0:0:0:
511,205,57544,6,0,L|456:268,1,83.3333333333333,2|0,0:3|0:0,0:0:0:0:
268,356,57706,6,0,B|228:378|193:348|193:348|163:322|121:340,1,150.000005722046,2|0,3:0|0:0,0:0:0:0:
0,59,58192,5,10,0:0:0:0:
161,149,58354,1,2,0:0:0:0:
128,337,58516,1,2,0:0:0:0:
177,41,58678,5,2,0:0:0:0:
41,244,58840,1,2,0:0:0:0:
269,154,59002,1,2,0:0:0:0:
325,316,59164,6,0,P|320:269|408:202,1,166.666666666667,2|0,3:0|0:0,0:0:0:0:
468,257,59407,1,2,0:0:0:0:
468,257,59488,2,0,P|490:229|469:199,1,50.0000019073487,2|0,0:0|0:0,0:0:0:0:
325,3,59651,6,0,B|301:28|318:71|360:77|360:77|468:91,1,200.000007629395,2|0,0:3|0:0,0:0:0:0:
205,18,60137,5,10,0:0:0:0:
79,47,60299,1,2,0:0:0:0:
205,18,60461,1,2,0:0:0:0:
20,140,60623,5,2,0:0:0:0:
256,174,60785,1,2,0:0:0:0:
20,140,60947,1,2,0:0:0:0:
171,339,61109,6,0,P|166:278|121:158,2,166.666666666667,2|0|2,3:0|0:0|0:0,0:0:0:0:
29,272,61595,6,0,B|79:213|154:252|154:252|184:272|184:272|257:317|323:245,1,300,2|0,3:0|0:0,0:0:0:0:
303,269,62082,6,0,P|322:224|300:166,1,100,8|0,0:0|0:0,0:0:0:0:
341,86,62325,2,0,P|311:52|266:45,1,75.0000028610231,2|0,3:0|0:0,0:0:0:0:
64,67,62568,6,0,P|80:98|67:64,1,100,2|0,0:0|0:0,0:0:0:0:
86,74,63054,6,0,P|77:89|84:72,1,50,2|0,0:0|0:0,0:0:0:0:
80,81,63540,5,2,0:0:0:0:
