osu file format v14

[General]
AudioFilename: audio.mp3
AudioLeadIn: 0
PreviewTime: 69501
Countdown: 0
SampleSet: Soft
StackLeniency: 0.7
Mode: 0
LetterboxInBreaks: 0
WidescreenStoryboard: 1

[Editor]
DistanceSpacing: 1.3
BeatDivisor: 4
GridSize: 4
TimelineZoom: 1

[Metadata]
Title:Past the Castle Walls
TitleUnicode:Past the Castle Walls
Artist:Lil Tracy & Lil Peep
ArtistUnicode:Lil Tracy & Lil Peep
Creator:- titan
Version:Normal
Source:
Tags:gothboiclique charlie shuffler castles ii 2 yung bruh alternative rock hip hop emo rap
BeatmapID:1607100
BeatmapSetID:753278

[Difficulty]
HPDrainRate:5
CircleSize:3
OverallDifficulty:5
ApproachRate:5
SliderMultiplier:0.8
SliderTickRate:1

[Events]
//Background and Video events
0,0,"hotties.png",0,0
//Break Periods
2,35002,44988
2,58135,68181
2,81266,91313
//Storyboard Layer 0 (Background)
//Storyboard Layer 1 (Fail)
//Storyboard Layer 2 (Pass)
//Storyboard Layer 3 (Foreground)
//Storyboard Sound Samples

[TimingPoints]
11670,361.44578313253,4,2,0,60,1,0
34802,-99.9999999999999,4,2,0,50,0,0
46368,-100,4,2,0,60,0,0
47814,-100,4,2,0,40,0,0
49260,-100,4,2,0,60,0,0
57935,-100,4,2,0,40,0,0
69501,-100,4,2,0,70,0,1
80344,-100,4,2,0,70,0,0
81067,-166.666666666667,4,2,0,50,0,0
92633,-100,4,2,0,70,0,1
94079,-100,4,2,0,40,0,0
95525,-100,4,2,0,70,0,1
104200,-100,4,2,0,50,0,0
115766,-100,4,2,0,50,0,0
118657,-100,4,2,0,60,0,0
127332,-100,4,2,0,50,0,0
138898,-100,4,2,0,60,0,0
140344,-100,4,2,0,40,0,0
141790,-100,4,2,0,60,0,0
150465,-100,4,2,0,20,0,0

[Colours]
Combo1 : 119,150,242
Combo2 : 236,125,153

[HitObjects]
132,292,23236,6,0,P|208:280|276:324,1,160,0|8,1:0|0:0,0:0:0:0:
376,344,24320,1,0,1:0:0:0:
432,256,24682,2,0,P|432:212|436:164,1,80,0|0,0:0|1:0,0:0:0:0:
460,76,25404,2,0,B|380:64|424:96|332:80,1,120,8|8,0:0|0:0,0:0:0:0:
296,56,26127,6,0,P|228:84|204:168,1,160,0|8,1:0|0:0,0:0:0:0:
236,260,27212,1,0,1:0:0:0:
164,336,27573,2,0,L|84:340,1,80,0|0,0:0|1:0,0:0:0:0:
52,240,28296,2,0,L|132:236,1,80,8|0,0:0|0:0,0:0:0:0:
236,260,29019,6,0,P|312:240|400:232,1,160,0|8,1:0|0:0,0:0:0:0:
440,140,30103,1,0,1:0:0:0:
372,60,30465,2,0,P|328:60|280:56,1,80,0|0,0:0|1:0,0:0:0:0:
196,100,31188,2,0,B|180:176|216:140|200:228,1,120,8|8,0:0|0:0,0:0:0:0:
172,260,31910,5,0,1:0:0:0:
268,296,32272,1,0,1:0:0:0:
356,240,32633,1,8,0:0:0:0:
456,272,32995,1,0,1:0:0:0:
432,172,33356,2,0,P|440:96|456:12,1,160,0|8,0:0|0:0,0:0:0:0:
256,80,34802,5,0,1:0:0:0:
140,328,46368,6,0,P|96:260|112:180,1,160,0|8,1:0|0:0,0:0:0:0:
200,244,47453,1,0,0:0:0:0:
200,244,47633,1,8,0:0:0:0:
200,244,49260,6,0,B|292:272|264:228|364:256,1,160,0|8,1:0|0:0,0:0:0:0:
448,304,50344,1,0,0:0:0:0:
500,212,50706,1,0,0:0:0:0:
408,160,51067,2,0,P|410:95|420:24,1,120,0|0,1:0|1:0,0:0:0:0:
312,56,51971,1,0,1:0:0:0:
312,56,52151,6,0,L|144:60,1,160,0|8,1:0|0:0,0:0:0:0:
76,132,53236,1,0,1:0:0:0:
76,132,53416,2,0,P|80:168|80:216,1,80,8|8,1:2|0:0,0:0:0:0:
116,252,53959,2,0,L|196:248,1,80,0|8,1:0|0:0,0:0:0:0:
324,160,54862,1,8,0:0:0:0:
324,160,55043,6,0,P|389:162|460:172,1,120,0|8,1:0|0:0,0:0:0:0:
472,212,55766,2,0,P|464:271|463:331,1,120,8|8,0:0|0:0,0:0:0:0:
312,376,56850,1,0,1:0:0:0:
244,296,57212,2,0,P|185:288|125:287,1,120,8|0,1:2|1:0,0:0:0:0:
80,316,57935,5,0,0:0:0:0:
40,328,69501,6,0,P|35:286|36:244,1,80,0|0,1:0|0:0,0:0:0:0:
104,172,70224,2,0,B|208:200|156:156|268:184,1,160,8|0,0:0|0:0,0:0:0:0:
312,272,71308,1,0,1:0:0:0:
404,228,71669,2,0,L|484:232,1,80,8|0,0:0|0:0,0:0:0:0:
448,136,72392,5,0,1:0:0:0:
364,76,72754,1,0,1:0:0:0:
316,168,73115,2,0,L|236:172,1,80,8|0,0:0|1:0,0:0:0:0:
156,108,73838,1,0,0:0:0:0:
84,184,74200,2,0,B|88:228|88:228|64:260|64:260|72:336,1,160,0|0,1:0|0:0,0:0:0:0:
168,372,75284,6,0,P|210:367|252:368,1,80,0|0,1:0|0:0,0:0:0:0:
324,300,76007,2,0,B|352:196|304:252|336:136,1,160,8|0,0:0|0:0,0:0:0:0:
376,48,77091,1,0,1:0:0:0:
280,4,77452,2,0,L|200:8,1,80,8|0,0:0|0:0,0:0:0:0:
116,68,78175,5,0,1:0:0:0:
92,168,78537,1,0,1:0:0:0:
156,252,78898,2,0,L|236:256,1,80,8|0,0:0|1:0,0:0:0:0:
316,188,79621,1,0,0:0:0:0:
408,236,79983,1,0,1:0:0:0:
460,148,80344,2,0,L|464:108,4,40,8|0|0|0|0,0:0|1:0|1:0|1:0|0:0,0:0:0:0:
112,320,92633,6,0,P|92:244|96:160,1,160,0|8,1:0|0:0,0:0:0:0:
160,84,93718,1,0,0:0:0:0:
256,128,94079,1,0,0:0:0:0:
256,128,95525,6,0,P|336:140|424:136,1,160,0|8,1:0|0:0,0:0:0:0:
480,220,96609,1,0,0:0:0:0:
400,288,96971,2,0,P|396:324|396:368,1,80,0|0,0:0|1:0,0:0:0:0:
292,380,97694,2,0,P|292:340|287:300,1,80,8|0,0:0|0:0,0:0:0:0:
212,228,98416,6,0,B|108:216|156:248|52:236,1,160,0|8,1:0|0:0,0:0:0:0:
4,144,99501,1,0,1:0:0:0:
76,68,99862,2,0,L|156:72,1,80,0|0,0:0|1:0,0:0:0:0:
244,128,100585,2,0,L|324:124,1,80,8|0,0:0|0:0,0:0:0:0:
412,72,101308,6,0,P|364:132|384:212,1,160,0|8,1:0|0:0,0:0:0:0:
336,300,102392,1,0,0:0:0:0:
244,252,102754,2,0,L|164:256,1,80,0|0,0:0|1:0,0:0:0:0:
84,324,103477,2,0,L|4:320,1,80,8|0,1:2|0:0,0:0:0:0:
48,224,104200,5,0,0:0:0:0:
