osu file format v14

[General]
AudioFilename: audio.mp3
AudioLeadIn: 0
PreviewTime: 33855
Countdown: 1
SampleSet: None
StackLeniency: 0.7
Mode: 3
LetterboxInBreaks: 0
SpecialStyle: 0
WidescreenStoryboard: 1

[Editor]
Bookmarks: 6813,13573,20334,27094,33855,40616,47376,54137,60897,67658,74418,81179,87939,94700
DistanceSpacing: 1
BeatDivisor: 4
GridSize: 4
TimelineZoom: 1.450001

[Metadata]
Title:Flex Like Ouu
TitleUnicode:Flex Like Ouu
Artist:Lil Pump
ArtistUnicode:Lil Pump
Creator:qwr
Version:original ouu
Source:
Tags:
BeatmapID:2228915
BeatmapSetID:732588

[Difficulty]
HPDrainRate:7
CircleSize:4
OverallDifficulty:7
ApproachRate:5
SliderMultiplier:1.4
SliderTickRate:1

[Events]
//Background and Video events
0,0,"flex like ouu.jpg",0,0
//Break Periods
//Storyboard Layer 0 (Background)
//Storyboard Layer 1 (Fail)
//Storyboard Layer 2 (Pass)
//Storyboard Layer 3 (Foreground)
//Storyboard Layer 4 (Overlay)
//Storyboard Sound Samples

[TimingPoints]
52.6521739130435,422.535211267606,4,1,0,20,1,0
152.652173913043,-166.666666666667,4,1,0,20,0,0
6813,-125,4,1,0,20,0,0
13151,-200,4,1,0,20,0,0
13468,-100,4,1,0,20,0,0

[HitObjects]
51,192,52,128,0,475:0:0:0:0:
153,192,475,128,0,897:0:0:0:0:
320,192,897,128,0,1320:0:0:0:0:
448,192,1320,128,0,1742:0:0:0:0:
64,192,1742,128,0,2165:0:0:0:0:
192,192,2165,128,0,2587:0:0:0:0:
320,192,2587,128,0,3010:0:0:0:0:
448,192,3010,128,0,3432:0:0:0:0:
192,192,3432,128,0,3855:0:0:0:0:
448,192,3855,128,0,4278:0:0:0:0:
64,192,4278,128,0,4700:0:0:0:0:
320,192,4700,128,0,5123:0:0:0:0:
192,192,5123,128,0,5545:0:0:0:0:
448,192,5545,128,0,5968:0:0:0:0:
64,192,5968,128,0,6390:0:0:0:0:
320,192,6390,128,0,6813:0:0:0:0:
448,192,6813,128,0,7235:0:0:0:0:
320,192,7235,128,0,7658:0:0:0:0:
192,192,7658,128,0,8080:0:0:0:0:
64,192,8080,128,0,8503:0:0:0:0:
448,192,8503,128,0,8925:0:0:0:0:
320,192,8925,128,0,9348:0:0:0:0:
64,192,8925,128,0,9137:0:0:0:0:
192,192,9348,128,0,9770:0:0:0:0:
64,192,9770,128,0,10193:0:0:0:0:
320,192,9770,128,0,9982:0:0:0:0:
448,192,10193,128,0,10616:0:0:0:0:
192,192,10616,128,0,11038:0:0:0:0:
64,192,10616,1,0,0:0:0:0:
64,192,10827,1,0,0:0:0:0:
320,192,11038,128,0,11461:0:0:0:0:
64,192,11461,128,0,11883:0:0:0:0:
192,192,11461,128,0,11672:0:0:0:0:
448,192,11883,128,0,12306:0:0:0:0:
192,192,12306,128,0,12728:0:0:0:0:
64,192,12306,128,0,12517:0:0:0:0:
320,192,12728,128,0,13151:0:0:0:0:
64,192,13151,128,0,13573:0:0:0:0:
192,192,13151,128,0,13362:0:0:0:0:
320,192,13573,1,0,0:0:0:0:
448,192,13573,1,0,0:0:0:0:
448,192,13785,1,0,0:0:0:0:
192,192,13996,1,0,0:0:0:0:
64,192,13996,1,0,0:0:0:0:
320,192,14207,1,0,0:0:0:0:
448,192,14313,1,0,0:0:0:0:
192,192,14418,1,0,0:0:0:0:
320,192,14418,1,0,0:0:0:0:
192,192,14630,1,0,0:0:0:0:
64,192,14841,1,0,0:0:0:0:
448,192,14841,1,0,0:0:0:0:
320,192,15263,1,0,0:0:0:0:
448,192,15263,1,0,0:0:0:0:
64,192,15475,1,0,0:0:0:0:
192,192,15686,1,0,0:0:0:0:
64,192,15686,1,0,0:0:0:0:
320,192,15897,1,0,0:0:0:0:
448,192,16003,1,0,0:0:0:0:
192,192,16108,1,0,0:0:0:0:
320,192,16108,1,0,0:0:0:0:
192,192,16320,1,0,0:0:0:0:
64,192,16531,1,0,0:0:0:0:
448,192,16531,1,0,0:0:0:0:
192,192,16742,1,0,0:0:0:0:
320,192,16954,1,0,0:0:0:0:
64,192,16954,1,0,0:0:0:0:
448,192,17059,1,0,0:0:0:0:
320,192,17165,1,0,0:0:0:0:
64,192,17376,1,0,0:0:0:0:
320,192,17376,1,0,0:0:0:0:
448,192,17587,1,0,0:0:0:0:
64,192,17693,1,0,0:0:0:0:
192,192,17799,1,0,0:0:0:0:
448,192,17799,128,0,18221:0:0:0:0:
320,192,18010,128,0,18221:0:0:0:0:
192,192,18221,1,0,0:0:0:0:
192,192,18644,1,0,0:0:0:0:
320,192,18644,1,0,0:0:0:0:
64,192,18749,1,0,0:0:0:0:
192,192,18855,1,0,0:0:0:0:
448,192,19066,1,0,0:0:0:0:
320,192,19278,1,0,0:0:0:0:
448,192,19383,1,0,0:0:0:0:
320,192,19489,1,0,0:0:0:0:
192,192,19700,1,0,0:0:0:0:
64,192,19911,128,0,20123:0:0:0:0:
448,192,20334,1,0,0:0:0:0:
64,192,20334,1,0,0:0:0:0:
320,192,20545,1,0,0:0:0:0:
448,192,20651,1,0,0:0:0:0:
192,192,20756,1,0,0:0:0:0:
64,192,20756,1,0,0:0:0:0:
192,192,20968,1,0,0:0:0:0:
320,192,21073,1,0,0:0:0:0:
192,192,21179,128,0,21390:0:0:0:0:
448,192,21390,128,0,21601:0:0:0:0:
64,192,21601,128,0,21813:0:0:0:0:
64,192,22024,1,0,0:0:0:0:
448,192,22024,1,0,0:0:0:0:
192,192,22235,1,0,0:0:0:0:
64,192,22341,1,0,0:0:0:0:
320,192,22447,1,0,0:0:0:0:
448,192,22447,1,0,0:0:0:0:
192,192,22658,1,0,0:0:0:0:
320,192,22763,1,0,0:0:0:0:
192,192,22869,128,0,23080:0:0:0:0:
448,192,23080,128,0,23292:0:0:0:0:
320,192,23292,128,0,23503:0:0:0:0:
64,192,23714,1,0,0:0:0:0:
192,192,23714,1,0,0:0:0:0:
320,192,23820,1,0,0:0:0:0:
448,192,23925,1,0,0:0:0:0:
64,192,24137,1,0,0:0:0:0:
192,192,24242,1,0,0:0:0:0:
448,192,24348,1,0,0:0:0:0:
64,192,24559,1,0,0:0:0:0:
320,192,24770,1,0,0:0:0:0:
192,192,24770,1,0,0:0:0:0:
192,192,24982,1,0,0:0:0:0:
64,192,24982,1,0,0:0:0:0:
192,192,25193,1,0,0:0:0:0:
320,192,25404,1,0,0:0:0:0:
448,192,25404,1,0,0:0:0:0:
192,192,25510,1,0,0:0:0:0:
64,192,25616,1,0,0:0:0:0:
192,192,25827,1,0,0:0:0:0:
64,192,25932,1,0,0:0:0:0:
320,192,26038,1,0,0:0:0:0:
320,192,26249,1,0,0:0:0:0:
448,192,26461,1,0,0:0:0:0:
320,192,26461,1,0,0:0:0:0:
320,192,26672,1,0,0:0:0:0:
192,192,26672,1,0,0:0:0:0:
64,192,27094,128,0,27306:0:0:0:0:
320,192,27094,1,0,0:0:0:0:
448,192,27306,128,0,27517:0:0:0:0:
320,192,27517,128,0,27728:0:0:0:0:
192,192,27728,128,0,27939:0:0:0:0:
320,192,27939,128,0,28151:0:0:0:0:
448,192,27939,1,0,0:0:0:0:
64,192,28151,128,0,28362:0:0:0:0:
192,192,28362,128,0,28785:0:0:0:0:
448,192,28573,1,0,0:0:0:0:
64,192,28785,128,0,28996:0:0:0:0:
448,192,28996,128,0,29207:0:0:0:0:
320,192,29207,128,0,29418:0:0:0:0:
192,192,29418,128,0,29630:0:0:0:0:
320,192,29630,128,0,29841:0:0:0:0:
448,192,29630,1,0,0:0:0:0:
64,192,29841,128,0,30052:0:0:0:0:
192,192,30052,128,0,30475:0:0:0:0:
64,192,30475,128,0,30686:0:0:0:0:
448,192,30475,1,0,0:0:0:0:
192,192,30686,128,0,30897:0:0:0:0:
448,192,30897,128,0,31108:0:0:0:0:
320,192,31108,128,0,31320:0:0:0:0:
64,192,31320,128,0,31531:0:0:0:0:
192,192,31320,1,0,0:0:0:0:
192,192,31531,128,0,31742:0:0:0:0:
320,192,31742,128,0,32165:0:0:0:0:
64,192,32165,128,0,32376:0:0:0:0:
448,192,32376,128,0,32587:0:0:0:0:
192,192,32587,128,0,32799:0:0:0:0:
320,192,32799,128,0,33010:0:0:0:0:
64,192,33010,128,0,33221:0:0:0:0:
192,192,33221,128,0,33432:0:0:0:0:
448,192,33432,128,0,33855:0:0:0:0:
64,192,33855,1,0,0:0:0:0:
192,192,33855,1,0,0:0:0:0:
320,192,33961,1,0,0:0:0:0:
192,192,34066,1,0,0:0:0:0:
448,192,34278,1,0,0:0:0:0:
192,192,34278,1,0,0:0:0:0:
64,192,34489,1,0,0:0:0:0:
192,192,34594,1,0,0:0:0:0:
448,192,34700,1,0,0:0:0:0:
64,192,34700,1,0,0:0:0:0:
64,192,34911,1,0,0:0:0:0:
192,192,34911,1,0,0:0:0:0:
320,192,35123,128,0,35334:0:0:0:0:
448,192,35123,1,0,0:0:0:0:
192,192,35545,1,0,0:0:0:0:
64,192,35545,1,0,0:0:0:0:
320,192,35651,1,0,0:0:0:0:
192,192,35756,1,0,0:0:0:0:
64,192,35968,1,0,0:0:0:0:
320,192,35968,1,0,0:0:0:0:
448,192,36179,1,0,0:0:0:0:
64,192,36390,1,0,0:0:0:0:
192,192,36390,1,0,0:0:0:0:
320,192,36601,1,0,0:0:0:0:
448,192,36601,1,0,0:0:0:0:
320,192,36813,1,0,0:0:0:0:
448,192,36813,1,0,0:0:0:0:
192,192,37024,1,0,0:0:0:0:
64,192,37235,1,0,0:0:0:0:
448,192,37235,1,0,0:0:0:0:
320,192,37447,1,0,0:0:0:0:
448,192,37552,1,0,0:0:0:0:
192,192,37658,1,0,0:0:0:0:
64,192,37658,1,0,0:0:0:0:
192,192,37869,1,0,0:0:0:0:
320,192,37975,1,0,0:0:0:0:
448,192,38080,128,0,38292:0:0:0:0:
64,192,38292,128,0,38503:0:0:0:0:
448,192,38503,128,0,38714:0:0:0:0:
64,192,38925,1,0,0:0:0:0:
320,192,38925,1,0,0:0:0:0:
448,192,39031,1,0,0:0:0:0:
64,192,39137,1,0,0:0:0:0:
192,192,39348,1,0,0:0:0:0:
320,192,39454,1,0,0:0:0:0:
448,192,39559,1,0,0:0:0:0:
64,192,39559,1,0,0:0:0:0:
192,192,39770,1,0,0:0:0:0:
320,192,39770,1,0,0:0:0:0:
320,192,39982,1,0,0:0:0:0:
448,192,39982,1,0,0:0:0:0:
192,192,40193,1,0,0:0:0:0:
64,192,40193,1,0,0:0:0:0:
64,192,40404,1,0,0:0:0:0:
448,192,40404,1,0,0:0:0:0:
64,192,40616,1,0,0:0:0:0:
192,192,40616,1,0,0:0:0:0:
448,192,40616,1,0,0:0:0:0:
320,192,40721,1,0,0:0:0:0:
448,192,40827,1,0,0:0:0:0:
192,192,41038,1,0,0:0:0:0:
64,192,41038,1,0,0:0:0:0:
192,192,41249,1,0,0:0:0:0:
320,192,41355,1,0,0:0:0:0:
448,192,41461,1,0,0:0:0:0:
64,192,41566,1,0,0:0:0:0:
448,192,41883,128,0,42094:0:0:0:0:
320,192,42306,1,0,0:0:0:0:
448,192,42306,1,0,0:0:0:0:
64,192,42411,1,0,0:0:0:0:
192,192,42517,1,0,0:0:0:0:
320,192,42728,1,0,0:0:0:0:
448,192,42728,1,0,0:0:0:0:
192,192,42939,1,0,0:0:0:0:
64,192,43045,1,0,0:0:0:0:
320,192,43151,1,0,0:0:0:0:
192,192,43256,1,0,0:0:0:0:
64,192,43573,128,0,43785:0:0:0:0:
192,192,43996,1,0,0:0:0:0:
448,192,43996,1,0,0:0:0:0:
64,192,44101,1,0,0:0:0:0:
320,192,44207,1,0,0:0:0:0:
192,192,44313,1,0,0:0:0:0:
64,192,44418,1,0,0:0:0:0:
320,192,44418,1,0,0:0:0:0:
448,192,44630,1,0,0:0:0:0:
64,192,44841,1,0,0:0:0:0:
192,192,44947,1,0,0:0:0:0:
64,192,45263,128,0,45475:0:0:0:0:
448,192,45686,128,0,46108:0:0:0:0:
64,192,45897,128,0,46108:0:0:0:0:
320,192,46108,128,0,46320:0:0:0:0:
192,192,46320,1,0,0:0:0:0:
64,192,46425,1,0,0:0:0:0:
448,192,46531,128,0,46954:0:0:0:0:
320,192,46637,128,0,46954:0:0:0:0:
64,192,46954,128,0,47165:0:0:0:0:
320,192,47376,128,0,47799:0:0:0:0:
448,192,47376,1,0,0:0:0:0:
192,192,47587,128,0,47799:0:0:0:0:
64,192,47799,128,0,48010:0:0:0:0:
448,192,48010,128,0,48221:0:0:0:0:
64,192,48221,128,0,48644:0:0:0:0:
192,192,48221,1,0,0:0:0:0:
192,192,48644,128,0,49066:0:0:0:0:
320,192,48644,1,0,0:0:0:0:
448,192,49066,128,0,49278:0:0:0:0:
320,192,49278,128,0,49489:0:0:0:0:
64,192,49489,128,0,49700:0:0:0:0:
192,192,49700,128,0,49911:0:0:0:0:
448,192,49911,128,0,50334:0:0:0:0:
320,192,49911,1,0,0:0:0:0:
320,192,50334,128,0,50756:0:0:0:0:
64,192,50334,1,0,0:0:0:0:
64,192,50756,128,0,51179:0:0:0:0:
192,192,50968,128,0,51179:0:0:0:0:
448,192,51179,1,0,0:0:0:0:
320,192,51285,1,0,0:0:0:0:
448,192,51390,128,0,52024:0:0:0:0:
64,192,51601,128,0,52024:0:0:0:0:
320,192,52024,1,0,0:0:0:0:
192,192,52024,1,0,0:0:0:0:
64,192,52447,1,0,0:0:0:0:
448,192,52447,1,0,0:0:0:0:
192,192,52552,1,0,0:0:0:0:
320,192,52658,1,0,0:0:0:0:
448,192,52658,1,0,0:0:0:0:
64,192,52869,128,0,53292:0:0:0:0:
192,192,53080,128,0,53292:0:0:0:0:
320,192,53292,1,0,0:0:0:0:
64,192,53714,128,0,54137:0:0:0:0:
448,192,53714,128,0,54137:0:0:0:0:
320,192,54137,1,0,0:0:0:0:
192,192,54137,128,0,54348:0:0:0:0:
448,192,54348,1,0,0:0:0:0:
192,192,54559,1,0,0:0:0:0:
64,192,54559,1,0,0:0:0:0:
64,192,54770,1,0,0:0:0:0:
448,192,54876,1,0,0:0:0:0:
320,192,54982,1,0,0:0:0:0:
192,192,54982,128,0,55193:0:0:0:0:
192,192,55404,1,0,0:0:0:0:
320,192,55404,1,0,0:0:0:0:
448,192,55827,128,0,56038:0:0:0:0:
320,192,55827,1,0,0:0:0:0:
192,192,56038,1,0,0:0:0:0:
64,192,56249,1,0,0:0:0:0:
320,192,56249,1,0,0:0:0:0:
448,192,56461,128,0,56672:0:0:0:0:
192,192,56672,128,0,57094:0:0:0:0:
320,192,57094,128,0,57306:0:0:0:0:
320,192,57517,1,0,0:0:0:0:
448,192,57517,1,0,0:0:0:0:
192,192,57728,1,0,0:0:0:0:
320,192,57728,1,0,0:0:0:0:
64,192,57939,1,0,0:0:0:0:
192,192,57939,1,0,0:0:0:0:
192,192,58151,1,0,0:0:0:0:
320,192,58151,1,0,0:0:0:0:
320,192,58362,128,0,58785:0:0:0:0:
448,192,58362,128,0,58785:0:0:0:0:
192,192,58785,128,0,58996:0:0:0:0:
64,192,59207,1,0,0:0:0:0:
448,192,59207,1,0,0:0:0:0:
192,192,59418,1,0,0:0:0:0:
320,192,59418,1,0,0:0:0:0:
64,192,59630,1,0,0:0:0:0:
448,192,59630,1,0,0:0:0:0:
192,192,59841,1,0,0:0:0:0:
320,192,59841,1,0,0:0:0:0:
64,192,60052,1,0,0:0:0:0:
448,192,60052,128,0,60475:0:0:0:0:
320,192,60475,128,0,60686:0:0:0:0:
64,192,60897,128,0,61108:0:0:0:0:
192,192,60897,1,0,0:0:0:0:
320,192,61108,128,0,61320:0:0:0:0:
448,192,61320,128,0,61531:0:0:0:0:
320,192,61531,128,0,61742:0:0:0:0:
64,192,61742,128,0,62165:0:0:0:0:
192,192,61742,1,0,0:0:0:0:
448,192,62165,128,0,62376:0:0:0:0:
64,192,62587,128,0,62799:0:0:0:0:
192,192,62587,1,0,0:0:0:0:
448,192,62799,128,0,63010:0:0:0:0:
320,192,63010,128,0,63221:0:0:0:0:
448,192,63221,128,0,63432:0:0:0:0:
192,192,63432,128,0,63855:0:0:0:0:
448,192,63855,128,0,64066:0:0:0:0:
448,192,64278,128,0,64489:0:0:0:0:
64,192,64278,1,0,0:0:0:0:
320,192,64489,128,0,64700:0:0:0:0:
192,192,64700,128,0,64911:0:0:0:0:
64,192,64911,128,0,65123:0:0:0:0:
192,192,65123,128,0,65545:0:0:0:0:
448,192,65545,128,0,65756:0:0:0:0:
320,192,65545,1,0,0:0:0:0:
448,192,65968,1,0,0:0:0:0:
64,192,65968,128,0,66179:0:0:0:0:
192,192,66179,128,0,66390:0:0:0:0:
320,192,66390,128,0,66601:0:0:0:0:
448,192,66601,128,0,66813:0:0:0:0:
320,192,66813,128,0,67235:0:0:0:0:
64,192,67235,128,0,67447:0:0:0:0:
192,192,67658,1,0,0:0:0:0:
448,192,67658,1,0,0:0:0:0:
320,192,67763,1,0,0:0:0:0:
448,192,67869,1,0,0:0:0:0:
192,192,68080,1,0,0:0:0:0:
64,192,68080,1,0,0:0:0:0:
320,192,68292,1,0,0:0:0:0:
192,192,68397,1,0,0:0:0:0:
64,192,68503,1,0,0:0:0:0:
320,192,68503,1,0,0:0:0:0:
320,192,68714,1,0,0:0:0:0:
320,192,68925,1,0,0:0:0:0:
448,192,68925,1,0,0:0:0:0:
192,192,69348,1,0,0:0:0:0:
448,192,69348,1,0,0:0:0:0:
320,192,69454,1,0,0:0:0:0:
192,192,69559,1,0,0:0:0:0:
192,192,69770,1,0,0:0:0:0:
64,192,69770,1,0,0:0:0:0:
320,192,69982,1,0,0:0:0:0:
192,192,70087,1,0,0:0:0:0:
64,192,70193,1,0,0:0:0:0:
320,192,70193,1,0,0:0:0:0:
448,192,70404,1,0,0:0:0:0:
192,192,70616,1,0,0:0:0:0:
448,192,70616,1,0,0:0:0:0:
64,192,71038,1,0,0:0:0:0:
192,192,71038,1,0,0:0:0:0:
320,192,71144,1,0,0:0:0:0:
448,192,71249,1,0,0:0:0:0:
192,192,71355,1,0,0:0:0:0:
320,192,71461,128,0,71883:0:0:0:0:
448,192,71672,128,0,71883:0:0:0:0:
64,192,71883,1,0,0:0:0:0:
192,192,71883,1,0,0:0:0:0:
64,192,72094,1,0,0:0:0:0:
192,192,72094,1,0,0:0:0:0:
320,192,72306,1,0,0:0:0:0:
448,192,72306,1,0,0:0:0:0:
192,192,72728,1,0,0:0:0:0:
448,192,72728,1,0,0:0:0:0:
320,192,72834,1,0,0:0:0:0:
448,192,72939,1,0,0:0:0:0:
64,192,73045,1,0,0:0:0:0:
192,192,73151,128,0,73573:0:0:0:0:
64,192,73362,128,0,73573:0:0:0:0:
448,192,73573,128,0,73785:0:0:0:0:
320,192,73785,128,0,73996:0:0:0:0:
448,192,73996,128,0,74207:0:0:0:0:
320,192,74418,1,0,0:0:0:0:
64,192,74418,1,0,0:0:0:0:
192,192,74630,1,0,0:0:0:0:
320,192,74735,1,0,0:0:0:0:
448,192,74841,1,0,0:0:0:0:
192,192,74841,1,0,0:0:0:0:
448,192,75052,1,0,0:0:0:0:
192,192,75052,1,0,0:0:0:0:
320,192,75158,1,0,0:0:0:0:
448,192,75263,128,0,75475:0:0:0:0:
320,192,75475,128,0,75686:0:0:0:0:
192,192,75686,128,0,75897:0:0:0:0:
448,192,76108,1,0,0:0:0:0:
64,192,76108,1,0,0:0:0:0:
192,192,76320,1,0,0:0:0:0:
320,192,76425,1,0,0:0:0:0:
192,192,76531,1,0,0:0:0:0:
320,192,76742,1,0,0:0:0:0:
448,192,76848,1,0,0:0:0:0:
320,192,76954,128,0,77165:0:0:0:0:
192,192,77165,128,0,77376:0:0:0:0:
64,192,77376,128,0,77587:0:0:0:0:
320,192,77799,1,0,0:0:0:0:
448,192,77799,1,0,0:0:0:0:
64,192,77904,1,0,0:0:0:0:
448,192,78010,1,0,0:0:0:0:
320,192,78221,1,0,0:0:0:0:
192,192,78327,1,0,0:0:0:0:
64,192,78432,1,0,0:0:0:0:
192,192,78538,1,0,0:0:0:0:
448,192,78644,128,0,79066:0:0:0:0:
192,192,78855,128,0,79066:0:0:0:0:
320,192,79066,128,0,79278:0:0:0:0:
64,192,79489,1,0,0:0:0:0:
192,192,79594,1,0,0:0:0:0:
448,192,79700,128,0,79911:0:0:0:0:
320,192,79911,1,0,0:0:0:0:
192,192,80017,1,0,0:0:0:0:
320,192,80123,128,0,80756:0:0:0:0:
192,192,80334,128,0,80756:0:0:0:0:
64,192,80545,1,0,0:0:0:0:
64,192,80756,128,0,80968:0:0:0:0:
192,192,81179,128,0,81390:0:0:0:0:
320,192,81179,1,0,0:0:0:0:
64,192,81390,128,0,81601:0:0:0:0:
320,192,81601,128,0,81813:0:0:0:0:
448,192,81813,128,0,82024:0:0:0:0:
192,192,82024,128,0,82235:0:0:0:0:
64,192,82235,128,0,82447:0:0:0:0:
192,192,82447,128,0,82869:0:0:0:0:
448,192,82869,128,0,83080:0:0:0:0:
320,192,82869,1,0,0:0:0:0:
320,192,83080,128,0,83292:0:0:0:0:
64,192,83292,128,0,83503:0:0:0:0:
192,192,83503,128,0,83714:0:0:0:0:
448,192,83714,128,0,83925:0:0:0:0:
320,192,83925,128,0,84137:0:0:0:0:
192,192,84137,128,0,84559:0:0:0:0:
64,192,84559,128,0,84982:0:0:0:0:
448,192,84559,1,0,0:0:0:0:
192,192,84770,128,0,84982:0:0:0:0:
448,192,84982,128,0,85404:0:0:0:0:
320,192,85193,128,0,85404:0:0:0:0:
192,192,85404,128,0,85827:0:0:0:0:
320,192,85616,128,0,85827:0:0:0:0:
448,192,85827,128,0,86249:0:0:0:0:
64,192,85827,128,0,86249:0:0:0:0:
320,192,86249,128,0,86461:0:0:0:0:
448,192,86461,128,0,86672:0:0:0:0:
320,192,86672,128,0,86883:0:0:0:0:
448,192,86883,128,0,87094:0:0:0:0:
64,192,87094,128,0,87306:0:0:0:0:
192,192,87306,128,0,87517:0:0:0:0:
64,192,87517,128,0,87939:0:0:0:0:
448,192,87939,1,0,0:0:0:0:
192,192,87939,1,0,0:0:0:0:
320,192,88045,1,0,0:0:0:0:
448,192,88151,1,0,0:0:0:0:
64,192,88151,1,0,0:0:0:0:
64,192,88362,128,0,88785:0:0:0:0:
192,192,88362,1,0,0:0:0:0:
448,192,88573,1,0,0:0:0:0:
320,192,88679,1,0,0:0:0:0:
192,192,88785,128,0,88996:0:0:0:0:
448,192,88996,128,0,89207:0:0:0:0:
64,192,89207,128,0,89418:0:0:0:0:
192,192,89207,1,0,0:0:0:0:
192,192,89630,1,0,0:0:0:0:
64,192,89630,1,0,0:0:0:0:
448,192,89735,1,0,0:0:0:0:
64,192,89841,128,0,90263:0:0:0:0:
192,192,89841,1,0,0:0:0:0:
448,192,90052,128,0,90263:0:0:0:0:
320,192,90052,1,0,0:0:0:0:
320,192,90263,128,0,90475:0:0:0:0:
192,192,90475,128,0,90686:0:0:0:0:
448,192,90686,128,0,90897:0:0:0:0:
64,192,90897,128,0,91108:0:0:0:0:
192,192,90897,1,0,0:0:0:0:
320,192,91320,128,0,91742:0:0:0:0:
192,192,91531,1,0,0:0:0:0:
64,192,91637,1,0,0:0:0:0:
192,192,91742,128,0,91954:0:0:0:0:
448,192,91954,1,0,0:0:0:0:
320,192,92059,1,0,0:0:0:0:
64,192,92165,128,0,92376:0:0:0:0:
192,192,92165,1,0,0:0:0:0:
448,192,92376,128,0,92587:0:0:0:0:
320,192,92376,1,0,0:0:0:0:
192,192,92587,128,0,92799:0:0:0:0:
64,192,92587,1,0,0:0:0:0:
448,192,93010,1,0,0:0:0:0:
320,192,93116,1,0,0:0:0:0:
64,192,93221,128,0,93432:0:0:0:0:
192,192,93432,1,0,0:0:0:0:
320,192,93538,1,0,0:0:0:0:
448,192,93644,128,0,93855:0:0:0:0:
64,192,93855,128,0,94700:0:0:0:0:
192,192,93855,1,0,0:0:0:0:
448,192,94066,128,0,94700:0:0:0:0:
192,192,94066,1,0,0:0:0:0:
192,192,94278,1,0,0:0:0:0:
320,192,94278,1,0,0:0:0:0:
192,192,94489,1,0,0:0:0:0:
320,192,94489,1,0,0:0:0:0:
192,192,94700,1,0,0:0:0:0:
320,192,94700,1,0,0:0:0:0:
