osu file format v14

[General]
AudioFilename: audio.mp3
AudioLeadIn: 0
PreviewTime: 13596
Countdown: 1
SampleSet: Normal
StackLeniency: 0.7
Mode: 1
LetterboxInBreaks: 0
WidescreenStoryboard: 0

[Editor]
DistanceSpacing: 0.6
BeatDivisor: 6
GridSize: 4
TimelineZoom: 2.3

[Metadata]
Title:Flex Like Ouu
TitleUnicode:Flex Like Ouu
Artist:Lil Pump
ArtistUnicode:Lil Pump
Creator:n1doking
Version:Bricks
Source:
Tags:
BeatmapID:1622755
BeatmapSetID:771917

[Difficulty]
HPDrainRate:7
CircleSize:5
OverallDifficulty:7.7
ApproachRate:5
SliderMultiplier:1.4
SliderTickRate:1

[Events]
//Background and Video events
0,0,"lildump1.jpg",0,0
//Break Periods
//Storyboard Layer 0 (Background)
//Storyboard Layer 1 (Fail)
//Storyboard Layer 2 (Pass)
//Storyboard Layer 3 (Foreground)
//Storyboard Sound Samples

[TimingPoints]
111,211.267605633803,4,1,0,55,1,0
111,-133.333333333333,4,1,0,55,0,0
13632,-100,4,1,0,75,0,1
18702,-100,4,1,0,75,0,0
20392,-100,4,1,0,75,0,1
22082,-100,4,1,0,75,0,0
23772,-100,4,1,0,75,0,1
25463,-100,4,1,0,75,0,0
27153,-100,4,1,0,70,0,0
33913,-100,4,1,0,75,0,0
54195,-100,4,1,0,70,0,0
67716,-100,4,1,0,75,0,1
72787,-100,4,1,0,75,0,0
74477,-100,4,1,0,75,0,1
76167,-100,4,1,0,75,0,0
77857,-100,4,1,0,75,0,1
79547,-100,4,1,0,75,0,0
87998,-100,4,1,0,75,0,1
94758,-100,4,1,0,75,0,0
99829,-100,4,1,0,65,0,0
101519,-100,4,1,0,50,0,0

[HitObjects]
196,316,111,5,0,0:0:0:0:
140,304,533,1,0,0:0:0:0:
164,296,956,1,0,0:0:0:0:
164,296,1378,1,8,0:0:0:0:
164,296,1801,1,0,0:0:0:0:
164,296,2223,1,0,0:0:0:0:
164,296,2646,1,0,0:0:0:0:
164,296,3068,1,8,0:0:0:0:
172,292,3491,1,0,0:0:0:0:
172,292,3913,1,0,0:0:0:0:
172,292,4336,1,0,0:0:0:0:
172,292,4758,1,8,0:0:0:0:
172,292,5181,1,0,0:0:0:0:
172,292,5603,1,0,0:0:0:0:
172,292,6026,1,0,0:0:0:0:
172,292,6449,1,8,0:0:0:0:
172,292,6871,1,0,0:0:0:0:
172,292,7294,1,0,0:0:0:0:
172,292,7716,1,0,0:0:0:0:
172,292,8139,1,8,0:0:0:0:
172,292,8561,1,0,0:0:0:0:
176,288,8984,1,8,0:0:0:0:
176,288,9406,1,0,0:0:0:0:
176,288,9829,1,8,0:0:0:0:
176,288,10251,1,0,0:0:0:0:
204,288,10357,1,0,0:0:0:0:
176,288,10463,1,0,0:0:0:0:
204,288,10568,1,0,0:0:0:0:
204,288,10674,1,8,0:0:0:0:
204,288,10780,1,8,0:0:0:0:
176,288,10885,1,0,0:0:0:0:
192,288,11096,1,0,0:0:0:0:
192,288,11308,1,0,0:0:0:0:
192,288,11519,1,8,0:0:0:0:
192,288,11625,1,0,0:0:0:0:
192,288,11730,1,0,0:0:0:0:
200,268,11941,1,0,0:0:0:0:
200,268,12153,1,0,0:0:0:0:
200,268,12364,1,8,0:0:0:0:
196,264,12470,1,8,0:0:0:0:
200,268,12575,1,0,0:0:0:0:
200,268,12787,1,0,0:0:0:0:
200,268,13209,1,8,0:0:0:0:
248,248,13632,1,0,0:0:0:0:
236,252,13684,1,0,0:0:0:0:
236,252,13737,1,0,0:0:0:0:
208,284,13843,1,8,0:0:0:0:
192,276,13949,1,0,0:0:0:0:
192,280,14054,1,8,0:0:0:0:
192,276,14107,1,8,0:0:0:0:
192,276,14160,1,8,0:0:0:0:
192,276,14213,1,8,0:0:0:0:
192,276,14265,1,8,0:0:0:0:
192,276,14371,1,0,0:0:0:0:
192,280,14477,1,8,0:0:0:0:
192,276,14582,1,8,0:0:0:0:
192,280,14688,1,0,0:0:0:0:
192,276,14741,1,0,0:0:0:0:
192,276,14794,1,0,0:0:0:0:
192,280,14899,1,8,0:0:0:0:
192,276,14952,1,8,0:0:0:0:
192,276,15005,1,0,0:0:0:0:
192,276,15058,1,0,0:0:0:0:
192,276,15111,1,8,0:0:0:0:
200,264,15322,1,0,0:0:0:0:
184,264,15375,1,0,0:0:0:0:
184,264,15427,1,0,0:0:0:0:
188,264,15533,1,8,0:0:0:0:
188,264,15639,1,0,0:0:0:0:
200,264,15744,1,8,0:0:0:0:
184,264,15797,1,0,0:0:0:0:
184,264,15850,1,0,0:0:0:0:
184,264,15956,1,8,0:0:0:0:
184,264,16061,1,0,0:0:0:0:
184,264,16167,1,8,0:0:0:0:
196,252,16237,1,0,0:0:0:0:
196,252,16308,1,0,0:0:0:0:
196,252,16378,1,8,0:0:0:0:
208,264,16589,1,0,0:0:0:0:
192,256,16660,1,0,0:0:0:0:
192,256,16730,1,0,0:0:0:0:
212,248,16801,1,8,0:0:0:0:
212,248,16853,1,8,0:0:0:0:
212,248,16906,1,0,0:0:0:0:
180,240,17012,1,0,0:0:0:0:
184,240,17065,1,0,0:0:0:0:
184,240,17118,1,0,0:0:0:0:
184,256,17223,1,8,0:0:0:0:
184,248,17329,1,0,0:0:0:0:
184,256,17434,1,8,0:0:0:0:
184,248,17487,1,8,0:0:0:0:
184,248,17540,1,0,0:0:0:0:
184,248,17646,1,8,0:0:0:0:
184,248,17751,1,8,0:0:0:0:
184,248,17857,1,0,0:0:0:0:
184,248,17910,1,0,0:0:0:0:
184,248,17963,1,0,0:0:0:0:
180,248,18015,1,0,0:0:0:0:
180,248,18068,1,8,0:0:0:0:
184,256,18174,1,0,0:0:0:0:
184,256,18280,1,8,0:0:0:0:
184,256,18350,1,0,0:0:0:0:
184,256,18420,1,0,0:0:0:0:
184,256,18491,1,8,0:0:0:0:
204,248,18702,1,8,0:0:0:0:
200,252,18808,1,0,0:0:0:0:
200,252,18913,1,8,0:0:0:0:
224,264,19125,1,8,0:0:0:0:
224,264,19336,1,0,0:0:0:0:
224,252,19441,1,0,0:0:0:0:
224,264,19547,1,0,0:0:0:0:
224,264,19758,1,0,0:0:0:0:
224,264,19970,1,8,0:0:0:0:
228,276,20392,1,8,0:0:0:0:
228,276,20445,1,8,0:0:0:0:
228,276,20498,1,0,0:0:0:0:
240,268,20603,1,0,0:0:0:0:
236,276,20709,1,0,0:0:0:0:
236,276,20815,1,8,0:0:0:0:
240,268,20920,1,0,0:0:0:0:
240,288,20973,1,0,0:0:0:0:
240,288,21026,1,8,0:0:0:0:
240,288,21132,1,8,0:0:0:0:
232,280,21184,1,0,0:0:0:0:
240,288,21237,1,8,0:0:0:0:
232,276,21343,1,0,0:0:0:0:
232,276,21449,1,8,0:0:0:0:
232,276,21501,1,8,0:0:0:0:
232,276,21554,1,0,0:0:0:0:
236,276,21660,1,8,0:0:0:0:
236,276,21730,1,0,0:0:0:0:
236,276,21801,1,0,0:0:0:0:
232,276,21871,1,8,0:0:0:0:
232,260,22082,1,8,0:0:0:0:
232,260,22294,1,0,0:0:0:0:
232,260,22399,1,0,0:0:0:0:
232,260,22505,1,8,0:0:0:0:
232,260,22716,1,0,0:0:0:0:
232,260,22822,1,0,0:0:0:0:
232,260,22927,1,8,0:0:0:0:
240,276,23139,1,0,0:0:0:0:
232,260,23350,1,8,0:0:0:0:
248,240,23772,1,8,0:0:0:0:
264,256,23878,1,0,0:0:0:0:
264,256,23931,1,0,0:0:0:0:
264,256,23984,1,8,0:0:0:0:
272,260,24089,1,0,0:0:0:0:
272,260,24142,1,0,0:0:0:0:
264,256,24195,1,8,0:0:0:0:
264,256,24248,1,8,0:0:0:0:
264,256,24301,1,0,0:0:0:0:
272,260,24406,1,0,0:0:0:0:
252,256,24512,1,8,0:0:0:0:
252,256,24618,1,8,0:0:0:0:
240,236,24670,1,8,0:0:0:0:
240,236,24723,1,0,0:0:0:0:
240,236,24829,1,8,0:0:0:0:
240,236,24882,1,0,0:0:0:0:
240,236,24934,1,0,0:0:0:0:
240,236,25040,1,8,0:0:0:0:
240,236,25111,1,0,0:0:0:0:
240,236,25181,1,0,0:0:0:0:
240,236,25251,1,8,0:0:0:0:
216,256,25463,1,0,0:0:0:0:
248,272,25568,1,0,0:0:0:0:
252,276,25674,1,0,0:0:0:0:
244,280,25885,1,8,0:0:0:0:
232,284,25991,1,0,0:0:0:0:
240,284,26096,1,0,0:0:0:0:
232,284,26202,1,8,0:0:0:0:
240,280,26308,1,8,0:0:0:0:
236,280,26413,1,8,0:0:0:0:
236,280,26519,1,0,0:0:0:0:
232,284,26730,1,0,0:0:0:0:
216,296,27153,1,0,0:0:0:0:
212,260,27364,1,0,0:0:0:0:
212,268,27575,1,8,0:0:0:0:
212,268,27787,1,0,0:0:0:0:
212,268,27998,1,8,0:0:0:0:
228,272,28209,1,0,0:0:0:0:
228,272,28420,1,8,0:0:0:0:
212,268,28632,1,8,0:0:0:0:
212,268,28658,1,8,0:0:0:0:
220,260,28843,1,0,0:0:0:0:
240,256,29054,1,0,0:0:0:0:
240,256,29265,1,8,0:0:0:0:
240,256,29477,1,0,0:0:0:0:
240,256,29688,1,8,0:0:0:0:
240,256,29899,1,0,0:0:0:0:
240,256,30111,1,8,0:0:0:0:
240,256,30322,1,8,0:0:0:0:
240,256,30533,1,0,0:0:0:0:
240,280,30639,1,0,0:0:0:0:
240,256,30744,1,0,0:0:0:0:
240,256,30956,1,8,0:0:0:0:
240,256,31167,1,0,0:0:0:0:
244,280,31272,1,0,0:0:0:0:
240,256,31378,1,8,0:0:0:0:
240,256,31589,1,0,0:0:0:0:
240,256,31801,1,8,0:0:0:0:
244,280,31906,1,0,0:0:0:0:
240,256,32012,1,8,0:0:0:0:
244,280,32223,1,0,0:0:0:0:
224,264,32434,1,0,0:0:0:0:
244,280,32646,1,8,0:0:0:0:
244,280,32857,1,0,0:0:0:0:
244,280,33068,1,8,0:0:0:0:
244,280,33280,1,0,0:0:0:0:
244,280,33491,1,8,0:0:0:0:
248,268,33913,1,0,0:0:0:0:
248,272,34019,1,0,0:0:0:0:
248,272,34072,1,0,0:0:0:0:
248,272,34125,1,8,0:0:0:0:
236,264,34230,1,0,0:0:0:0:
248,268,34336,1,8,0:0:0:0:
236,264,34547,1,0,0:0:0:0:
236,280,34653,1,0,0:0:0:0:
236,264,34706,1,0,0:0:0:0:
236,264,34758,1,8,0:0:0:0:
236,280,34811,1,8,0:0:0:0:
236,280,34864,1,0,0:0:0:0:
236,280,34917,1,0,0:0:0:0:
236,280,34970,1,0,0:0:0:0:
236,280,35075,1,0,0:0:0:0:
236,280,35181,1,8,0:0:0:0:
216,284,35392,1,0,0:0:0:0:
248,288,35603,1,8,0:0:0:0:
248,288,35656,1,0,0:0:0:0:
248,288,35709,1,8,0:0:0:0:
248,288,35762,1,0,0:0:0:0:
248,288,35815,1,8,0:0:0:0:
248,288,35920,1,0,0:0:0:0:
248,288,36026,1,8,0:0:0:0:
236,288,36132,1,8,0:0:0:0:
236,288,36237,1,0,0:0:0:0:
236,288,36290,1,0,0:0:0:0:
232,292,36343,1,0,0:0:0:0:
232,292,36396,1,0,0:0:0:0:
232,292,36449,1,8,0:0:0:0:
216,296,36501,1,8,0:0:0:0:
216,296,36554,1,0,0:0:0:0:
216,296,36607,1,0,0:0:0:0:
216,296,36660,1,8,0:0:0:0:
216,296,36765,1,0,0:0:0:0:
216,296,36871,1,8,0:0:0:0:
220,288,37082,1,8,0:0:0:0:
232,204,37294,1,0,0:0:0:0:
232,204,37346,1,0,0:0:0:0:
232,204,37399,1,0,0:0:0:0:
232,204,37505,1,8,0:0:0:0:
232,204,37611,1,0,0:0:0:0:
232,204,37663,1,0,0:0:0:0:
232,204,37716,1,8,0:0:0:0:
224,200,37822,1,0,0:0:0:0:
224,200,37875,1,0,0:0:0:0:
224,200,37927,1,8,0:0:0:0:
224,200,37980,1,8,0:0:0:0:
224,200,38033,1,8,0:0:0:0:
224,200,38086,1,8,0:0:0:0:
224,200,38139,1,0,0:0:0:0:
208,208,38244,1,0,0:0:0:0:
208,208,38350,1,8,0:0:0:0:
208,208,38456,1,0,0:0:0:0:
208,208,38508,1,0,0:0:0:0:
208,208,38561,1,8,0:0:0:0:
208,228,38772,1,8,0:0:0:0:
208,228,38984,1,8,0:0:0:0:
208,228,39037,1,0,0:0:0:0:
208,228,39089,1,8,0:0:0:0:
208,228,39142,1,0,0:0:0:0:
208,228,39195,1,8,0:0:0:0:
208,228,39301,1,0,0:0:0:0:
208,228,39406,1,8,0:0:0:0:
208,232,39459,1,0,0:0:0:0:
208,232,39512,1,8,0:0:0:0:
208,232,39565,1,8,0:0:0:0:
208,232,39618,1,0,0:0:0:0:
208,232,39723,1,8,0:0:0:0:
220,236,39776,1,0,0:0:0:0:
220,236,39829,1,8,0:0:0:0:
220,236,39882,1,8,0:0:0:0:
220,236,39934,1,0,0:0:0:0:
220,236,39987,1,0,0:0:0:0:
220,236,40040,1,8,0:0:0:0:
216,252,40146,1,0,0:0:0:0:
216,252,40251,1,8,0:0:0:0:
228,248,40463,1,8,0:0:0:0:
204,252,40674,1,8,0:0:0:0:
212,252,40727,1,8,0:0:0:0:
232,248,40780,1,8,0:0:0:0:
216,248,40832,1,8,0:0:0:0:
216,248,40885,1,0,0:0:0:0:
216,248,40991,1,0,0:0:0:0:
216,252,41096,1,8,0:0:0:0:
212,260,41149,1,8,0:0:0:0:
212,260,41202,1,0,0:0:0:0:
212,260,41255,1,8,0:0:0:0:
212,260,41308,1,8,0:0:0:0:
212,260,41413,1,0,0:0:0:0:
212,260,41466,1,0,0:0:0:0:
212,260,41519,1,8,0:0:0:0:
212,260,41572,1,0,0:0:0:0:
212,260,41625,1,8,0:0:0:0:
196,248,41730,1,0,0:0:0:0:
184,240,41941,1,8,0:0:0:0:
184,236,42047,1,0,0:0:0:0:
168,248,42364,1,8,0:0:0:0:
168,248,42417,1,8,0:0:0:0:
192,224,42470,1,0,0:0:0:0:
192,224,42522,1,0,0:0:0:0:
192,224,42575,1,8,0:0:0:0:
192,224,42681,1,0,0:0:0:0:
192,224,42787,1,0,0:0:0:0:
192,224,42839,1,0,0:0:0:0:
192,224,42892,1,8,0:0:0:0:
192,224,42945,1,0,0:0:0:0:
192,224,42998,1,0,0:0:0:0:
192,224,43103,1,8,0:0:0:0:
192,224,43156,1,0,0:0:0:0:
192,224,43209,1,8,0:0:0:0:
180,224,43262,1,8,0:0:0:0:
184,236,43315,1,0,0:0:0:0:
180,224,43368,1,0,0:0:0:0:
180,224,43420,1,8,0:0:0:0:
200,228,43632,1,8,0:0:0:0:
200,228,43702,1,8,0:0:0:0:
200,228,43772,1,8,0:0:0:0:
200,228,43843,1,8,0:0:0:0:
188,236,44054,1,8,0:0:0:0:
200,236,44107,1,8,0:0:0:0:
144,276,44160,1,0,0:0:0:0:
144,276,44213,1,0,0:0:0:0:
144,276,44265,1,8,0:0:0:0:
200,236,44318,1,0,0:0:0:0:
144,276,44371,1,8,0:0:0:0:
144,268,44424,1,8,0:0:0:0:
144,268,44477,1,0,0:0:0:0:
180,232,44582,1,0,0:0:0:0:
180,232,44635,1,0,0:0:0:0:
180,232,44688,1,8,0:0:0:0:
180,232,44741,1,8,0:0:0:0:
176,232,44794,1,0,0:0:0:0:
184,232,44899,1,8,0:0:0:0:
184,232,44952,1,0,0:0:0:0:
184,232,45005,1,0,0:0:0:0:
184,232,45058,1,0,0:0:0:0:
184,232,45111,1,0,0:0:0:0:
184,232,45322,1,8,0:0:0:0:
220,244,45744,1,8,0:0:0:0:
220,244,45850,1,0,0:0:0:0:
220,244,45956,1,8,0:0:0:0:
220,244,46008,1,8,0:0:0:0:
220,244,46061,1,0,0:0:0:0:
220,244,46114,1,0,0:0:0:0:
220,244,46167,1,8,0:0:0:0:
224,248,46272,1,0,0:0:0:0:
224,248,46325,1,0,0:0:0:0:
224,248,46378,1,8,0:0:0:0:
224,248,46431,1,0,0:0:0:0:
224,248,46484,1,0,0:0:0:0:
220,244,46589,1,8,0:0:0:0:
224,248,46642,1,8,0:0:0:0:
224,248,46695,1,8,0:0:0:0:
224,248,46748,1,8,0:0:0:0:
224,248,46801,1,0,0:0:0:0:
224,248,46906,1,0,0:0:0:0:
236,252,47012,1,8,0:0:0:0:
236,252,47082,1,8,0:0:0:0:
236,252,47153,1,8,0:0:0:0:
236,252,47223,1,0,0:0:0:0:
248,256,47434,1,8,0:0:0:0:
252,240,47540,1,0,0:0:0:0:
252,240,47593,1,0,0:0:0:0:
248,256,47646,1,8,0:0:0:0:
252,240,47751,1,0,0:0:0:0:
252,240,47804,1,0,0:0:0:0:
248,256,47857,1,8,0:0:0:0:
252,240,47910,1,8,0:0:0:0:
252,240,47963,1,0,0:0:0:0:
252,240,48015,1,0,0:0:0:0:
252,240,48068,1,8,0:0:0:0:
252,240,48121,1,8,0:0:0:0:
252,240,48174,1,8,0:0:0:0:
252,240,48280,1,8,0:0:0:0:
272,264,48332,1,0,0:0:0:0:
232,252,48385,1,0,0:0:0:0:
232,248,48438,1,0,0:0:0:0:
232,248,48491,1,8,0:0:0:0:
228,248,48702,1,8,0:0:0:0:
236,248,49125,1,8,0:0:0:0:
232,248,49177,1,0,0:0:0:0:
236,248,49230,1,8,0:0:0:0:
232,248,49283,1,0,0:0:0:0:
232,252,49336,1,8,0:0:0:0:
192,240,49441,1,0,0:0:0:0:
192,248,49547,1,8,0:0:0:0:
192,248,49600,1,8,0:0:0:0:
192,248,49653,1,0,0:0:0:0:
192,248,49706,1,8,0:0:0:0:
192,248,49758,1,0,0:0:0:0:
192,248,49811,1,8,0:0:0:0:
192,248,49864,1,0,0:0:0:0:
216,172,49970,1,8,0:0:0:0:
216,220,50040,1,8,0:0:0:0:
216,220,50111,1,8,0:0:0:0:
216,220,50181,1,0,0:0:0:0:
216,220,50287,1,0,0:0:0:0:
224,200,50392,1,8,0:0:0:0:
212,228,50815,1,8,0:0:0:0:
192,240,50920,1,0,0:0:0:0:
192,240,50973,1,0,0:0:0:0:
212,228,51026,1,8,0:0:0:0:
184,244,51132,1,0,0:0:0:0:
184,244,51184,1,0,0:0:0:0:
212,228,51237,1,8,0:0:0:0:
184,244,51290,1,8,0:0:0:0:
184,244,51343,1,0,0:0:0:0:
184,244,51396,1,8,0:0:0:0:
212,228,51449,1,8,0:0:0:0:
212,228,51501,1,8,0:0:0:0:
184,244,51554,1,0,0:0:0:0:
184,244,51660,1,8,0:0:0:0:
192,260,51713,1,0,0:0:0:0:
192,260,51765,1,8,0:0:0:0:
192,260,51871,1,0,0:0:0:0:
192,260,51924,1,0,0:0:0:0:
192,260,51977,1,0,0:0:0:0:
180,228,52082,1,8,0:0:0:0:
176,244,52153,1,0,0:0:0:0:
176,244,52223,1,0,0:0:0:0:
176,244,52294,1,8,0:0:0:0:
184,228,52505,1,8,0:0:0:0:
172,240,52558,1,0,0:0:0:0:
184,228,52611,1,8,0:0:0:0:
172,240,52663,1,0,0:0:0:0:
180,228,52716,1,8,0:0:0:0:
172,216,52822,1,0,0:0:0:0:
172,216,52875,1,0,0:0:0:0:
172,216,52927,1,8,0:0:0:0:
172,216,52980,1,0,0:0:0:0:
172,216,53033,1,0,0:0:0:0:
172,216,53086,1,0,0:0:0:0:
172,216,53139,1,8,0:0:0:0:
172,216,53244,1,8,0:0:0:0:
172,216,53350,1,8,0:0:0:0:
172,216,53772,1,8,0:0:0:0:
160,256,54195,1,0,0:0:0:0:
160,256,54406,1,0,0:0:0:0:
160,256,54618,1,0,0:0:0:0:
160,256,54829,1,0,0:0:0:0:
160,256,55040,1,8,0:0:0:0:
96,276,55463,1,0,0:0:0:0:
96,276,55674,1,8,0:0:0:0:
96,276,55885,1,0,0:0:0:0:
96,276,56096,1,0,0:0:0:0:
84,272,56202,1,0,0:0:0:0:
96,276,56308,1,8,0:0:0:0:
96,276,56519,1,0,0:0:0:0:
96,276,56730,1,8,0:0:0:0:
96,276,57153,1,0,0:0:0:0:
84,268,57575,1,8,0:0:0:0:
84,268,57787,1,0,0:0:0:0:
84,268,57998,1,0,0:0:0:0:
84,268,58209,1,0,0:0:0:0:
132,244,58315,1,0,0:0:0:0:
84,268,58420,1,8,0:0:0:0:
88,272,58843,1,0,0:0:0:0:
88,272,59054,1,8,0:0:0:0:
84,268,59265,1,0,0:0:0:0:
84,268,59477,1,0,0:0:0:0:
88,272,59688,1,8,0:0:0:0:
88,272,59899,1,0,0:0:0:0:
88,272,60111,1,8,0:0:0:0:
136,236,60216,1,0,0:0:0:0:
56,288,60322,1,8,0:0:0:0:
56,288,60533,1,0,0:0:0:0:
56,288,60744,1,8,0:0:0:0:
56,288,60956,1,0,0:0:0:0:
40,280,61061,1,0,0:0:0:0:
40,280,61167,1,0,0:0:0:0:
56,288,61378,1,8,0:0:0:0:
56,288,61589,1,0,0:0:0:0:
56,288,61695,1,0,0:0:0:0:
56,244,61801,1,8,0:0:0:0:
56,244,62223,1,0,0:0:0:0:
56,244,62434,1,8,0:0:0:0:
96,160,62646,1,8,0:0:0:0:
96,160,62699,1,0,0:0:0:0:
96,160,62751,1,8,0:0:0:0:
96,160,62804,1,0,0:0:0:0:
96,160,62857,1,8,0:0:0:0:
112,260,63068,1,8,0:0:0:0:
112,260,63280,1,0,0:0:0:0:
112,260,63491,1,0,0:0:0:0:
120,280,63702,1,0,0:0:0:0:
120,280,63913,1,8,0:0:0:0:
120,280,64125,1,8,0:0:0:0:
120,276,64336,1,0,0:0:0:0:
136,272,64441,1,0,0:0:0:0:
160,340,64547,1,0,0:0:0:0:
132,276,64758,1,8,0:0:0:0:
132,276,64970,1,0,0:0:0:0:
132,276,65181,1,8,0:0:0:0:
132,276,65603,1,0,0:0:0:0:
168,256,65630,1,0,0:0:0:0:
132,276,65815,1,8,0:0:0:0:
132,276,66026,1,8,0:0:0:0:
132,276,66079,1,0,0:0:0:0:
140,288,66132,1,8,0:0:0:0:
148,280,66184,1,0,0:0:0:0:
92,324,66237,1,8,0:0:0:0:
176,248,66449,1,0,0:0:0:0:
176,248,66660,1,0,0:0:0:0:
176,248,66871,1,8,0:0:0:0:
176,248,67082,1,8,0:0:0:0:
176,248,67294,1,0,0:0:0:0:
176,248,67505,1,8,0:0:0:0:
248,248,67716,1,0,0:0:0:0:
236,252,67769,1,0,0:0:0:0:
236,252,67822,1,0,0:0:0:0:
208,284,67927,1,8,0:0:0:0:
192,276,68033,1,0,0:0:0:0:
192,280,68139,1,8,0:0:0:0:
192,276,68191,1,8,0:0:0:0:
192,276,68244,1,8,0:0:0:0:
192,276,68297,1,8,0:0:0:0:
192,276,68350,1,8,0:0:0:0:
192,276,68456,1,0,0:0:0:0:
192,280,68561,1,8,0:0:0:0:
192,276,68667,1,8,0:0:0:0:
192,280,68772,1,0,0:0:0:0:
192,276,68825,1,0,0:0:0:0:
192,276,68878,1,0,0:0:0:0:
192,280,68984,1,8,0:0:0:0:
192,276,69037,1,8,0:0:0:0:
192,276,69089,1,0,0:0:0:0:
192,276,69142,1,0,0:0:0:0:
192,276,69195,1,8,0:0:0:0:
168,248,69301,1,8,0:0:0:0:
200,264,69406,1,0,0:0:0:0:
184,264,69459,1,0,0:0:0:0:
184,264,69512,1,0,0:0:0:0:
188,264,69618,1,8,0:0:0:0:
188,264,69723,1,0,0:0:0:0:
200,264,69829,1,8,0:0:0:0:
184,264,69882,1,0,0:0:0:0:
184,264,69934,1,0,0:0:0:0:
184,264,70040,1,8,0:0:0:0:
184,264,70146,1,0,0:0:0:0:
184,264,70251,1,8,0:0:0:0:
196,252,70322,1,0,0:0:0:0:
196,252,70392,1,0,0:0:0:0:
196,252,70463,1,8,0:0:0:0:
172,244,70568,1,8,0:0:0:0:
208,264,70674,1,0,0:0:0:0:
192,256,70744,1,0,0:0:0:0:
192,256,70815,1,0,0:0:0:0:
212,248,70885,1,8,0:0:0:0:
212,248,70938,1,8,0:0:0:0:
212,248,70991,1,0,0:0:0:0:
180,240,71096,1,0,0:0:0:0:
184,240,71149,1,0,0:0:0:0:
184,240,71202,1,0,0:0:0:0:
184,256,71308,1,8,0:0:0:0:
184,248,71413,1,0,0:0:0:0:
184,256,71519,1,8,0:0:0:0:
184,248,71572,1,8,0:0:0:0:
184,248,71625,1,0,0:0:0:0:
168,220,71677,1,0,0:0:0:0:
184,248,71730,1,8,0:0:0:0:
184,248,71836,1,8,0:0:0:0:
184,248,71941,1,0,0:0:0:0:
184,248,71994,1,0,0:0:0:0:
184,248,72047,1,0,0:0:0:0:
180,248,72100,1,0,0:0:0:0:
180,248,72153,1,8,0:0:0:0:
184,256,72258,1,0,0:0:0:0:
184,256,72364,1,8,0:0:0:0:
184,256,72434,1,0,0:0:0:0:
184,256,72505,1,0,0:0:0:0:
184,256,72575,1,8,0:0:0:0:
204,248,72787,1,8,0:0:0:0:
200,252,72892,1,0,0:0:0:0:
200,252,72998,1,8,0:0:0:0:
224,264,73209,1,8,0:0:0:0:
224,264,73420,1,0,0:0:0:0:
224,252,73526,1,0,0:0:0:0:
224,264,73632,1,0,0:0:0:0:
212,248,73684,1,0,0:0:0:0:
212,248,73737,1,0,0:0:0:0:
224,264,73843,1,0,0:0:0:0:
224,264,74054,1,8,0:0:0:0:
228,276,74477,1,8,0:0:0:0:
228,276,74530,1,8,0:0:0:0:
228,276,74582,1,0,0:0:0:0:
208,180,74635,1,0,0:0:0:0:
208,312,74688,1,8,0:0:0:0:
236,276,74794,1,0,0:0:0:0:
236,276,74899,1,8,0:0:0:0:
240,268,75005,1,0,0:0:0:0:
240,288,75058,1,0,0:0:0:0:
240,288,75111,1,8,0:0:0:0:
196,248,75163,1,0,0:0:0:0:
240,288,75216,1,8,0:0:0:0:
232,280,75269,1,8,0:0:0:0:
240,288,75322,1,0,0:0:0:0:
232,276,75427,1,0,0:0:0:0:
232,276,75533,1,8,0:0:0:0:
232,276,75586,1,8,0:0:0:0:
232,276,75639,1,0,0:0:0:0:
236,276,75744,1,8,0:0:0:0:
236,276,75815,1,0,0:0:0:0:
236,276,75885,1,0,0:0:0:0:
232,276,75956,1,8,0:0:0:0:
232,260,76167,1,8,0:0:0:0:
232,260,76378,1,0,0:0:0:0:
232,260,76484,1,0,0:0:0:0:
232,260,76589,1,8,0:0:0:0:
232,260,76801,1,0,0:0:0:0:
240,248,76853,1,0,0:0:0:0:
232,260,76906,1,0,0:0:0:0:
236,248,76959,1,0,0:0:0:0:
232,260,77012,1,8,0:0:0:0:
240,276,77223,1,0,0:0:0:0:
232,260,77434,1,8,0:0:0:0:
248,240,77857,1,8,0:0:0:0:
264,256,77963,1,0,0:0:0:0:
264,256,78015,1,0,0:0:0:0:
264,256,78068,1,8,0:0:0:0:
272,260,78174,1,0,0:0:0:0:
272,260,78227,1,0,0:0:0:0:
264,256,78280,1,8,0:0:0:0:
264,256,78332,1,8,0:0:0:0:
264,256,78385,1,0,0:0:0:0:
264,256,78438,1,8,0:0:0:0:
272,260,78491,1,0,0:0:0:0:
252,256,78596,1,8,0:0:0:0:
240,236,78649,1,0,0:0:0:0:
252,256,78702,1,8,0:0:0:0:
240,236,78755,1,8,0:0:0:0:
240,236,78808,1,0,0:0:0:0:
216,264,78861,1,0,0:0:0:0:
240,236,78913,1,8,0:0:0:0:
240,236,78966,1,0,0:0:0:0:
240,236,79019,1,0,0:0:0:0:
240,236,79125,1,8,0:0:0:0:
240,236,79195,1,0,0:0:0:0:
240,236,79265,1,0,0:0:0:0:
240,236,79336,1,8,0:0:0:0:
216,256,79547,1,0,0:0:0:0:
248,272,79653,1,0,0:0:0:0:
252,276,79758,1,0,0:0:0:0:
244,280,79970,1,8,0:0:0:0:
232,284,80075,1,0,0:0:0:0:
240,284,80181,1,0,0:0:0:0:
232,284,80287,1,8,0:0:0:0:
240,280,80392,1,8,0:0:0:0:
236,280,80498,1,8,0:0:0:0:
236,280,80603,1,0,0:0:0:0:
232,284,80815,1,0,0:0:0:0:
216,296,81237,1,0,0:0:0:0:
212,260,81449,1,0,0:0:0:0:
212,268,81660,1,8,0:0:0:0:
212,268,81871,1,0,0:0:0:0:
212,268,82082,1,8,0:0:0:0:
228,272,82294,1,0,0:0:0:0:
232,252,82399,1,0,0:0:0:0:
228,272,82505,1,8,0:0:0:0:
212,268,82716,1,8,0:0:0:0:
220,260,82927,1,0,0:0:0:0:
240,256,83139,1,0,0:0:0:0:
240,256,83350,1,8,0:0:0:0:
240,256,83561,1,0,0:0:0:0:
240,256,83772,1,8,0:0:0:0:
240,256,83984,1,0,0:0:0:0:
240,256,84195,1,8,0:0:0:0:
232,252,84301,1,0,0:0:0:0:
240,256,84406,1,8,0:0:0:0:
240,256,84618,1,0,0:0:0:0:
240,280,84723,1,0,0:0:0:0:
240,256,84829,1,0,0:0:0:0:
240,256,85040,1,8,0:0:0:0:
240,256,85251,1,0,0:0:0:0:
244,280,85357,1,0,0:0:0:0:
240,256,85463,1,8,0:0:0:0:
240,256,85674,1,0,0:0:0:0:
244,264,85780,1,0,0:0:0:0:
240,256,85885,1,8,0:0:0:0:
244,280,85991,1,0,0:0:0:0:
240,256,86096,1,8,0:0:0:0:
244,280,86308,1,0,0:0:0:0:
224,264,86519,1,0,0:0:0:0:
244,280,86730,1,8,0:0:0:0:
244,280,86941,1,0,0:0:0:0:
244,280,87153,1,8,0:0:0:0:
244,264,87258,1,0,0:0:0:0:
244,280,87364,1,0,0:0:0:0:
244,280,87575,1,8,0:0:0:0:
248,268,87998,1,0,0:0:0:0:
248,272,88103,1,0,0:0:0:0:
248,272,88156,1,0,0:0:0:0:
248,272,88209,1,8,0:0:0:0:
236,264,88315,1,0,0:0:0:0:
248,268,88420,1,8,0:0:0:0:
244,264,88526,1,8,0:0:0:0:
236,264,88632,1,0,0:0:0:0:
236,280,88737,1,0,0:0:0:0:
236,264,88790,1,0,0:0:0:0:
236,264,88843,1,8,0:0:0:0:
236,280,88896,1,8,0:0:0:0:
236,280,88949,1,0,0:0:0:0:
236,280,89001,1,0,0:0:0:0:
236,280,89054,1,0,0:0:0:0:
236,280,89160,1,0,0:0:0:0:
236,280,89265,1,8,0:0:0:0:
216,284,89477,1,0,0:0:0:0:
248,288,89688,1,8,0:0:0:0:
248,288,89741,1,0,0:0:0:0:
248,288,89794,1,8,0:0:0:0:
248,288,89846,1,0,0:0:0:0:
248,288,89899,1,8,0:0:0:0:
248,288,90005,1,0,0:0:0:0:
248,288,90111,1,8,0:0:0:0:
244,264,90163,1,0,0:0:0:0:
236,288,90216,1,8,0:0:0:0:
236,288,90322,1,0,0:0:0:0:
236,288,90375,1,0,0:0:0:0:
232,292,90427,1,0,0:0:0:0:
232,292,90480,1,0,0:0:0:0:
232,292,90533,1,8,0:0:0:0:
216,296,90586,1,8,0:0:0:0:
216,296,90639,1,0,0:0:0:0:
216,296,90691,1,0,0:0:0:0:
216,296,90744,1,8,0:0:0:0:
216,296,90850,1,0,0:0:0:0:
216,296,90956,1,8,0:0:0:0:
220,288,91167,1,8,0:0:0:0:
232,204,91378,1,0,0:0:0:0:
232,204,91431,1,0,0:0:0:0:
232,204,91484,1,0,0:0:0:0:
232,204,91589,1,8,0:0:0:0:
232,204,91695,1,0,0:0:0:0:
232,204,91748,1,0,0:0:0:0:
232,204,91801,1,8,0:0:0:0:
224,200,91906,1,0,0:0:0:0:
224,200,91959,1,0,0:0:0:0:
224,200,92012,1,8,0:0:0:0:
224,200,92065,1,8,0:0:0:0:
224,200,92118,1,8,0:0:0:0:
224,200,92170,1,8,0:0:0:0:
224,200,92223,1,0,0:0:0:0:
208,208,92329,1,0,0:0:0:0:
208,208,92434,1,8,0:0:0:0:
208,208,92540,1,0,0:0:0:0:
208,208,92593,1,0,0:0:0:0:
208,208,92646,1,8,0:0:0:0:
208,228,92857,1,8,0:0:0:0:
208,228,93068,1,8,0:0:0:0:
208,228,93121,1,0,0:0:0:0:
208,228,93174,1,8,0:0:0:0:
208,228,93227,1,0,0:0:0:0:
208,228,93280,1,8,0:0:0:0:
208,228,93385,1,0,0:0:0:0:
244,264,93438,1,0,0:0:0:0:
208,228,93491,1,8,0:0:0:0:
208,232,93544,1,0,0:0:0:0:
208,232,93596,1,8,0:0:0:0:
208,232,93649,1,8,0:0:0:0:
208,232,93702,1,0,0:0:0:0:
208,232,93755,1,0,0:0:0:0:
208,232,93808,1,8,0:0:0:0:
220,236,93861,1,0,0:0:0:0:
220,236,93913,1,8,0:0:0:0:
220,236,93966,1,8,0:0:0:0:
220,236,94019,1,0,0:0:0:0:
220,236,94072,1,0,0:0:0:0:
220,236,94125,1,8,0:0:0:0:
216,252,94230,1,0,0:0:0:0:
216,252,94336,1,8,0:0:0:0:
228,248,94547,1,8,0:0:0:0:
252,248,94758,1,0,0:0:0:0:
244,256,94970,1,0,0:0:0:0:
236,256,95181,1,8,0:0:0:0:
220,256,95234,1,0,0:0:0:0:
220,256,95287,1,8,0:0:0:0:
220,256,95339,1,0,0:0:0:0:
220,256,95392,1,8,0:0:0:0:
196,236,95603,1,8,0:0:0:0:
244,228,95815,1,0,0:0:0:0:
216,264,96026,1,8,0:0:0:0:
216,264,96096,1,0,0:0:0:0:
216,264,96167,1,0,0:0:0:0:
216,264,96237,1,8,0:0:0:0:
216,276,96449,1,8,0:0:0:0:
224,280,96660,1,0,0:0:0:0:
224,280,96871,1,0,0:0:0:0:
224,280,97082,1,0,0:0:0:0:
216,264,97294,1,8,0:0:0:0:
228,256,97364,1,8,0:0:0:0:
228,256,97434,1,8,0:0:0:0:
208,272,97505,1,0,0:0:0:0:
208,272,97716,1,8,0:0:0:0:
212,280,97787,1,0,0:0:0:0:
212,280,97857,1,0,0:0:0:0:
208,284,97927,1,8,0:0:0:0:
224,280,98139,1,8,0:0:0:0:
224,280,98350,1,0,0:0:0:0:
224,280,98561,1,0,0:0:0:0:
224,280,98772,1,0,0:0:0:0:
224,280,98984,1,8,0:0:0:0:
224,280,99195,1,0,0:0:0:0:
224,280,99406,1,8,0:0:0:0:
224,280,99477,1,0,0:0:0:0:
240,264,99547,1,0,0:0:0:0:
224,280,99618,1,8,0:0:0:0:
236,248,99829,1,8,0:0:0:0:
224,272,100040,1,0,0:0:0:0:
224,272,100251,1,0,0:0:0:0:
224,272,100463,1,0,0:0:0:0:
224,264,100674,1,8,0:0:0:0:
224,264,100744,1,8,0:0:0:0:
224,264,100815,1,8,0:0:0:0:
224,264,100885,1,0,0:0:0:0:
224,264,101096,1,8,0:0:0:0:
224,264,101167,1,8,0:0:0:0:
224,264,101237,1,8,0:0:0:0:
224,264,101308,1,8,0:0:0:0:
256,192,101519,12,0,104899,0:0:0:0:
