osu file format v14

[General]
AudioFilename: audio.mp3
AudioLeadIn: 0
PreviewTime: 7965
Countdown: 0
SampleSet: Soft
StackLeniency: 0.4
Mode: 0
LetterboxInBreaks: 0
WidescreenStoryboard: 1

[Editor]
DistanceSpacing: 1
BeatDivisor: 4
GridSize: 16
TimelineZoom: 2.3

[Metadata]
Title:Boss
TitleUnicode:Boss
Artist:Lil Pump
ArtistUnicode:Lil Pump
Creator:fieryrage
Version:Supreme
Source:
Tags:gazzy garcia soundcloud english hip hop rap trap n1doking ney supav wanpachi gorou cycopton payney
BeatmapID:4011849
BeatmapSetID:1749581

[Difficulty]
HPDrainRate:5
CircleSize:4
OverallDifficulty:7.8
ApproachRate:8.4
SliderMultiplier:2.3
SliderTickRate:1

[Events]
//Background and Video events
0,0,"why did nido have me do this.jpg",0,0
//Break Periods
//Storyboard Layer 0 (Background)
//Storyboard Layer 1 (Fail)
//Storyboard Layer 2 (Pass)
//Storyboard Layer 3 (Foreground)
//Storyboard Layer 4 (Overlay)
//Storyboard Sound Samples

[TimingPoints]
28,500,4,2,5,80,1,0
28,-100,4,2,5,80,0,0
3528,-100,4,2,1,80,0,0
3653,-100,4,2,5,80,0,0
4528,-100,4,2,1,80,0,0
4653,-100,4,2,5,80,0,0
5528,-100,4,2,1,85,0,0
5903,-100,4,2,5,85,0,0
6528,-100,4,2,1,80,0,0
6653,-100,4,2,5,80,0,0
7528,-50,4,2,69,65,0,0
7653,-50,4,2,5,70,0,0
7778,-50,4,2,5,75,0,0
8028,-83.3333333333333,4,2,1,85,0,0
9278,-83.3333333333333,4,2,5,85,0,0
9528,-83.3333333333333,4,2,1,85,0,0
9778,-83.3333333333333,4,2,5,85,0,0
10028,-83.3333333333333,4,2,1,85,0,0
11028,-100,4,2,1,65,0,0
11528,-166.666666666667,4,2,1,65,0,0
11778,-166.666666666667,4,2,1,25,0,0
12028,-83.3333333333333,4,2,1,85,0,0
13278,-83.3333333333333,4,2,5,85,0,0
13528,-83.3333333333333,4,2,1,85,0,0
13903,-83.3333333333333,4,2,2,5,0,0
14028,-100,4,2,1,65,0,0
15028,-100,4,2,1,85,0,0
15278,-100,4,2,5,85,0,0
15528,-100,4,2,1,85,0,0
15778,-100,4,2,5,85,0,0
16028,-83.3333333333333,4,2,1,85,0,0
17278,-83.3333333333333,4,2,5,85,0,0
17528,-83.3333333333333,4,2,1,85,0,0
17778,-83.3333333333333,4,2,5,85,0,0
18028,-83.3333333333333,4,2,1,85,0,0
19028,-100,4,2,1,65,0,0
19528,-166.666666666667,4,2,1,65,0,0
19778,-166.666666666667,4,2,1,25,0,0
20028,-83.3333333333333,4,2,1,85,0,0
21278,-83.3333333333333,4,2,5,85,0,0
21528,-66.6666666666667,4,2,1,90,0,0
21778,-66.6666666666667,4,2,5,85,0,0
22028,-83.3333333333333,4,2,1,65,0,0
23028,-100,4,2,1,85,0,0
23278,-100,4,2,5,85,0,0
23528,-50.2097759182041,4,2,1,85,0,0
23778,-50.2097759182041,4,2,5,85,0,0
24028,-83.3333333333333,4,2,1,85,0,0
25278,-83.3333333333333,4,2,5,85,0,0
25528,-50,4,2,1,85,0,0
25903,-50,4,2,2,5,0,0
26028,-100,4,2,1,65,0,0
27528,-16.6666666666667,4,2,1,85,0,0
27569,-16.6666666666667,4,2,1,50,0,0
27611,-16.6666666666667,4,2,1,70,0,0
27778,-16.6666666666667,4,2,1,85,0,0
28028,-83.3333333333333,4,2,1,85,0,0
29278,-83.3333333333333,4,2,5,85,0,0
29528,-50,4,2,1,85,0,0
29903,-50,4,2,2,5,0,0
30028,-100,4,2,1,65,0,0
31528,-33.3333333333333,4,2,1,85,0,0
31778,-33.3333333333333,4,2,5,85,0,0
32028,-83.3333333333333,4,2,1,85,0,0
33278,-83.3333333333333,4,2,5,85,0,0
33528,-66.6666666666667,4,2,1,85,0,0
33903,-66.6666666666667,4,2,2,5,0,0
34028,-100,4,2,1,65,0,0
35528,-100,4,2,1,85,0,0
35778,-100,4,2,5,85,0,0
36028,-71.4285714285714,4,2,1,87,0,0
37278,-71.4285714285714,4,2,5,87,0,0
37528,-71.4285714285714,4,2,1,87,0,0
37778,-71.4285714285714,4,2,5,87,0,0
38028,-71.4285714285714,4,2,1,87,0,0
39278,-71.4285714285714,4,2,5,87,0,0
39528,-71.4285714285714,4,2,1,87,0,0
39778,-71.4285714285714,4,2,5,87,0,0
40028,-62.5,4,2,1,90,0,0
41278,-62.5,4,2,5,90,0,0
41528,-62.5,4,2,1,90,0,0
41778,-62.5,4,2,5,90,0,0
42028,-62.5,4,2,1,90,0,0
43278,-62.5,4,2,5,90,0,0
43528,-500,4,2,1,70,0,0
43653,-500,4,2,1,30,0,0
44028,-62.5,4,2,1,90,0,0
45278,-62.5,4,2,5,90,0,0
45528,-62.5,4,2,1,90,0,0
45778,-62.5,4,2,5,90,0,0
46028,-100,4,2,1,70,0,0
47028,-125,4,2,1,90,0,0
47278,-100,4,2,5,90,0,0
47528,-83.3333333333333,4,2,1,90,0,0
47778,-71.4285714285714,4,2,5,90,0,0
48028,-62.5,4,2,1,90,0,0
49903,-62.5,4,2,2,5,0,0
50028,-100,4,2,1,70,0,0
51278,-83.3333333333333,4,2,1,90,0,0
51778,-83.3333333333333,4,2,5,90,0,0
52028,-62.5,4,2,1,90,0,0
53778,-62.5,4,2,5,90,0,0
54028,-62.5,4,2,1,90,0,0
55778,-62.5,4,2,5,90,0,0
56028,-55.1149836673282,4,2,1,90,0,0
56403,-55.1149836673282,4,2,2,5,0,0
56528,-62.5,4,2,1,90,0,0
57903,-62.5,4,2,2,5,0,0
58028,-62.5,4,2,1,90,0,0
58278,-62.5,4,2,5,90,0,0
58528,-100,4,2,1,70,0,0
60028,-62.5,4,2,1,90,0,0
61778,-62.5,4,2,5,90,0,0
62028,-62.5,4,2,1,90,0,0
62278,-62.5,4,2,5,90,0,0
62528,-100,4,2,1,70,0,0
64028,-52.2740152085929,4,2,1,90,0,0
64528,-62.5,4,2,1,90,0,0
65028,-83.3333333333333,4,2,1,90,0,0
65778,-83.3333333333333,4,2,5,90,0,0
66028,-62.5,4,2,1,90,0,0
67278,-62.5,4,2,5,90,0,0
67528,-62.5,4,2,1,90,0,0
67778,-62.5,4,2,5,90,0,0
68028,-62.5,4,2,1,90,0,0
68403,-62.5,4,2,2,5,0,0
68528,-62.5,4,2,1,90,0,0
69028,-71.4285714285714,4,2,1,90,0,0
69778,-71.4285714285714,4,2,5,90,0,0
70028,-100,4,2,1,70,0,0
71528,-100,4,2,1,90,0,0
71778,-100,4,2,5,90,0,0
72028,-83.3333333333333,4,2,1,85,0,0
73278,-83.3333333333333,4,2,5,85,0,0
73528,-83.3333333333333,4,2,1,85,0,0
73778,-83.3333333333333,4,2,5,85,0,0
74028,-83.3333333333333,4,2,1,85,0,0
75278,-83.3333333333333,4,2,5,85,0,0
75528,-83.3333333333333,4,2,1,85,0,0
75778,-83.3333333333333,4,2,5,85,0,0
76028,-83.3333333333333,4,2,1,85,0,0
77278,-83.3333333333333,4,2,5,85,0,0
77528,-83.3333333333333,4,2,1,85,0,0
77778,-83.3333333333333,4,2,5,85,0,0
78028,-83.3333333333333,4,2,1,85,0,0
79278,-83.3333333333333,4,2,5,85,0,0
79528,-83.3333333333333,4,2,1,85,0,0
79778,-83.3333333333333,4,2,5,85,0,0
80028,-83.3333333333333,4,2,1,85,0,0
81278,-83.3333333333333,4,2,5,85,0,0
81528,-83.3333333333333,4,2,1,85,0,0
81778,-83.3333333333333,4,2,5,85,0,0
82028,-83.3333333333333,4,2,1,85,0,0
83278,-83.3333333333333,4,2,5,85,0,0
83528,-83.3333333333333,4,2,1,85,0,0
83778,-83.3333333333333,4,2,5,85,0,0
84028,-83.3333333333333,4,2,1,85,0,0
85278,-83.3333333333333,4,2,5,85,0,0
85528,-83.3333333333333,4,2,1,85,0,0
85778,-83.3333333333333,4,2,5,85,0,0
86028,-83.3333333333333,4,2,1,85,0,0
87278,-83.3333333333333,4,2,5,85,0,0
87528,-83.3333333333333,4,2,1,85,0,0
87778,-83.3333333333333,4,2,5,85,0,0
88028,-100,4,2,5,80,0,0
98528,-71.4285714285714,4,2,5,80,0,0
100028,-100,4,2,5,80,0,0
101903,-100,4,2,2,5,0,0
102028,-100,4,2,5,80,0,0
102528,-62.5,4,2,5,80,0,0
104028,-125,4,2,5,80,0,0
104528,-125,4,2,5,20,0,0

[Colours]
Combo1 : 148,148,148
Combo2 : 201,44,75
Combo3 : 245,194,118
Combo4 : 231,100,234

[HitObjects]
256,192,5528,12,2,7278,0:0:0:0:
133,149,7528,6,0,B|140:137|135:117|135:117|97:146|104:203,2,115,6|2|2,0:3|0:0|0:0,0:0:0:0:
55,259,8028,6,0,P|89:273|137:265,1,68.9999978942872,6|0,1:2|0:0,0:0:0:0:
245,182,8278,2,0,P|214:198|194:225,1,68.9999978942872,2|0,0:0|0:0,0:0:0:0:
49,266,8528,2,0,P|83:280|131:272,1,68.9999978942872,2|0,0:0|0:0,0:0:0:0:
258,314,8778,5,2,0:0:0:0:
324,277,8903,1,2,0:0:0:0:
370,337,9028,2,0,P|362:273|382:197,1,137.999995788574,10|2,0:0|0:0,0:0:0:0:
487,117,9528,2,0,B|467:110|448:119|448:119|436:112|436:112|390:128|349:114,1,137.999995788574,2|2,1:2|0:0,0:0:0:0:
109,39,10028,6,0,L|101:123,1,68.9999978942872,2|0,0:0|0:0,0:0:0:0:
204,198,10278,2,0,L|210:129,1,68.9999978942872,2|0,0:0|0:0,0:0:0:0:
100,32,10528,2,0,L|92:116,1,68.9999978942872,2|0,1:2|0:0,0:0:0:0:
37,242,10778,1,2,0:0:0:0:
49,266,10903,1,2,0:0:0:0:
43,293,11028,5,2,0:0:0:0:
43,293,11528,2,0,P|44:304|31:286,1,68.9999978942872,2|0,0:0|0:0,0:0:0:0:
204,198,12028,6,0,P|225:230|269:246,1,68.9999978942872,6|0,1:2|0:0,0:0:0:0:
345,142,12278,2,0,P|306:144|270:174,1,68.9999978942872,2|0,0:0|0:0,0:0:0:0:
322,291,12528,2,0,P|339:256|331:210,1,68.9999978942872,2|0,0:0|0:0,0:0:0:0:
195,204,12778,2,0,P|216:236|260:252,1,68.9999978942872,2|0,0:0|0:0,0:0:0:0:
427,128,13028,6,0,P|349:143|311:92,1,137.999995788574,10|2,0:0|0:0,0:0:0:0:
195,204,13528,2,0,P|117:189|96:296,1,206.999993682861,2|0,1:2|0:0,0:0:0:0:
137,325,14028,5,2,0:0:0:0:
137,325,15028,6,0,L|201:322,1,57.5,10|0,1:2|0:0,0:0:0:0:
329,286,15278,2,0,L|265:283,1,57.5,2|0,0:0|0:0,0:0:0:0:
125,327,15528,6,0,L|197:323,1,57.5,2|0,1:2|0:0,0:0:0:0:
340,283,15778,2,0,L|268:280,1,57.5,2|0,0:0|0:0,0:0:0:0:
192,73,16028,6,0,P|174:101|175:150,1,68.9999978942872,6|0,1:2|0:0,0:0:0:0:
324,105,16278,2,0,P|309:75|266:52,1,68.9999978942872,2|0,0:0|0:0,0:0:0:0:
231,203,16528,2,0,P|264:205|306:179,1,68.9999978942872,2|0,0:0|0:0,0:0:0:0:
457,64,16778,5,2,0:0:0:0:
403,117,16903,1,2,0:0:0:0:
448,177,17028,2,0,P|466:247|451:325,1,137.999995788574,10|2,0:0|0:0,0:0:0:0:
254,338,17528,2,0,B|269:329|281:332|281:332|278:325|278:325|329:308|375:341,1,137.999995788574,2|2,1:2|0:0,0:0:0:0:
58,256,18028,6,0,P|74:274|51:263,1,68.9999978942872,2|0,0:0|0:0,0:0:0:0:
118,163,18278,2,0,P|95:168|116:154,1,68.9999978942872,2|0,0:0|0:0,0:0:0:0:
171,260,18528,2,0,P|178:237|180:263,1,68.9999978942872,2|0,1:2|0:0,0:0:0:0:
219,99,18778,1,2,0:0:0:0:
210,72,18903,1,2,0:0:0:0:
218,45,19028,5,2,0:0:0:0:
218,45,19528,2,0,B|196:56|171:50|171:50|191:48|201:38,1,68.9999978942872,2|0,0:0|0:0,0:0:0:0:
349,148,20028,6,0,L|344:241,1,68.9999978942872,6|0,1:2|0:0,0:0:0:0:
297,299,20278,2,0,L|390:304,1,68.9999978942872,2|0,0:0|0:0,0:0:0:0:
449,349,20528,2,0,L|454:256,1,68.9999978942872,2|0,0:0|0:0,0:0:0:0:
501,198,20778,2,0,L|408:193,1,68.9999978942872,2|0,0:0|0:0,0:0:0:0:
227,236,21028,6,0,P|222:283|301:294,1,137.999995788574,10|2,0:0|0:0,0:0:0:0:
117,365,21528,2,0,B|119:344|137:332|137:332|124:298|124:298|133:158,1,172.500006580353,2|2,1:2|0:0,0:0:0:0:
140,27,22028,5,2,0:0:0:0:
140,27,23028,6,0,P|165:48|200:53,1,57.5,10|0,1:2|0:0,0:0:0:0:
268,40,23278,1,2,0:0:0:0:
65,118,23528,6,0,B|71:128|71:128|63:134|58:142|58:142|49:135|49:135|41:148|40:161|43:174|43:174|55:172|55:172|57:182|63:189|63:189|53:195|53:195|62:206|75:213|87:214|87:214|90:203|90:203|100:204|108:200|108:200|111:212|111:212|121:209|129:202,1,229.039071144724,2|2,1:2|0:0,0:0:0:0:
321,263,24028,6,0,P|332:292|329:333,1,68.9999978942872,6|0,1:2|0:0,0:0:0:0:
482,296,24278,2,0,P|449:308|415:306,1,68.9999978942872,2|0,0:0|0:0,0:0:0:0:
428,150,24528,2,0,P|426:184|438:217,1,68.9999978942872,2|0,0:0|0:0,0:0:0:0:
293,58,24778,5,2,0:0:0:0:
324,127,24903,1,2,0:0:0:0:
375,71,25028,1,10,0:0:0:0:
380,66,25278,1,2,0:0:0:0:
155,152,25528,6,0,B|142:123|141:87|141:87|137:96|137:96|135:86|135:86|130:95|130:95|128:85|128:85|123:94|123:94|121:84|121:84|116:93|116:93|114:83|114:83|109:92|109:92|108:82|108:82|59:170|90:256,1,345,2|0,1:2|0:0,0:0:0:0:
139,314,26028,5,2,0:0:0:0:
139,314,27528,6,2,B|158:303|166:274|166:274|156:310|164:344,6,115.000004386902,2|2|2|2|2|2|2,1:2|0:0|0:0|0:0|0:0|0:0|0:0,0:1:0:0:
297,63,28028,6,0,L|273:127,1,68.9999978942872,6|0,1:2|0:0,0:0:0:0:
394,191,28278,2,0,L|351:138,1,68.9999978942872,2|0,0:0|0:0,0:0:0:0:
233,215,28528,2,0,L|300:204,1,68.9999978942872,2|0,0:0|0:0,0:0:0:0:
471,212,28778,5,2,0:0:0:0:
418,266,28903,1,2,0:0:0:0:
451,333,29028,1,10,0:0:0:0:
454,340,29278,1,2,0:0:0:0:
301,203,29528,6,0,B|264:198|246:228|246:228|219:217|219:217|269:293|224:375|143:386|95:343,1,345,2|0,1:2|0:0,0:0:0:0:
63,274,30028,5,2,0:0:0:0:
63,274,31528,6,0,B|99:270|109:232|109:232|97:181|97:181|111:152|141:152|141:152|252:175|252:175|227:187|219:217,1,345.000013160706,2|2,1:2|0:0,0:0:0:0:
345,370,32028,6,0,P|356:338|352:302,1,68.9999978942872,6|0,1:2|0:0,0:0:0:0:
384,212,32278,2,0,P|406:237|439:252,1,68.9999978942872,2|0,0:0|0:0,0:0:0:0:
502,325,32528,2,0,P|468:331|439:352,1,68.9999978942872,2|0,0:0|0:0,0:0:0:0:
292,234,32778,5,2,0:0:0:0:
249,170,32903,1,2,0:0:0:0:
308,123,33028,2,0,B|341:97|341:97|318:-4,1,137.999995788574,10|2,0:0|0:0,0:0:0:0:
107,132,33528,2,0,P|82:223|226:211,1,258.75000987053,2|0,1:2|0:0,0:0:0:0:
249,170,34028,5,2,0:0:0:0:
249,170,35528,6,0,L|254:252,1,57.5,2|0,1:2|0:0,0:0:0:0:
359,269,35778,2,0,L|355:211,1,57.5,2|0,0:0|0:0,0:0:0:0:
170,349,36028,6,0,P|134:331|95:333,1,80.499997543335,6|0,1:2|0:0,0:0:0:0:
14,278,36278,2,0,P|47:255|65:221,1,80.499997543335,2|0,0:0|0:0,0:0:0:0:
144,163,36528,2,0,P|146:203|167:235,1,80.499997543335,2|0,0:0|0:0,0:0:0:0:
352,176,36778,2,0,P|349:135|328:103,1,80.499997543335,2|0,0:0|0:0,0:0:0:0:
249,170,37028,5,10,0:0:0:0:
334,361,37278,1,2,0:0:0:0:
468,123,37528,2,0,P|445:199|459:294,1,160.99999508667,2|2,1:2|0:0,0:0:0:0:
362,68,38028,6,0,P|321:80|270:68,1,80.499997543335,2|0,0:0|0:0,0:0:0:0:
276,164,38278,2,0,P|235:152|210:99,1,80.499997543335,2|0,0:0|0:0,0:0:0:0:
154,205,38528,2,0,P|122:172|132:140,1,80.499997543335,2|0,1:2|0:0,0:0:0:0:
26,188,38778,2,0,P|12:152|48:149,1,80.499997543335,2|0,0:0|0:0,0:0:0:0:
143,344,39028,5,10,1:2:0:0:
276,164,39278,1,2,0:0:0:0:
307,302,39528,5,2,1:2:0:0:
208,41,39778,1,2,0:0:0:0:
483,139,40028,6,0,L|469:251,1,92,6|0,1:2|0:0,0:0:0:0:
402,342,40278,2,0,L|390:250,1,92,2|0,0:0|0:0,0:0:0:0:
231,160,40528,2,0,P|272:136|325:146,1,92,2|0,0:0|0:0,0:0:0:0:
270,314,40778,2,0,P|229:338|176:328,1,92,2|0,0:0|0:0,0:0:0:0:
41,132,41028,5,10,0:0:0:0:
159,239,41278,1,2,0:0:0:0:
4,277,41528,2,0,L|-1:390,1,92,2|0,1:2|0:0,0:0:0:0:
80,222,41778,2,0,L|75:313,1,92,2|0,0:0|0:0,0:0:0:0:
186,102,42028,5,2,0:0:0:0:
231,160,42153,1,2,0:0:0:0:
300,135,42278,1,2,0:0:0:0:
297,61,42403,1,2,0:0:0:0:
227,40,42528,2,0,L|344:33,1,92,2|0,1:2|0:0,0:0:0:0:
464,101,42778,2,0,L|347:94,1,92,2|0,0:0|0:0,0:0:0:0:
159,239,43028,5,10,1:2:0:0:
417,201,43278,1,2,0:0:0:0:
288,220,43528,6,0,L|290:236,1,11.5,2|0,0:0|0:0,0:0:0:0:
289,231,44028,6,0,B|320:258|320:258|312:325,1,92,6|0,1:2|0:0,0:0:0:0:
417,201,44278,1,2,0:0:0:0:
417,201,44403,1,2,0:0:0:0:
417,201,44528,2,0,B|386:174|386:174|394:107,1,92,2|0,0:0|0:0,0:0:0:0:
227,48,44778,5,2,0:0:0:0:
285,92,44903,1,2,0:0:0:0:
217,121,45028,2,0,P|167:196|180:292,1,184,10|2,0:0|0:0,0:0:0:0:
439,318,45528,2,0,B|416:327|393:310|393:310|374:319|374:319|319:287|261:306,1,184,2|2,1:2|0:0,0:0:0:0:
113,384,46028,5,2,0:0:0:0:
113,384,47028,6,0,L|110:339,1,46,10|0,1:2|0:0,0:0:0:0:
29,345,47278,2,0,L|39:288,1,57.5,2|0,0:0|0:0,0:0:0:0:
174,268,47528,2,0,L|152:199,1,68.9999978942872,2|0,1:2|0:0,0:0:0:0:
232,378,47778,2,0,L|263:304,1,80.499997543335,2|0,0:0|0:0,0:0:0:0:
411,199,48028,6,0,B|402:215|401:243|401:243|369:168|435:180|402:102,1,184,6|0,1:2|0:0,0:0:0:0:
208,31,48528,2,0,P|196:44|188:117,1,92,2|0,0:0|0:0,0:0:0:0:
248,216,48778,2,0,P|260:203|268:130,1,92,2|0,0:0|0:0,0:0:0:0:
88,171,49028,2,0,P|126:194|171:191,1,92,10|0,0:0|0:0,0:0:0:0:
369,76,49278,2,0,P|356:64|283:56,1,92,2|0,0:0|0:0,0:0:0:0:
465,195,49528,2,0,P|473:258|299:282,1,276,2|0,1:2|0:0,0:0:0:0:
278,220,50028,5,2,0:0:0:0:
278,220,51278,6,0,L|182:227,1,68.9999978942872,2|0,0:0|0:0,0:0:0:0:
102,134,51528,2,0,L|198:127,1,68.9999978942872,2|0,1:2|0:0,0:0:0:0:
289,227,51778,2,0,L|193:234,1,68.9999978942872,2|0,0:0|0:0,0:0:0:0:
24,318,52028,6,0,B|49:294|49:294|33:232,1,92,6|0,1:2|0:0,0:0:0:0:
38,84,52278,2,0,B|46:117|46:117|107:134,1,92,2|0,0:0|0:0,0:0:0:0:
220,232,52528,2,0,B|186:222|186:222|141:267,1,92,2|0,0:0|0:0,0:0:0:0:
320,143,52778,5,2,0:0:0:0:
277,83,52903,1,2,0:0:0:0:
320,23,53028,1,10,0:0:0:0:
390,46,53153,1,2,0:0:0:0:
390,120,53278,1,2,0:0:0:0:
460,143,53403,1,2,0:0:0:0:
503,83,53528,2,0,P|467:177|473:260,1,184,2|2,1:2|0:0,0:0:0:0:
293,377,54028,5,2,0:0:0:0:
327,303,54153,1,2,0:0:0:0:
293,229,54278,1,2,0:0:0:0:
212,210,54403,1,2,0:0:0:0:
148,261,54528,5,2,1:2:0:0:
143,279,54653,1,2,0:0:0:0:
100,194,54778,5,2,0:0:0:0:
95,176,54903,1,2,0:0:0:0:
140,106,55028,6,0,L|149:-6,1,92,10|2,1:2|0:0,0:0:0:0:
306,173,55278,1,2,0:0:0:0:
306,173,55403,1,2,0:0:0:0:
306,173,55528,2,0,B|304:195|292:204|292:204|301:207|301:207|292:204|292:204|317:274|294:335,1,184,2|2,1:2|0:0,0:0:0:0:
94,248,56028,6,0,B|68:237|52:213|50:188|50:188|43:182|43:182|43:179|43:177|43:177|50:183|50:183|49:142|83:110|122:111|122:111|129:104|129:104|132:105|134:105|134:105|127:111|127:111|154:113|175:129|185:151,1,312.982039586917,6|0,1:2|0:0,0:0:0:0:
204,271,56528,6,0,L|196:379,1,92,2|0,0:0|0:0,0:0:0:0:
306,173,56778,2,0,L|312:81,1,92,2|0,0:0|0:0,0:0:0:0:
193,276,57028,2,0,L|185:384,1,92,10|0,0:0|0:0,0:0:0:0:
392,256,57278,5,2,0:0:0:0:
434,195,57403,1,2,0:0:0:0:
411,125,57528,2,0,P|308:173|320:322,1,276,2|0,1:2|0:0,0:0:0:0:
397,362,58028,5,2,0:0:0:0:
94,248,58278,1,2,0:0:0:0:
285,199,58528,5,2,0:0:0:0:
285,199,60028,6,0,B|278:190|282:178|282:178|292:188|292:188|318:116|283:45,1,184,6|0,1:2|0:0,0:0:0:0:
55,123,60528,5,2,0:0:0:0:
88,188,60653,1,2,0:0:0:0:
52,252,60778,2,0,L|42:368,1,92,2|0,0:0|0:0,0:0:0:0:
180,154,61028,2,0,L|190:38,1,92,10|0,0:0|0:0,0:0:0:0:
252,343,61278,2,0,P|305:343|346:307,1,92,2|0,0:0|0:0,0:0:0:0:
344,109,61528,2,0,P|267:169|280:258,1,184,2|2,1:2|0:0,0:0:0:0:
455,367,62028,5,2,0:0:0:0:
353,201,62278,1,2,0:0:0:0:
507,82,62528,5,2,0:0:0:0:
507,82,64028,6,0,B|500:85|493:87|493:87|491:85|491:85|488:85|486:85|486:85|489:87|489:87|476:90|464:89|464:89|462:87|462:87|460:86|458:86|458:86|459:89|459:89|447:87|435:82|435:82|434:79|434:79|431:78|429:77|429:77|430:80|430:80|424:77|419:74|419:74|414:71|408:68|408:68|408:65|408:65|406:64|403:63|403:63|403:66|403:66|391:61|379:59|379:59|377:57|377:57|375:56|373:56|373:56|375:59|375:59|362:58|350:60|350:60|348:58|348:58|345:59|343:59|343:59|345:61|345:61|338:63|331:66|331:66|331:66,1,219.994579603474,6|0,1:2|0:0,0:0:0:0:
111,204,64528,5,2,0:0:0:0:
45,169,64653,1,2,0:0:0:0:
56,96,64778,1,2,0:0:0:0:
129,84,64903,1,2,0:0:0:0:
162,150,65028,6,0,L|271:154,1,68.9999978942872,10|0,0:0|0:0,0:0:0:0:
443,203,65278,1,2,0:0:0:0:
425,235,65403,1,2,0:0:0:0:
407,267,65528,2,0,L|298:271,2,68.9999978942872,2|2|2,1:2|0:0|0:0,0:0:0:0:
80,384,66028,5,2,0:0:0:0:
99,313,66153,1,2,0:0:0:0:
60,250,66278,1,2,0:0:0:0:
81,179,66403,1,2,0:0:0:0:
41,116,66528,2,0,P|113:125|132:24,1,184,2|2,1:2|0:0,0:0:0:0:
265,87,66903,1,2,0:0:0:0:
280,97,67028,6,0,L|273:203,1,92,10|2,1:2|0:0,0:0:0:0:
266,271,67278,1,2,0:0:0:0:
419,78,67528,2,0,P|460:74|507:105,1,92,2|0,1:2|0:0,0:0:0:0:
476,214,67778,2,0,P|435:218|388:187,1,92,2|0,0:0|0:0,0:0:0:0:
134,72,68028,6,0,B|125:108|80:118|80:118|298:95,1,276,6|0,1:2|0:0,0:0:0:0:
448,146,68528,5,2,0:0:0:0:
476,214,68653,1,2,0:0:0:0:
434,274,68778,1,2,0:0:0:0:
361,264,68903,1,2,0:0:0:0:
330,197,69028,6,0,L|336:303,1,80.499997543335,10|0,0:0|0:0,0:0:0:0:
171,254,69278,1,2,0:0:0:0:
149,224,69403,1,2,0:0:0:0:
127,194,69528,2,0,L|133:71,2,80.499997543335,2|2|2,1:2|0:0|0:0,0:0:0:0:
8,372,70028,5,2,0:0:0:0:
8,372,71528,6,0,P|16:351|15:306,1,57.5,2|0,1:2|0:0,0:0:0:0:
0,239,71778,1,2,0:0:0:0:
290,352,72028,6,0,L|208:338,1,68.9999978942872,6|0,1:2|0:0,0:0:0:0:
124,309,72278,2,0,L|176:245,1,68.9999978942872,2|0,0:0|0:0,0:0:0:0:
243,186,72528,2,0,L|272:263,1,68.9999978942872,2|0,0:0|0:0,0:0:0:0:
401,342,72778,5,2,0:0:0:0:
349,286,72903,1,2,0:0:0:0:
394,225,73028,2,0,P|414:161|399:87,1,137.999995788574,10|2,0:0|0:0,0:0:0:0:
193,54,73528,2,0,B|201:50|209:55|209:55|214:51|214:51|265:83|338:56,1,137.999995788574,2|2,1:2|0:0,0:0:0:0:
49,240,74028,6,0,P|64:210|62:170,1,68.9999978942872,2|0,0:0|0:0,0:0:0:0:
187,289,74278,2,0,P|153:291|119:312,1,68.9999978942872,2|0,0:0|0:0,0:0:0:0:
166,147,74528,2,0,P|184:174|220:193,1,68.9999978942872,2|0,1:2|0:0,0:0:0:0:
44,50,74778,5,2,0:0:0:0:
101,98,74903,1,2,0:0:0:0:
127,26,75028,5,10,1:2:0:0:
49,240,75278,1,2,0:0:0:0:
210,123,75528,6,0,L|217:226,1,68.9999978942872,2|0,1:2|0:0,0:0:0:0:
228,372,75778,2,0,L|223:303,1,68.9999978942872,2|0,0:0|0:0,0:0:0:0:
453,106,76028,6,0,P|475:139|472:180,1,68.9999978942872,6|0,1:2|0:0,0:0:0:0:
394,161,76278,2,0,P|360:183|319:180,1,68.9999978942872,2|0,0:0|0:0,0:0:0:0:
340,104,76528,2,0,P|317:70|320:29,1,68.9999978942872,2|0,0:0|0:0,0:0:0:0:
398,48,76778,2,0,P|431:25|472:28,1,68.9999978942872,2|0,0:0|0:0,0:0:0:0:
360,264,77028,6,0,P|287:257|251:202,1,137.999995788574,10|2,0:0|0:0,0:0:0:0:
146,17,77528,2,0,P|169:83|162:167,1,137.999995788574,2|2,1:2|0:0,0:0:0:0:
48,343,78028,6,0,B|68:315|68:315|61:264,1,68.9999978942872,2|0,0:0|0:0,0:0:0:0:
46,156,78278,2,0,B|60:187|60:187|107:206,1,68.9999978942872,2|0,0:0|0:0,0:0:0:0:
209,248,78528,2,0,B|174:244|174:244|134:276,1,68.9999978942872,2|0,1:2|0:0,0:0:0:0:
39,349,78778,2,0,B|59:321|59:321|52:270,1,68.9999978942872,2|0,0:0|0:0,0:0:0:0:
166,150,79028,5,10,1:2:0:0:
198,329,79278,1,2,0:0:0:0:
333,57,79528,6,0,L|246:85,1,68.9999978942872,2|0,1:2|0:0,0:0:0:0:
46,156,79778,1,2,0:0:0:0:
357,264,80028,6,0,L|365:345,1,68.9999978942872,6|0,1:2|0:0,0:0:0:0:
471,224,80278,2,0,L|464:155,1,68.9999978942872,2|0,0:0|0:0,0:0:0:0:
346,270,80528,2,0,L|354:351,1,68.9999978942872,2|0,0:0|0:0,0:0:0:0:
418,79,80778,5,2,0:0:0:0:
346,104,80903,1,2,0:0:0:0:
289,52,81028,1,10,0:0:0:0:
284,47,81278,1,2,0:0:0:0:
471,224,81528,5,2,1:2:0:0:
476,229,81778,1,2,0:0:0:0:
139,167,82028,6,0,P|122:197|120:232,1,68.9999978942872,2|0,0:0|0:0,0:0:0:0:
185,297,82278,2,0,P|219:295|250:279,1,68.9999978942872,2|0,0:0|0:0,0:0:0:0:
274,192,82528,2,0,P|256:162|227:143,1,68.9999978942872,2|0,1:2|0:0,0:0:0:0:
100,59,82778,5,2,0:0:0:0:
170,88,82903,1,2,0:0:0:0:
228,39,83028,1,10,1:2:0:0:
234,35,83278,1,2,0:0:0:0:
20,172,83528,5,2,1:2:0:0:
250,279,83778,1,2,0:0:0:0:
442,112,84028,6,0,L|437:206,1,68.9999978942872,6|0,1:2|0:0,0:0:0:0:
467,269,84278,2,0,P|430:275|390:259,1,68.9999978942872,2|0,0:0|0:0,0:0:0:0:
221,190,84528,2,0,P|254:183|287:193,1,68.9999978942872,2|0,0:0|0:0,0:0:0:0:
246,347,84778,2,0,L|249:278,1,68.9999978942872,2|0,0:0|0:0,0:0:0:0:
135,124,85028,6,0,P|173:195|233:179,1,137.999995788574,10|2,0:0|0:0,0:0:0:0:
379,5,85528,2,0,B|367:29|343:33|343:33|354:137,1,137.999995788574,2|2,1:2|0:0,0:0:0:0:
476,357,86028,6,0,L|383:347,1,68.9999978942872,2|0,0:0|0:0,0:0:0:0:
248,278,86278,2,0,L|341:268,1,68.9999978942872,2|0,0:0|0:0,0:0:0:0:
487,360,86528,6,0,L|385:349,1,68.9999978942872,2|0,1:2|0:0,0:0:0:0:
236,274,86778,2,0,L|338:263,1,68.9999978942872,2|0,0:0|0:0,0:0:0:0:
512,208,87028,5,10,1:2:0:0:
229,377,87278,1,2,0:0:0:0:
344,44,87528,6,0,L|368:134,1,68.9999978942872,2|0,1:2|0:0,0:0:0:0:
406,265,87778,1,2,0:0:0:0:
171,54,88028,6,0,P|94:49|71:177,1,230,6|0,1:2|0:0,0:0:0:0:
160,221,88778,1,2,0:0:0:0:
170,226,89028,2,0,L|175:351,1,115,10|2,0:0|0:0,0:0:0:0:
268,152,89528,2,0,L|263:37,1,115,2|2,1:2|0:0,0:0:0:0:
443,341,90028,5,2,0:0:0:0:
465,228,90278,1,2,0:0:0:0:
353,206,90528,1,2,1:2:0:0:
331,319,90778,1,2,0:0:0:0:
449,351,91028,5,10,1:2:0:0:
346,195,91278,1,2,0:0:0:0:
321,325,91528,1,2,1:2:0:0:
474,221,91778,1,2,0:0:0:0:
238,352,92028,6,0,B|176:343|129:378|129:378|94:331|32:323,1,230,6|0,1:2|0:0,0:0:0:0:
152,194,92778,1,2,0:0:0:0:
161,186,93028,2,0,B|185:150|185:150|170:39,1,115,10|2,0:0|0:0,0:0:0:0:
252,244,93528,2,0,B|228:280|228:280|243:391,1,115,2|2,1:2|0:0,0:0:0:0:
331,115,94028,5,2,0:0:0:0:
402,183,94278,1,2,0:0:0:0:
489,137,94528,1,2,1:2:0:0:
471,40,94778,1,2,0:0:0:0:
369,11,95028,5,10,1:2:0:0:
320,115,95278,1,2,0:0:0:0:
402,193,95528,1,2,1:2:0:0:
502,140,95778,1,2,0:0:0:0:
220,168,96028,5,6,1:2:0:0:
220,168,96778,6,0,L|215:252,1,57.5,2|0,0:0|0:0,0:0:0:0:
209,307,97028,1,10,0:0:0:0:
123,128,97278,1,2,0:0:0:0:
287,270,97528,2,0,L|296:407,1,115,2|2,1:2|0:0,0:0:0:0:
415,95,98028,5,2,0:0:0:0:
423,87,98278,1,2,0:0:0:0:
278,182,98528,6,0,B|203:198|129:142|145:43|145:43|117:86|68:93,2,321.99999017334,2|10|2,1:2|1:2|1:2,0:0:0:0:
87,172,99778,1,2,0:0:0:0:
289,325,100028,5,6,1:2:0:0:
289,325,100778,6,0,P|319:313|353:316,1,57.5,2|0,0:0|0:0,0:0:0:0:
422,339,101028,1,10,0:0:0:0:
349,153,101278,1,2,0:0:0:0:
185,267,101528,2,0,P|140:270|93:158,1,172.5,2|0,1:2|0:0,0:0:0:0:
108,130,102028,5,2,0:0:0:0:
29,321,102278,1,2,0:0:0:0:
253,143,102528,6,0,B|300:133|300:133|331:127|350:140|353:156|356:171|359:187|346:206|315:212|315:212|268:221|268:221|295:362,2,368,2|10|2,1:2|1:2|1:2,0:0:0:0:
369,280,103778,1,2,0:0:0:0:
487,31,104028,6,0,B|482:34|482:34|482:37|482:37|486:47|486:47|476:49|476:49|479:70|479:70|483:94|476:109|476:109|470:134|476:165|476:165|471:184|472:204,1,184,6|8,1:2|0:0,0:0:0:0:
