osu file format v14

[General]
AudioFilename: audio.mp3
AudioLeadIn: 0
PreviewTime: 7965
Countdown: 0
SampleSet: Soft
StackLeniency: 0.4
Mode: 0
LetterboxInBreaks: 0
WidescreenStoryboard: 1

[Editor]
Bookmarks: 104033
DistanceSpacing: 1.2
BeatDivisor: 4
GridSize: 16
TimelineZoom: 1

[Metadata]
Title:Boss
TitleUnicode:Boss
Artist:Lil Pump
ArtistUnicode:Lil Pump
Creator:fieryrage
Version:SupaV's Hard
Source:
Tags:gazzy garcia soundcloud english hip hop rap trap n1doking ney supav wanpachi gorou cycopton payney
BeatmapID:4016364
BeatmapSetID:1749581

[Difficulty]
HPDrainRate:4
CircleSize:3.8
OverallDifficulty:6
ApproachRate:7.5
SliderMultiplier:1.6
SliderTickRate:1

[Events]
//Background and Video events
0,0,"why did nido have me do this.jpg",0,0
//Break Periods
//Storyboard Layer 0 (Background)
//Storyboard Layer 1 (Fail)
//Storyboard Layer 2 (Pass)
//Storyboard Layer 3 (Foreground)
//Storyboard Layer 4 (Overlay)
//Storyboard Sound Samples

[TimingPoints]
28,500,4,2,5,80,1,0
28,-100,4,2,5,80,0,0
3528,-100,4,2,1,80,0,0
3653,-100,4,2,5,80,0,0
4528,-100,4,2,1,80,0,0
4653,-100,4,2,5,80,0,0
5528,-100,4,2,1,85,0,0
5903,-100,4,2,5,85,0,0
6528,-100,4,2,1,80,0,0
6653,-100,4,2,5,80,0,0
7528,-100,4,2,69,65,0,0
7653,-100,4,2,5,70,0,0
7778,-100,4,2,5,75,0,0
8028,-100,4,2,1,85,0,0
9278,-100,4,2,5,85,0,0
9528,-100,4,2,1,85,0,0
9778,-100,4,2,5,85,0,0
10028,-100,4,2,1,85,0,0
11028,-100,4,2,1,65,0,0
12028,-100,4,2,1,85,0,0
13278,-100,4,2,5,85,0,0
13528,-100,4,2,1,85,0,0
13778,-100,4,2,5,85,0,0
14028,-100,4,2,1,65,0,0
15028,-100,4,2,1,85,0,0
15278,-100,4,2,5,85,0,0
15528,-100,4,2,1,85,0,0
15778,-100,4,2,5,85,0,0
16028,-100,4,2,1,85,0,0
17278,-100,4,2,5,85,0,0
17528,-100,4,2,1,85,0,0
17778,-100,4,2,5,85,0,0
18028,-100,4,2,1,85,0,0
19028,-100,4,2,1,65,0,0
20028,-100,4,2,1,85,0,0
21278,-100,4,2,5,85,0,0
21528,-100,4,2,1,90,0,0
21778,-100,4,2,5,85,0,0
22028,-100,4,2,1,65,0,0
23028,-100,4,2,1,85,0,0
23278,-100,4,2,5,85,0,0
23528,-100,4,2,1,85,0,0
23778,-100,4,2,5,85,0,0
24028,-100,4,2,1,85,0,0
25278,-100,4,2,5,85,0,0
25528,-100,4,2,1,85,0,0
25778,-100,4,2,5,85,0,0
26028,-100,4,2,1,65,0,0
27528,-100,4,2,1,85,0,0
27653,-100,4,2,1,70,0,0
27778,-100,4,2,1,85,0,0
29278,-100,4,2,5,85,0,0
29528,-100,4,2,1,85,0,0
29778,-100,4,2,5,85,0,0
30028,-100,4,2,1,65,0,0
31528,-100,4,2,1,85,0,0
31778,-100,4,2,5,85,0,0
32028,-100,4,2,1,85,0,0
33278,-100,4,2,5,85,0,0
33528,-100,4,2,1,85,0,0
33778,-100,4,2,5,85,0,0
34028,-100,4,2,1,65,0,0
35528,-100,4,2,1,85,0,0
35778,-100,4,2,5,85,0,0
36028,-100,4,2,1,87,0,0
37278,-100,4,2,5,87,0,0
37528,-100,4,2,1,87,0,0
37778,-100,4,2,5,87,0,0
38028,-100,4,2,1,87,0,0
38903,-100,4,2,2,5,0,0
39028,-100,4,2,1,87,0,0
39278,-100,4,2,5,87,0,0
39403,-100,4,2,2,5,0,0
39528,-100,4,2,1,87,0,0
39778,-100,4,2,5,87,0,0
40028,-100,4,2,1,90,0,0
41278,-100,4,2,5,90,0,0
41528,-100,4,2,1,90,0,0
41778,-100,4,2,5,90,0,0
42028,-100,4,2,1,90,0,0
43278,-100,4,2,5,90,0,0
43528,-100,4,2,1,70,0,0
44028,-100,4,2,1,90,0,0
45278,-100,4,2,5,90,0,0
45528,-100,4,2,1,90,0,0
45778,-100,4,2,5,90,0,0
46028,-100,4,2,1,70,0,0
47028,-100,4,2,1,90,0,0
47278,-100,4,2,5,90,0,0
47528,-100,4,2,1,90,0,0
47778,-100,4,2,5,90,0,0
48028,-100,4,2,1,90,0,0
49778,-100,4,2,5,90,0,0
50028,-100,4,2,1,70,0,0
51278,-100,4,2,1,90,0,0
51778,-100,4,2,5,90,0,0
52028,-100,4,2,1,90,0,0
53778,-100,4,2,5,90,0,0
54028,-100,4,2,1,90,0,0
55778,-100,4,2,5,90,0,0
56028,-100,4,2,1,90,0,0
57778,-100,4,2,5,90,0,0
58028,-100,4,2,1,90,0,0
58278,-100,4,2,5,90,0,0
58528,-100,4,2,1,70,0,0
60028,-100,4,2,1,90,0,0
61778,-100,4,2,5,90,0,0
62028,-100,4,2,1,90,0,0
62278,-100,4,2,5,90,0,0
62528,-100,4,2,1,70,0,0
64028,-100,4,2,1,90,0,0
65778,-100,4,2,5,90,0,0
66028,-100,4,2,1,90,0,0
67278,-100,4,2,5,90,0,0
67528,-100,4,2,1,90,0,0
67778,-100,4,2,5,90,0,0
68028,-100,4,2,1,90,0,0
69778,-100,4,2,5,90,0,0
70028,-100,4,2,1,70,0,0
71528,-100,4,2,1,90,0,0
71778,-100,4,2,5,90,0,0
72028,-100,4,2,1,85,0,0
73278,-100,4,2,5,85,0,0
73528,-100,4,2,1,85,0,0
73778,-100,4,2,5,85,0,0
74028,-100,4,2,1,85,0,0
75278,-100,4,2,5,85,0,0
75528,-100,4,2,1,85,0,0
75778,-100,4,2,5,85,0,0
76028,-100,4,2,1,85,0,0
77278,-100,4,2,5,85,0,0
77528,-100,4,2,1,85,0,0
77778,-100,4,2,5,85,0,0
78028,-100,4,2,1,85,0,0
79278,-100,4,2,5,85,0,0
79528,-100,4,2,1,85,0,0
79778,-100,4,2,5,85,0,0
80028,-100,4,2,1,85,0,0
81278,-100,4,2,5,85,0,0
81528,-100,4,2,1,85,0,0
81778,-100,4,2,5,85,0,0
82028,-100,4,2,1,85,0,0
83278,-100,4,2,5,85,0,0
83528,-100,4,2,1,85,0,0
83778,-100,4,2,5,85,0,0
84028,-100,4,2,1,85,0,0
85278,-100,4,2,5,85,0,0
85528,-100,4,2,1,85,0,0
85778,-100,4,2,5,85,0,0
86028,-100,4,2,1,85,0,0
86903,-100,4,2,2,5,0,0
87028,-100,4,2,1,85,0,0
87278,-100,4,2,5,85,0,0
87403,-100,4,2,2,5,0,0
87528,-100,4,2,1,85,0,0
87778,-100,4,2,5,85,0,0
87903,-100,4,2,2,5,0,0
88028,-100,4,2,5,80,0,0
104028,-125,4,2,5,80,0,0
104528,-125,4,2,5,20,0,0

[Colours]
Combo1 : 148,148,148
Combo2 : 201,44,75
Combo3 : 245,194,118
Combo4 : 231,100,234

[HitObjects]
256,192,5528,12,6,7528,0:3:0:0:
299,167,8028,6,0,P|332:189|386:179,1,80,6|2,1:2|0:0,0:0:0:0:
454,138,8528,1,2,0:0:0:0:
511,227,8778,1,2,0:0:0:0:
511,227,8903,1,2,0:0:0:0:
511,227,9028,2,0,P|500:269|490:318,1,80,10|2,0:0|0:0,0:0:0:0:
435,381,9528,2,0,P|400:349|354:357,1,80,2|2,1:2|0:0,0:0:0:0:
277,378,10028,6,0,P|268:335|259:290,1,80,2|2,0:0|0:0,0:0:0:0:
198,226,10528,1,2,1:2:0:0:
265,158,10778,1,2,0:0:0:0:
265,158,10903,1,2,0:0:0:0:
265,158,11028,1,2,0:0:0:0:
2,127,12028,6,0,P|12:173|22:229,1,80,6|2,1:2|0:0,0:0:0:0:
2,300,12528,1,2,0:0:0:0:
2,300,12778,1,2,0:0:0:0:
68,369,13028,2,0,P|119:372|145:345,1,80,10|2,0:0|0:0,0:0:0:0:
235,360,13528,2,0,P|227:320|218:281,1,80,2|2,1:2|0:0,0:0:0:0:
265,197,14028,1,2,0:0:0:0:
168,0,15028,6,0,B|227:10|227:10|231:14|231:14|303:25,1,120,10|0,1:2|0:0,0:0:0:0:
324,49,15528,1,2,1:2:0:0:
407,1,15778,1,2,0:0:0:0:
498,30,16028,6,0,P|521:65|499:113,1,80,6|2,1:2|0:0,0:0:0:0:
475,188,16528,1,2,0:0:0:0:
399,147,16778,1,2,0:0:0:0:
399,147,16903,1,2,0:0:0:0:
399,147,17028,2,0,P|359:155|316:162,1,80,10|2,0:0|0:0,0:0:0:0:
238,110,17528,2,0,P|210:145|220:193,1,80,2|2,1:2|0:0,0:0:0:0:
264,258,18028,6,0,P|256:298|249:341,1,80,2|2,0:0|0:0,0:0:0:0:
165,382,18528,1,2,1:2:0:0:
85,349,18778,1,2,0:0:0:0:
85,349,18903,1,2,0:0:0:0:
85,349,19028,1,2,0:0:0:0:
25,1,20028,6,0,P|15:45|5:98,1,80,6|2,1:2|0:0,0:0:0:0:
2,175,20528,1,2,0:0:0:0:
2,175,20778,1,2,0:0:0:0:
80,229,21028,2,0,P|117:201|158:204,1,80,10|2,0:0|0:0,0:0:0:0:
238,165,21528,2,0,P|245:204|252:243,1,80,2|2,1:2|0:0,0:0:0:0:
210,330,22028,1,2,0:0:0:0:
473,384,23028,6,0,B|486:324|486:324|485:319|485:319|499:258,1,120,10|0,1:2|0:0,0:0:0:0:
509,220,23528,1,2,1:2:0:0:
445,148,23778,1,2,0:0:0:0:
361,195,24028,5,6,1:2:0:0:
355,200,24153,2,0,P|299:189|225:174,1,120,2|2,0:0|0:0,0:0:0:0:
151,204,24778,1,2,0:0:0:0:
151,204,24903,1,2,0:0:0:0:
151,204,25028,2,0,P|128:167|145:121,1,80,10|2,0:0|0:0,0:0:0:0:
107,41,25528,2,0,P|169:29|210:20,1,80,2|2,1:2|0:0,0:0:0:0:
278,1,26028,1,2,0:0:0:0:
507,7,27528,5,2,1:2:0:0:
507,7,27653,1,2,0:0:0:0:
507,7,27778,1,2,0:0:0:0:
431,66,28028,5,6,1:2:0:0:
438,70,28153,2,0,P|453:132|467:215,1,120,2|2,0:0|0:0,0:0:0:0:
511,270,28778,1,2,0:0:0:0:
511,270,28903,1,2,0:0:0:0:
511,270,29028,2,0,P|501:310|488:364,1,80,10|2,0:0|0:0,0:0:0:0:
402,382,29528,2,0,P|371:351|383:304,1,80,2|2,1:2|0:0,0:0:0:0:
417,231,30028,1,2,0:0:0:0:
257,0,31528,6,0,B|246:54|246:54|248:58|248:58|235:123,1,120,2|0,1:2|0:0,0:0:0:0:
218,161,32028,6,0,P|191:186|130:170,1,80,6|2,1:2|0:0,0:0:0:0:
60,221,32528,1,2,0:0:0:0:
7,153,32778,1,2,0:0:0:0:
7,153,32903,1,2,0:0:0:0:
7,153,33028,2,0,P|15:116|27:60,1,80,10|2,0:0|0:0,0:0:0:0:
87,2,33528,2,0,P|129:-5|174:34,1,80,2|2,1:2|0:0,0:0:0:0:
256,5,34028,5,2,0:0:0:0:
512,190,35528,1,2,1:2:0:0:
512,190,35778,1,2,0:0:0:0:
437,250,36028,6,0,P|401:220|356:230,1,80,6|2,1:2|0:0,0:0:0:0:
293,280,36528,1,2,0:0:0:0:
293,280,36778,1,2,0:0:0:0:
204,242,37028,2,0,P|194:284|183:334,1,80,10|2,0:0|0:0,0:0:0:0:
105,371,37528,2,0,P|62:377|25:350,1,80,2|2,1:2|0:0,0:0:0:0:
3,267,38028,5,2,0:0:0:0:
3,267,38278,1,2,0:0:0:0:
58,188,38528,2,0,P|102:196|191:220,1,120,2|0,1:2|0:0,0:0:0:0:
216,238,39028,2,0,P|245:202|219:124,1,120,10|0,1:2|0:0,0:0:0:0:
195,100,39528,2,0,P|172:63|184:22,1,80,2|2,1:2|0:0,0:0:0:0:
271,1,40028,5,6,1:2:0:0:
276,7,40153,2,0,P|335:18|403:29,1,120,2|2,0:0|0:0,0:0:0:0:
486,1,40778,1,2,0:0:0:0:
510,93,41028,2,0,P|501:133|491:180,1,80,10|2,0:0|0:0,0:0:0:0:
414,223,41528,2,0,P|371:229|341:200,1,80,2|2,1:2|0:0,0:0:0:0:
270,145,42028,6,0,L|216:154,3,40,2|2|2|2,0:0|0:0|0:0|0:0,0:0:0:0:
188,127,42528,1,2,1:2:0:0:
126,200,42778,1,2,0:0:0:0:
195,265,43028,2,0,P|186:302|176:353,1,80,10|2,1:2|0:0,0:0:0:0:
89,383,43528,1,2,0:0:0:0:
1,212,44028,6,0,P|32:180|76:186,1,80,6|2,1:2|0:0,0:0:0:0:
147,230,44528,1,2,0:0:0:0:
217,164,44778,1,2,0:0:0:0:
217,164,44903,1,2,0:0:0:0:
217,164,45028,2,0,P|208:123|197:78,1,80,10|2,0:0|0:0,0:0:0:0:
287,46,45528,2,0,P|296:84|304:123,1,80,2|2,1:2|0:0,0:0:0:0:
381,181,46028,1,2,0:0:0:0:
251,384,47028,6,0,B|310:374|310:374|315:379|315:379|385:366,1,120,10|0,1:2|0:0,0:0:0:0:
413,382,47528,1,2,1:2:0:0:
472,306,47778,1,2,0:0:0:0:
405,237,48028,6,0,P|382:205|400:153,1,80,6|0,1:2|0:0,0:0:0:0:
450,94,48528,1,2,0:0:0:0:
450,94,48778,1,2,0:0:0:0:
386,22,49028,2,0,P|342:15|303:8,1,80,10|2,0:0|0:0,0:0:0:0:
211,1,49528,2,0,P|181:31|192:78,1,80,2|2,1:2|0:0,0:0:0:0:
243,141,50028,1,2,0:0:0:0:
61,384,51278,5,2,0:0:0:0:
0,316,51528,1,2,1:2:0:0:
0,316,51778,1,2,0:0:0:0:
45,231,52028,6,0,P|87:239|133:250,1,80,6|2,1:2|0:0,0:0:0:0:
208,202,52528,1,2,0:0:0:0:
272,286,52778,1,2,0:0:0:0:
272,286,52903,1,2,0:0:0:0:
272,286,53028,2,0,L|262:338,3,40,10|2|2|2,0:0|0:0|0:0|0:0,0:0:0:0:
287,367,53528,2,0,P|334:372|362:351,1,80,2|2,1:2|0:0,0:0:0:0:
463,354,54028,5,2,0:0:0:0:
463,354,54153,1,2,0:0:0:0:
463,354,54278,1,2,0:0:0:0:
505,268,54528,2,0,L|494:229,3,40,2|2|2|2,1:2|0:0|0:0|0:0,0:0:0:0:
511,184,55028,1,10,1:2:0:0:
453,121,55278,1,2,0:0:0:0:
453,121,55403,1,2,0:0:0:0:
453,121,55528,2,0,P|416:92|376:101,1,80,2|2,1:2|0:0,0:0:0:0:
291,75,56028,6,0,P|304:142|321:234,1,160,6|2,1:2|0:0,0:0:0:0:
375,311,56778,1,2,0:0:0:0:
306,378,57028,1,10,0:0:0:0:
224,350,57278,1,2,0:0:0:0:
224,350,57403,1,2,0:0:0:0:
224,350,57528,2,0,P|194:306|204:276,1,80,2|2,1:2|0:0,0:0:0:0:
267,215,58028,6,0,P|257:167|248:116,1,80,2|2,0:0|0:0,0:0:0:0:
302,55,58528,1,2,0:0:0:0:
105,8,60028,6,0,P|21:7|2:78,1,160,6|2,1:2|0:0,0:0:0:0:
63,140,60778,1,2,0:0:0:0:
15,223,61028,1,10,0:0:0:0:
96,282,61278,1,2,0:0:0:0:
96,282,61528,2,0,P|136:274|187:264,1,80,2|2,1:2|0:0,0:0:0:0:
259,220,62028,6,0,P|287:255|274:308,1,80,2|2,0:0|0:0,0:0:0:0:
233,369,62528,1,2,0:0:0:0:
512,381,64028,6,0,P|460:324|362:353,1,160,6|2,1:2|0:0,0:0:0:0:
308,291,64778,1,2,0:0:0:0:
308,291,64903,1,2,0:0:0:0:
308,291,65028,1,10,0:0:0:0:
358,212,65278,1,2,0:0:0:0:
358,212,65403,1,2,0:0:0:0:
358,212,65528,2,0,P|347:172|336:132,1,80,2|2,1:2|0:0,0:0:0:0:
255,83,66028,6,0,L|267:26,3,40,2|2|2|2,0:0|0:0|0:0|0:0,0:0:0:0:
287,2,66528,1,2,1:2:0:0:
390,7,66778,1,2,0:0:0:0:
390,7,66903,1,2,0:0:0:0:
390,7,67028,2,0,P|423:43|411:82,1,80,10|2,1:2|0:0,0:0:0:0:
434,165,67528,2,0,P|475:173|527:185,1,80,2|2,1:2|0:0,0:0:0:0:
510,277,68028,6,0,P|429:258|333:243,1,160,6|2,1:2|0:0,0:0:0:0:
276,300,68778,1,2,0:0:0:0:
276,300,68903,1,2,0:0:0:0:
276,300,69028,1,10,0:0:0:0:
337,373,69278,1,2,0:0:0:0:
337,373,69403,1,2,0:0:0:0:
337,373,69528,2,0,P|371:349|415:356,1,80,2|2,1:2|0:0,0:0:0:0:
499,381,70028,5,2,0:0:0:0:
512,98,71528,6,0,B|452:107|452:107|450:111|450:111|370:124,1,120,2|0,1:2|0:0,0:0:0:0:
350,137,72028,6,0,P|322:110|331:63,1,80,6|2,1:2|0:0,0:0:0:0:
259,1,72528,1,2,0:0:0:0:
188,65,72778,1,2,0:0:0:0:
188,65,72903,1,2,0:0:0:0:
188,65,73028,2,0,P|147:57|101:50,1,80,10|2,0:0|0:0,0:0:0:0:
25,3,73528,2,0,P|-1:42|14:94,1,80,2|2,1:2|0:0,0:0:0:0:
76,133,74028,6,0,P|66:179|55:232,1,80,2|2,0:0|0:0,0:0:0:0:
15,296,74528,1,2,1:2:0:0:
98,361,74778,1,2,0:0:0:0:
98,361,74903,1,2,0:0:0:0:
98,361,75028,2,0,P|140:329|181:339,1,80,10|2,1:2|0:0,0:0:0:0:
245,279,75528,2,0,P|255:325|266:378,1,80,2|2,1:2|0:0,0:0:0:0:
355,381,76028,6,0,P|380:352|374:312,1,80,6|2,1:2|0:0,0:0:0:0:
323,237,76528,1,2,0:0:0:0:
323,237,76778,1,2,0:0:0:0:
379,159,77028,2,0,P|425:169|478:180,1,80,10|2,0:0|0:0,0:0:0:0:
510,95,77528,2,0,P|470:86|431:78,1,80,2|2,1:2|0:0,0:0:0:0:
368,5,78028,5,2,0:0:0:0:
368,5,78278,1,2,0:0:0:0:
287,57,78528,2,0,P|262:92|270:130,1,80,2|2,1:2|0:0,0:0:0:0:
319,208,79028,2,0,P|311:246|298:299,1,80,10|2,1:2|0:0,0:0:0:0:
283,380,79528,2,0,P|238:351|204:362,1,80,2|2,1:2|0:0,0:0:0:0:
122,381,80028,6,0,P|111:332|102:277,1,80,6|2,1:2|0:0,0:0:0:0:
162,224,80528,1,2,0:0:0:0:
89,178,80778,1,2,0:0:0:0:
89,178,80903,1,2,0:0:0:0:
89,178,81028,2,0,P|51:201|7:192,1,80,10|2,0:0|0:0,0:0:0:0:
2,102,81528,2,0,P|51:91|106:82,1,80,2|2,1:2|0:0,0:0:0:0:
149,19,82028,6,0,P|181:55|179:94,1,80,2|2,0:0|0:0,0:0:0:0:
201,178,82528,1,2,1:2:0:0:
291,136,82778,1,2,0:0:0:0:
291,136,82903,1,2,0:0:0:0:
291,136,83028,2,0,P|330:145|386:155,1,80,10|2,1:2|0:0,0:0:0:0:
459,185,83528,2,0,P|486:146|474:106,1,80,2|2,1:2|0:0,0:0:0:0:
500,22,84028,6,0,P|458:31|405:41,1,80,6|2,1:2|0:0,0:0:0:0:
332,0,84528,1,2,0:0:0:0:
332,0,84778,1,2,0:0:0:0:
248,47,85028,2,0,P|224:86|241:130,1,80,10|2,0:0|0:0,0:0:0:0:
274,203,85528,2,0,P|264:245|252:296,1,80,2|2,1:2|0:0,0:0:0:0:
295,373,86028,5,2,0:0:0:0:
295,373,86278,1,2,0:0:0:0:
375,320,86528,2,0,P|417:312|502:299,1,120,2|0,1:2|0:0,0:0:0:0:
508,254,87028,2,0,P|467:212|407:217,1,120,10|0,1:2|0:0,0:0:0:0:
366,236,87528,2,0,P|304:241|265:191,1,120,2|0,1:2|0:0,0:0:0:0:
236,164,88028,6,0,B|177:172|177:172|153:205|153:205|82:215,1,160,6|0,1:2|0:0,0:0:0:0:
15,269,88778,1,2,0:0:0:0:
85,334,89028,2,0,P|133:341|160:309,1,80,10|2,0:0|0:0,0:0:0:0:
220,252,89528,1,2,1:2:0:0:
220,252,89778,1,2,0:0:0:0:
308,289,90028,6,0,P|300:331|293:374,1,80,2|2,0:0|0:0,0:0:0:0:
388,383,90528,2,0,P|394:343|402:304,1,80,2|2,1:2|0:0,0:0:0:0:
475,242,91028,1,10,1:2:0:0:
475,242,91278,1,2,0:0:0:0:
402,178,91528,1,2,1:2:0:0:
509,19,92028,6,0,B|463:47|463:47|357:24,1,160,6|0,1:2|0:0,0:0:0:0:
265,2,92778,1,2,0:0:0:0:
195,68,93028,2,0,P|203:100|216:153,1,80,10|2,0:0|0:0,0:0:0:0:
284,219,93528,1,2,1:2:0:0:
284,219,93778,1,2,0:0:0:0:
225,295,94028,6,0,P|184:303|142:270,1,80,2|2,0:0|0:0,0:0:0:0:
61,316,94528,2,0,P|53:284|40:231,1,80,2|2,1:2|0:0,0:0:0:0:
80,152,95028,1,10,1:2:0:0:
80,152,95278,1,2,0:0:0:0:
6,89,95528,1,2,1:2:0:0:
176,1,96028,6,0,B|238:12|238:12|260:35|260:35|329:46,1,160,6|0,1:2|0:0,0:0:0:0:
409,2,96778,1,2,0:0:0:0:
493,48,97028,2,0,P|479:90|465:141,1,80,10|2,0:0|0:0,0:0:0:0:
510,211,97528,1,2,1:2:0:0:
510,211,97778,1,2,0:0:0:0:
441,278,98028,6,0,P|406:299|364:287,1,80,2|2,0:0|0:0,0:0:0:0:
291,234,98528,2,0,P|281:271|272:319,1,80,2|2,1:2|0:0,0:0:0:0:
343,384,99028,1,10,1:2:0:0:
343,384,99278,1,2,0:0:0:0:
415,321,99528,1,2,1:2:0:0:
255,213,100028,6,0,B|301:248|301:248|410:225,1,160,6|0,1:2|0:0,0:0:0:0:
484,178,100778,1,2,0:0:0:0:
410,116,101028,2,0,P|418:76|430:24,1,80,10|2,0:0|0:0,0:0:0:0:
337,1,101528,1,2,1:2:0:0:
337,1,101778,1,2,0:0:0:0:
255,51,102028,6,0,P|217:26|168:32,1,80,2|2,0:0|0:0,0:0:0:0:
90,4,102528,2,0,P|99:39|112:90,1,80,2|2,1:2|0:0,0:0:0:0:
91,178,103028,1,10,1:2:0:0:
91,178,103278,1,2,0:0:0:0:
6,132,103528,1,2,1:2:0:0:
0,285,104028,6,0,B|31:270|31:270|51:281|51:281|49:288|49:288|73:300|73:300|107:278,1,128,6|8,1:2|0:0,0:0:0:0:
