osu file format v14

[General]
AudioFilename: audio.mp3
AudioLeadIn: 0
PreviewTime: 7965
Countdown: 0
SampleSet: Normal
StackLeniency: 0.8
Mode: 1
LetterboxInBreaks: 0
WidescreenStoryboard: 1

[Editor]
DistanceSpacing: 0.3
BeatDivisor: 8
GridSize: 16
TimelineZoom: 1

[Metadata]
Title:Boss
TitleUnicode:Boss
Artist:Lil Pump
ArtistUnicode:Lil Pump
Creator:fieryrage
Version:Kantan
Source:
Tags:gazzy garcia soundcloud english hip hop rap trap n1doking ney supav wanpachi gorou cycopton payney
BeatmapID:4015284
BeatmapSetID:1749581

[Difficulty]
HPDrainRate:9
CircleSize:3
OverallDifficulty:2
ApproachRate:9
SliderMultiplier:1.4
SliderTickRate:1

[Events]
//Background and Video events
0,0,"why did nido have me do this.jpg",0,0
//Break Periods
//Storyboard Layer 0 (Background)
//Storyboard Layer 1 (Fail)
//Storyboard Layer 2 (Pass)
//Storyboard Layer 3 (Foreground)
//Storyboard Layer 4 (Overlay)
//Storyboard Sound Samples

[TimingPoints]
28,500,4,1,0,75,1,0
11028,-100,4,1,0,60,0,0
12028,-100,4,1,0,75,0,0
14028,-100,4,1,0,60,0,0
15028,-100,4,1,0,75,0,0
19028,-100,4,1,0,60,0,0
20028,-100,4,1,0,75,0,0
22028,-100,4,1,0,60,0,0
23028,-100,4,1,0,75,0,0
26028,-100,4,1,0,60,0,0
27528,-100,4,1,0,75,0,0
30028,-100,4,1,0,60,0,0
31528,-100,4,1,0,75,0,0
34028,-100,4,1,0,60,0,0
35528,-100,4,1,0,75,0,0
43528,-100,4,1,0,60,0,0
44028,-100,4,1,0,75,0,0
46028,-100,4,1,0,60,0,0
47028,-100,4,1,0,75,0,0
50028,-100,4,1,0,60,0,0
51278,-100,4,1,0,75,0,0
58528,-100,4,1,0,60,0,0
60028,-100,4,1,0,75,0,0
62528,-100,4,1,0,60,0,0
64028,-100,4,1,0,75,0,0
70028,-100,4,1,0,60,0,0
71528,-100,4,1,0,75,0,0
88028,-100,4,1,0,70,0,0
104278,-100,4,1,0,50,0,0
104528,-100,4,1,0,40,0,0
104840,-100,4,1,0,30,0,0
105121,-100,4,1,0,15,0,0
105486,-100,4,1,0,5,0,0

[HitObjects]
256,192,5528,12,0,7528,0:0:0:0:
256,192,8028,5,4,0:0:0:0:
256,192,8528,1,8,0:0:0:0:
256,192,9028,1,8,0:0:0:0:
256,192,10028,1,0,0:0:0:0:
256,192,10528,1,0,0:0:0:0:
256,192,12028,1,12,0:0:0:0:
256,192,12528,1,0,0:0:0:0:
256,192,13028,1,8,0:0:0:0:
256,192,13528,1,8,0:0:0:0:
256,192,15028,1,8,0:0:0:0:
256,192,15528,1,0,0:0:0:0:
256,192,16028,1,12,0:0:0:0:
256,192,16528,1,8,0:0:0:0:
256,192,17028,1,8,0:0:0:0:
256,192,18028,1,8,0:0:0:0:
256,192,18528,1,0,0:0:0:0:
256,192,20028,1,4,0:0:0:0:
256,192,20528,1,0,0:0:0:0:
256,192,21028,1,8,0:0:0:0:
256,192,21528,1,8,0:0:0:0:
256,192,23028,1,8,0:0:0:0:
256,192,23528,1,8,0:0:0:0:
256,192,24028,1,4,0:0:0:0:
256,192,24528,1,0,0:0:0:0:
256,192,25028,1,8,0:0:0:0:
256,192,25528,1,8,0:0:0:0:
256,192,27528,1,8,0:0:0:0:
256,192,28028,1,12,0:0:0:0:
256,192,28528,1,0,0:0:0:0:
256,192,29028,1,8,0:0:0:0:
256,192,29528,1,8,0:0:0:0:
256,192,31528,1,12,0:0:0:0:
256,192,32028,1,4,0:0:0:0:
256,192,32528,1,8,0:0:0:0:
256,192,33028,1,8,0:0:0:0:
256,192,33528,1,0,0:0:0:0:
256,192,35528,1,8,0:0:0:0:
256,192,36028,1,4,0:0:0:0:
256,192,36528,1,8,0:0:0:0:
256,192,37028,1,8,0:0:0:0:
256,192,38028,1,8,0:0:0:0:
256,192,38528,1,0,0:0:0:0:
256,192,39028,1,8,0:0:0:0:
256,192,40028,1,4,0:0:0:0:
256,192,40528,1,8,0:0:0:0:
256,192,41028,1,8,0:0:0:0:
256,192,42028,1,0,0:0:0:0:
256,192,42528,1,0,0:0:0:0:
256,192,43028,1,8,0:0:0:0:
256,192,44028,1,12,0:0:0:0:
256,192,44528,1,0,0:0:0:0:
256,192,45028,1,8,0:0:0:0:
256,192,45528,1,8,0:0:0:0:
256,192,47028,1,8,0:0:0:0:
256,192,47528,1,0,0:0:0:0:
256,192,48028,1,12,0:0:0:0:
256,192,48528,1,0,0:0:0:0:
256,192,49028,1,8,0:0:0:0:
256,192,49528,1,8,0:0:0:0:
256,192,51528,1,8,0:0:0:0:
256,192,52028,1,4,0:0:0:0:
256,192,52528,1,0,0:0:0:0:
256,192,53028,1,8,0:0:0:0:
256,192,53528,1,0,0:0:0:0:
256,192,54028,1,8,0:0:0:0:
256,192,55028,1,8,0:0:0:0:
256,192,55528,1,0,0:0:0:0:
256,192,56028,1,4,0:0:0:0:
256,192,57028,1,8,0:0:0:0:
256,192,57528,1,0,0:0:0:0:
256,192,58028,1,8,0:0:0:0:
256,192,60028,1,4,0:0:0:0:
256,192,60528,1,8,0:0:0:0:
256,192,61028,1,8,0:0:0:0:
256,192,61528,1,0,0:0:0:0:
256,192,62028,1,0,0:0:0:0:
256,192,64028,1,12,0:0:0:0:
256,192,64528,1,0,0:0:0:0:
256,192,65028,1,8,0:0:0:0:
256,192,65528,1,8,0:0:0:0:
256,192,66028,1,0,0:0:0:0:
256,192,67028,1,8,0:0:0:0:
256,192,67528,1,0,0:0:0:0:
256,192,68028,1,12,0:0:0:0:
256,192,69028,1,8,0:0:0:0:
256,192,69528,1,8,0:0:0:0:
256,192,71528,1,0,0:0:0:0:
256,192,72028,1,12,0:0:0:0:
256,192,72528,1,0,0:0:0:0:
256,192,73028,1,8,0:0:0:0:
256,192,74028,1,0,0:0:0:0:
256,192,74528,1,8,0:0:0:0:
256,192,75028,1,8,0:0:0:0:
256,192,76028,1,12,0:0:0:0:
256,192,76528,1,0,0:0:0:0:
256,192,77028,1,8,0:0:0:0:
256,192,77528,1,8,0:0:0:0:
256,192,78028,1,0,0:0:0:0:
256,192,79528,1,8,0:0:0:0:
256,192,80028,1,4,0:0:0:0:
256,192,80528,1,0,0:0:0:0:
256,192,81028,1,8,0:0:0:0:
256,192,82028,1,8,0:0:0:0:
256,192,82528,1,0,0:0:0:0:
256,192,83028,1,8,0:0:0:0:
256,192,84028,1,4,0:0:0:0:
256,192,84528,1,0,0:0:0:0:
256,192,85028,1,8,0:0:0:0:
256,192,85528,1,8,0:0:0:0:
256,192,86028,1,0,0:0:0:0:
256,192,87528,1,8,0:0:0:0:
256,192,88028,1,4,0:0:0:0:
256,192,89028,1,8,0:0:0:0:
256,192,89528,1,0,0:0:0:0:
256,192,90528,1,0,0:0:0:0:
256,192,91028,1,8,0:0:0:0:
256,192,92028,1,4,0:0:0:0:
256,192,93028,1,8,0:0:0:0:
256,192,93528,1,0,0:0:0:0:
256,192,94528,1,8,0:0:0:0:
256,192,95028,1,8,0:0:0:0:
256,192,96028,1,12,0:0:0:0:
256,192,97028,1,8,0:0:0:0:
256,192,97528,1,0,0:0:0:0:
256,192,98528,1,0,0:0:0:0:
256,192,99028,1,8,0:0:0:0:
256,192,100028,1,4,0:0:0:0:
256,192,101028,1,8,0:0:0:0:
256,192,101528,1,0,0:0:0:0:
256,192,102528,1,8,0:0:0:0:
256,192,103028,1,8,0:0:0:0:
256,192,103528,1,0,0:0:0:0:
256,192,104028,1,12,0:0:0:0:
