osu file format v14

[General]
AudioFilename: audio.mp3
AudioLeadIn: 0
PreviewTime: 7965
Countdown: 0
SampleSet: Soft
StackLeniency: 0.8
Mode: 0
LetterboxInBreaks: 0
WidescreenStoryboard: 1

[Editor]
DistanceSpacing: 1.2
BeatDivisor: 8
GridSize: 32
TimelineZoom: 0.6999999

[Metadata]
Title:Boss
TitleUnicode:Boss
Artist:Lil Pump
ArtistUnicode:Lil Pump
Creator:fieryrage
Version:Gorou's Normal
Source:
Tags:gazzy garcia soundcloud english hip hop rap trap n1doking ney supav wanpachi gorou cycopton payney
BeatmapID:4019324
BeatmapSetID:1749581

[Difficulty]
HPDrainRate:3
CircleSize:3
OverallDifficulty:4
ApproachRate:5
SliderMultiplier:1.4
SliderTickRate:1

[Events]
//Background and Video events
0,0,"why did nido have me do this.jpg",0,0
//Break Periods
//Storyboard Layer 0 (Background)
//Storyboard Layer 1 (Fail)
//Storyboard Layer 2 (Pass)
//Storyboard Layer 3 (Foreground)
//Storyboard Layer 4 (Overlay)
//Storyboard Sound Samples

[TimingPoints]
28,500,4,2,5,80,1,0
28,-100,4,2,5,80,0,0
3528,-100,4,2,1,80,0,0
3653,-100,4,2,5,80,0,0
4528,-100,4,2,1,80,0,0
4653,-100,4,2,5,80,0,0
5528,-100,4,2,1,85,0,0
5903,-100,4,2,5,85,0,0
6528,-100,4,2,1,80,0,0
6653,-100,4,2,5,80,0,0
7528,-100,4,2,69,65,0,0
7653,-100,4,2,5,70,0,0
7778,-100,4,2,5,75,0,0
8028,-100,4,2,1,85,0,0
9278,-100,4,2,5,85,0,0
9528,-100,4,2,1,85,0,0
9778,-100,4,2,5,85,0,0
10028,-100,4,2,1,85,0,0
11028,-100,4,2,1,65,0,0
12028,-100,4,2,1,85,0,0
13278,-100,4,2,5,85,0,0
13528,-100,4,2,1,85,0,0
13778,-100,4,2,5,85,0,0
14028,-100,4,2,1,65,0,0
15028,-100,4,2,1,85,0,0
15278,-100,4,2,5,85,0,0
15528,-100,4,2,1,85,0,0
15778,-100,4,2,5,85,0,0
16028,-100,4,2,1,85,0,0
17278,-100,4,2,5,85,0,0
17528,-100,4,2,1,85,0,0
17778,-100,4,2,5,85,0,0
18028,-100,4,2,1,85,0,0
19028,-100,4,2,1,65,0,0
20028,-100,4,2,1,85,0,0
21278,-100,4,2,5,85,0,0
21528,-100,4,2,1,90,0,0
21778,-100,4,2,5,85,0,0
22028,-100,4,2,1,65,0,0
23028,-100,4,2,1,85,0,0
23278,-100,4,2,5,85,0,0
23528,-100,4,2,1,85,0,0
23778,-100,4,2,5,85,0,0
24028,-100,4,2,1,85,0,0
25278,-100,4,2,5,85,0,0
25528,-100,4,2,1,85,0,0
25778,-100,4,2,5,85,0,0
26028,-100,4,2,1,65,0,0
27528,-100,4,2,1,85,0,0
27569,-100,4,2,1,50,0,0
27611,-100,4,2,1,70,0,0
27778,-100,4,2,1,85,0,0
29278,-100,4,2,5,85,0,0
29528,-100,4,2,1,85,0,0
29778,-100,4,2,5,85,0,0
30028,-100,4,2,1,65,0,0
31528,-100,4,2,1,85,0,0
31778,-100,4,2,5,85,0,0
32028,-100,4,2,1,85,0,0
33278,-100,4,2,5,85,0,0
33528,-100,4,2,1,85,0,0
33778,-100,4,2,5,85,0,0
34028,-100,4,2,1,65,0,0
35528,-100,4,2,1,85,0,0
35778,-100,4,2,5,85,0,0
36028,-100,4,2,1,87,0,0
37278,-100,4,2,5,87,0,0
37528,-100,4,2,1,87,0,0
37778,-100,4,2,5,87,0,0
38028,-100,4,2,1,87,0,0
39278,-100,4,2,5,87,0,0
39528,-100,4,2,1,87,0,0
39778,-100,4,2,5,87,0,0
40028,-100,4,2,1,90,0,0
41278,-100,4,2,5,90,0,0
41528,-100,4,2,1,90,0,0
41778,-100,4,2,5,90,0,0
42028,-100,4,2,1,90,0,0
43278,-100,4,2,5,90,0,0
43528,-100,4,2,1,70,0,0
44028,-100,4,2,1,90,0,0
45278,-100,4,2,5,90,0,0
45528,-100,4,2,1,90,0,0
45778,-100,4,2,5,90,0,0
46028,-100,4,2,1,70,0,0
47028,-100,4,2,1,90,0,0
47278,-100,4,2,5,90,0,0
47528,-100,4,2,1,90,0,0
47778,-100,4,2,5,90,0,0
48028,-100,4,2,1,90,0,0
49778,-100,4,2,5,90,0,0
50028,-100,4,2,1,70,0,0
51278,-100,4,2,1,90,0,0
51778,-100,4,2,5,90,0,0
52028,-100,4,2,1,90,0,0
53778,-100,4,2,5,90,0,0
54028,-100,4,2,1,90,0,0
55778,-100,4,2,5,90,0,0
56028,-100,4,2,1,90,0,0
57778,-100,4,2,5,90,0,0
58028,-100,4,2,1,90,0,0
58278,-100,4,2,5,90,0,0
58528,-100,4,2,1,70,0,0
60028,-100,4,2,1,90,0,0
61778,-100,4,2,5,90,0,0
62028,-100,4,2,1,90,0,0
62278,-100,4,2,5,90,0,0
62528,-100,4,2,1,70,0,0
64028,-100,4,2,1,90,0,0
67778,-100,4,2,5,90,0,0
68028,-100,4,2,1,90,0,0
70028,-100,4,2,1,70,0,0
71528,-100,4,2,1,90,0,0
71778,-100,4,2,5,90,0,0
72028,-100,4,2,1,85,0,0
73278,-100,4,2,5,85,0,0
73528,-100,4,2,1,85,0,0
73778,-100,4,2,5,85,0,0
74028,-100,4,2,1,85,0,0
75278,-100,4,2,5,85,0,0
75528,-100,4,2,1,85,0,0
75778,-100,4,2,5,85,0,0
76028,-100,4,2,1,85,0,0
77278,-100,4,2,5,85,0,0
77528,-100,4,2,1,85,0,0
77778,-100,4,2,5,85,0,0
78028,-100,4,2,1,85,0,0
79278,-100,4,2,5,85,0,0
79528,-100,4,2,1,85,0,0
79778,-100,4,2,5,85,0,0
80028,-100,4,2,1,85,0,0
81278,-100,4,2,5,85,0,0
81528,-100,4,2,1,85,0,0
81778,-100,4,2,5,85,0,0
82028,-100,4,2,1,85,0,0
83278,-100,4,2,5,85,0,0
83528,-100,4,2,1,85,0,0
83778,-100,4,2,5,85,0,0
84028,-100,4,2,1,85,0,0
85278,-100,4,2,5,85,0,0
85528,-100,4,2,1,85,0,0
85778,-100,4,2,5,85,0,0
86028,-100,4,2,1,85,0,0
87278,-100,4,2,5,85,0,0
87528,-100,4,2,1,85,0,0
87778,-100,4,2,5,85,0,0
88028,-100,4,2,5,80,0,0
104528,-100,4,2,5,20,0,0

[Colours]
Combo1 : 148,148,148
Combo2 : 201,44,75
Combo3 : 245,194,118
Combo4 : 231,100,234

[HitObjects]
169,132,5528,6,0,B|190:65|190:65|212:132|212:132|234:65|234:65|256:132|256:132|277:65|277:65|298:132|298:132|320:65|320:65|342:132,1,560,2|6,0:0|0:3,0:0:0:0:
434,275,8028,6,0,L|421:365,2,70,6|2|2,1:2|0:0|0:0,0:0:0:0:
492,213,8778,1,2,0:0:0:0:
448,141,9028,2,0,P|417:137|335:149,1,70,10|2,0:0|0:0,0:0:0:0:
330,208,9528,2,0,L|191:187,1,140,2|2,1:2|0:0,0:0:0:0:
124,136,10278,1,2,0:0:0:0:
46,168,10528,2,0,P|51:223|46:270,1,70,2|2,1:2|0:0,0:0:0:0:
26,318,11028,1,2,0:0:0:0:
359,362,12028,6,0,L|348:292,1,70,6|2,1:2|0:0,0:0:0:0:
290,232,12528,1,2,0:0:0:0:
290,232,12778,1,2,0:0:0:0:
333,160,13028,2,0,P|411:165|515:146,2,140,10|2|2,0:0|1:2|0:0,0:0:0:0:
50,342,15028,2,0,L|41:248,1,70,10|2,1:2|0:0,0:0:0:0:
93,204,15528,2,0,L|102:110,1,70,2|2,1:2|0:0,0:0:0:0:
64,57,16028,6,0,P|44:57|-40:79,2,70,6|2|2,1:2|0:0|0:0,0:0:0:0:
135,12,16778,1,2,0:0:0:0:
199,66,17028,2,0,L|293:57,1,70,10|2,0:0|0:0,0:0:0:0:
337,107,17528,2,0,P|337:176|324:245,1,140,2|2,1:2|0:0,0:0:0:0:
270,309,18278,1,2,0:0:0:0:
329,367,18528,2,0,P|379:363|435:381,1,70,2|2,1:2|0:0,0:0:0:0:
473,328,19028,1,2,0:0:0:0:
321,28,20028,6,0,L|232:42,1,70,6|2,1:2|0:0,0:0:0:0:
213,113,20528,1,2,0:0:0:0:
213,113,20778,1,2,0:0:0:0:
268,176,21028,2,0,P|272:214|269:274,1,70,10|2,0:0|0:0,0:0:0:0:
216,308,21528,2,0,L|43:329,1,140,2|2,1:2|0:0,0:0:0:0:
25,37,23028,2,0,P|48:40|123:38,1,70,10|2,1:2|0:0,0:0:0:0:
162,91,23528,2,0,P|185:88|260:90,1,70,2|2,1:2|0:0,0:0:0:0:
296,32,24028,6,0,L|475:6,1,140,6|2,1:2|0:0,0:0:0:0:
487,77,24778,1,2,0:0:0:0:
448,151,25028,2,0,P|446:196|451:257,1,70,10|2,0:0|0:0,0:0:0:0:
487,294,25528,2,0,P|485:370|421:355,1,140,2|2,1:2|0:0,0:0:0:0:
250,126,27528,2,2,L|262:39,1,70,2|2,1:2|0:0,0:1:0:0:
183,20,28028,6,0,P|106:28|39:17,1,140,6|2,1:2|0:0,0:0:0:0:
7,94,28778,1,2,0:0:0:0:
72,146,29028,2,0,L|56:257,1,70,10|2,0:0|0:0,0:0:0:0:
13,283,29528,2,0,P|15:359|79:344,1,140,2|2,1:2|0:0,0:0:0:0:
336,296,31528,2,0,L|413:310,1,70,2|2,1:2|0:0,0:0:0:0:
488,298,32028,6,0,P|497:329|502:386,2,70,6|2|2,1:2|0:0|0:0,0:0:0:0:
501,214,32778,1,2,0:0:0:0:
455,143,33028,2,0,L|463:53,1,70,10|2,0:0|0:0,0:0:0:0:
404,10,33528,2,0,P|309:24|230:20,1,140,2|2,1:2|0:0,0:0:0:0:
246,307,35528,2,0,P|209:307|153:323,1,70,2|2,1:2|0:0,0:0:0:0:
97,343,36028,6,0,L|79:245,1,70,6|2,1:2|0:0,0:0:0:0:
16,224,36528,1,2,0:0:0:0:
16,224,36778,1,2,0:0:0:0:
53,148,37028,2,0,P|122:151|203:140,2,140,10|2|2,0:0|1:2|0:0,0:0:0:0:
12,74,38278,1,2,0:0:0:0:
73,16,38528,2,0,L|165:33,1,70,2|2,1:2|0:0,0:0:0:0:
218,63,39028,1,10,1:2:0:0:
380,19,39528,2,0,P|387:58|386:120,1,70,2|2,1:2|0:0,0:0:0:0:
317,134,40028,6,0,L|299:299,1,140,6|2,1:2|0:0,0:0:0:0:
276,353,40778,1,2,0:0:0:0:
357,373,41028,2,0,P|385:375|447:392,1,70,10|2,0:0|0:0,0:0:0:0:
495,336,41528,1,2,1:2:0:0:
504,168,42028,2,0,L|405:150,1,70,2|2,0:0|0:0,0:0:0:0:
442,71,42528,1,2,1:2:0:0:
361,88,42778,1,2,0:0:0:0:
361,88,43028,2,0,L|262:106,1,70,10|2,1:2|0:0,0:0:0:0:
255,24,43528,1,2,0:0:0:0:
89,51,44028,6,0,P|53:46|2:33,2,70,6|2|2,1:2|0:0|0:0,0:0:0:0:
139,118,44778,1,2,0:0:0:0:
90,186,45028,2,0,P|84:273|96:353,2,140,10|2|2,0:0|1:2|0:0,0:0:0:0:
389,33,47028,2,0,L|495:51,1,70,10|2,1:2|0:0,0:0:0:0:
506,113,47528,2,0,P|484:193|481:229,1,70,2|2,1:2|0:0,0:0:0:0:
498,263,48028,5,6,1:2:0:0:
352,346,48528,1,2,0:0:0:0:
352,346,48778,1,2,0:0:0:0:
287,292,49028,2,0,L|298:203,1,70,10|2,0:0|0:0,0:0:0:0:
244,155,49528,2,0,P|248:67|238:-1,1,140,2|2,1:2|0:0,0:0:0:0:
40,186,51278,1,2,0:0:0:0:
10,264,51528,2,0,L|26:352,1,70,2|2,1:2|0:0,0:0:0:0:
106,342,52028,6,0,P|136:362|193:373,2,70,6|2|2,1:2|0:0|0:0,0:0:0:0:
131,261,52778,1,2,0:0:0:0:
64,211,53028,2,0,P|48:181|35:136,1,70,10|2,0:0|0:0,0:0:0:0:
1,70,53528,1,2,1:2:0:0:
171,68,54028,2,0,L|186:-31,2,70,2|2|2,0:0|0:0|1:2,0:0:0:0:
248,101,54778,1,2,0:0:0:0:
316,52,55028,2,0,P|346:62|418:74,1,70,10|2,1:2|0:0,0:0:0:0:
466,56,55528,2,0,L|481:155,1,70,2|2,1:2|0:0,0:0:0:0:
503,204,56028,5,6,1:2:0:0:
385,323,56528,1,2,0:0:0:0:
385,323,56778,1,2,0:0:0:0:
304,297,57028,2,0,L|291:204,1,70,10|2,0:0|0:0,0:0:0:0:
251,155,57528,2,0,L|264:62,1,70,2|2,1:2|0:0,0:0:0:0:
200,26,58028,2,0,P|119:32|38:16,1,140,2|2,0:0|0:0,0:0:0:0:
145,315,60028,6,0,P|226:309|307:325,1,140,6|2,1:2|0:0,0:0:0:0:
361,351,60778,1,2,0:0:0:0:
439,320,61028,2,0,L|449:230,1,70,10|2,0:0|0:0,0:0:0:0:
480,173,61528,2,0,L|470:83,1,70,2|2,1:2|0:0,0:0:0:0:
414,42,62028,2,0,L|264:58,1,140,2|2,0:0|0:0,0:0:0:0:
60,195,64028,6,0,L|210:211,1,140,6|2,1:2|0:0,0:0:0:0:
270,165,64778,1,2,0:0:0:0:
351,185,65028,2,0,P|366:226|378:277,1,70,10|2,0:0|0:0,0:0:0:0:
341,329,65528,2,0,P|264:322|183:343,1,140,2|2,1:2|0:0,0:0:0:0:
123,362,66278,1,2,0:0:0:0:
78,290,66528,2,0,L|91:207,1,70,2|2,1:2|0:0,0:0:0:0:
31,158,67028,2,0,L|18:75,2,70,10|0|2,1:2|0:0|1:2,0:0:0:0:
198,146,68028,6,0,L|231:-13,1,140,6|2,1:2|0:0,0:0:0:0:
303,41,68778,1,2,0:0:0:0:
380,9,69028,2,0,P|411:22|469:28,1,70,10|2,0:0|0:0,0:0:0:0:
497,95,69528,2,0,P|510:174|500:251,1,140,2|2,1:2|0:0,0:0:0:0:
254,382,71528,1,2,1:2:0:0:
284,216,72028,6,0,P|306:228|364:244,2,70,6|2|2,1:2|0:0|0:0,0:0:0:0:
226,154,72778,1,2,0:0:0:0:
212,71,73028,2,0,L|113:61,1,70,10|2,0:0|0:0,0:0:0:0:
61,85,73528,2,0,P|55:165|69:248,1,140,2|2,1:2|0:0,0:0:0:0:
27,300,74278,1,2,0:0:0:0:
84,361,74528,2,0,L|176:349,1,70,2|2,1:2|0:0,0:0:0:0:
228,313,75028,1,10,1:2:0:0:
389,359,75528,1,2,1:2:0:0:
473,213,76028,6,0,L|480:130,1,70,6|2,1:2|0:0,0:0:0:0:
434,71,76528,2,0,L|351:64,1,70,2|2,0:0|0:0,0:0:0:0:
291,23,77028,2,0,P|206:33|135:25,1,140,10|2,0:0|1:2,0:0:0:0:
26,140,78028,1,2,0:0:0:0:
26,140,78278,1,2,0:0:0:0:
80,204,78528,2,0,L|69:302,1,70,2|2,1:2|0:0,0:0:0:0:
113,346,79028,2,0,P|181:337|293:353,1,140,10|2,1:2|1:2,0:0:0:0:
413,295,80028,6,0,L|501:313,2,70,6|2|2,1:2|0:0|0:0,0:0:0:0:
352,237,80778,1,2,0:0:0:0:
269,252,81028,2,0,P|264:309|269:354,1,70,10|2,0:0|0:0,0:0:0:0:
184,346,81528,2,0,L|31:323,1,140,2|2,1:2|0:0,0:0:0:0:
20,244,82278,1,2,0:0:0:0:
60,170,82528,2,0,P|63:133|58:65,1,70,2|2,1:2|0:0,0:0:0:0:
13,31,83028,1,10,1:2:0:0:
178,4,83528,1,2,1:2:0:0:
241,159,84028,6,0,L|232:237,1,70,6|2,1:2|0:0,0:0:0:0:
177,291,84528,2,0,P|196:315|219:372,1,70,2|2,0:0|0:0,0:0:0:0:
295,369,85028,2,0,P|378:363|431:323,1,140,10|2,0:0|1:2,0:0:0:0:
488,176,86028,1,2,0:0:0:0:
488,176,86278,1,2,0:0:0:0:
453,98,86528,1,2,1:2:0:0:
453,98,86778,1,2,0:0:0:0:
374,62,87028,2,0,L|206:50,1,140,10|2,1:2|1:2,0:0:0:0:
71,94,88028,6,0,P|63:180|73:253,1,140,6|0,1:2|0:0,0:0:0:0:
105,308,88778,1,2,0:0:0:0:
35,355,89028,1,10,0:0:0:0:
200,381,89528,2,0,L|372:361,1,140,2|2,1:2|0:0,0:0:0:0:
506,358,90528,1,2,1:2:0:0:
448,200,91028,2,0,P|454:161|471:121,1,70,10|2,1:2|0:0,0:0:0:0:
405,73,91528,2,0,P|393:40|388:5,1,70,2|2,1:2|0:0,0:0:0:0:
306,24,92028,6,0,L|163:8,1,140,6|0,1:2|0:0,0:0:0:0:
96,54,92778,1,2,0:0:0:0:
18,21,93028,1,10,0:0:0:0:
58,184,93528,2,0,L|48:342,1,140,2|2,1:2|0:0,0:0:0:0:
211,365,94528,2,0,P|217:320|232:278,1,70,2|2,1:2|0:0,0:0:0:0:
275,229,95028,2,0,L|261:145,1,70,10|2,1:2|0:0,0:0:0:0:
198,106,95528,1,2,1:2:0:0:
344,23,96028,6,0,P|421:37|445:104,1,140,6|0,1:2|0:0,0:0:0:0:
426,169,96778,1,2,0:0:0:0:
482,231,97028,1,10,0:0:0:0:
353,339,97528,2,0,L|206:357,1,140,2|2,1:2|0:0,0:0:0:0:
69,269,98528,2,0,L|78:195,1,70,2|2,1:2|0:0,0:0:0:0:
25,133,99028,2,0,L|34:59,1,70,10|2,1:2|0:0,0:0:0:0:
103,17,99528,1,2,1:2:0:0:
250,97,100028,6,0,P|265:179|256:261,1,140,6|0,1:2|0:0,0:0:0:0:
213,304,100778,1,2,0:0:0:0:
254,376,101028,1,10,0:0:0:0:
420,351,101528,2,0,L|439:189,1,140,2|2,1:2|0:0,0:0:0:0:
476,48,102528,1,2,1:2:0:0:
312,86,103028,2,0,P|273:80|222:55,1,70,10|2,1:2|0:0,0:0:0:0:
181,12,103528,2,0,L|105:28,1,70,2|2,1:2|0:0,0:0:0:0:
39,68,104028,6,0,B|41:103|61:134|61:134|59:168|59:168|71:202,1,140,6|8,1:2|0:3,0:0:0:0:
