osu file format v14

[General]
AudioFilename: audio.mp3
AudioLeadIn: 0
PreviewTime: 40131
Countdown: 0
SampleSet: Soft
StackLeniency: 0.7
Mode: 0
LetterboxInBreaks: 0
WidescreenStoryboard: 1

[Editor]
Bookmarks: 8131,24131,40131,56131,72131,88131
DistanceSpacing: 1
BeatDivisor: 8
GridSize: 8
TimelineZoom: 2.7

[Metadata]
Title:Boss
TitleUnicode:Boss
Artist:Lil Pump
ArtistUnicode:Lil Pump
Creator:1103
Version:visionary's entry level normal
Source:
Tags:jetski english hip hop myah visionary vastly godsenger
BeatmapID:4022422
BeatmapSetID:1765492

[Difficulty]
HPDrainRate:2
CircleSize:2.6
OverallDifficulty:4
ApproachRate:6
SliderMultiplier:1.2
SliderTickRate:1

[Events]
//Background and Video events
0,0,"Lil Pump - Boss [Official Music Video] 1-9 screenshot.jpg",0,0
Video,-200,"heavily censored butts.avi"
//Break Periods
//Storyboard Layer 0 (Background)
//Storyboard Layer 1 (Fail)
//Storyboard Layer 2 (Pass)
//Storyboard Layer 3 (Foreground)
//Storyboard Layer 4 (Overlay)
//Storyboard Sound Samples

[TimingPoints]
131,500,4,2,1,60,1,0
631,-100,4,2,1,100,0,0
8131,-83.3333333333333,4,2,3,100,0,0
8380,-83.3333333333333,4,2,4,100,0,0
8880,-83.3333333333333,4,2,5,100,0,0
9131,-83.3333333333333,4,2,3,100,0,0
9631,-83.3333333333333,4,2,5,100,0,0
10131,-83.3333333333333,4,2,6,100,0,0
10380,-83.3333333333333,4,2,3,100,0,0
10631,-83.3333333333333,4,2,5,100,0,0
11131,-83.3333333333333,4,2,4,60,0,0
12131,-83.3333333333333,4,2,7,100,0,0
12380,-83.3333333333333,4,2,4,100,0,0
12880,-83.3333333333333,4,2,5,100,0,0
13131,-83.3333333333333,4,2,3,100,0,0
13631,-83.3333333333333,4,2,5,100,0,0
14131,-83.3333333333333,4,2,4,60,0,0
15131,-83.3333333333333,4,2,8,100,0,0
15380,-83.3333333333333,4,2,1,100,0,0
15631,-83.3333333333333,4,2,5,100,0,0
16131,-83.3333333333333,4,2,3,100,0,0
16380,-83.3333333333333,4,2,4,100,0,0
16880,-83.3333333333333,4,2,5,100,0,0
17131,-83.3333333333333,4,2,3,100,0,0
17631,-83.3333333333333,4,2,5,100,0,0
18131,-83.3333333333333,4,2,6,100,0,0
18380,-83.3333333333333,4,2,3,100,0,0
18631,-83.3333333333333,4,2,5,100,0,0
19131,-83.3333333333333,4,2,4,60,0,0
20131,-83.3333333333333,4,2,7,100,0,0
20380,-83.3333333333333,4,2,4,100,0,0
20880,-83.3333333333333,4,2,5,100,0,0
21131,-83.3333333333333,4,2,3,100,0,0
21631,-83.3333333333333,4,2,5,100,0,0
22131,-83.3333333333333,4,2,4,60,0,0
23131,-83.3333333333333,4,2,8,100,0,0
23380,-83.3333333333333,4,2,1,100,0,0
23631,-83.3333333333333,4,2,5,100,0,0
23880,-83.3333333333333,4,2,2,100,0,0
24131,-83.3333333333333,4,2,3,100,0,0
24630,-83.3333333333333,4,2,4,100,0,0
24881,-83.3333333333333,4,2,5,100,0,0
25131,-83.3333333333333,4,2,3,100,0,0
25380,-83.3333333333333,4,2,1,100,0,0
25631,-83.3333333333333,4,2,5,100,0,0
26131,-83.3333333333333,4,2,4,60,0,0
27631,-83.3333333333333,4,2,5,100,0,0
27880,-83.3333333333333,4,2,2,100,0,0
28131,-83.3333333333333,4,2,7,100,0,0
28630,-83.3333333333333,4,2,4,100,0,0
28881,-83.3333333333333,4,2,5,100,0,0
29131,-83.3333333333333,4,2,3,100,0,0
29380,-83.3333333333333,4,2,1,100,0,0
29631,-83.3333333333333,4,2,5,100,0,0
30131,-83.3333333333333,4,2,4,60,0,0
31631,-83.3333333333333,4,2,5,100,0,0
31880,-83.3333333333333,4,2,2,100,0,0
32131,-83.3333333333333,4,2,3,100,0,0
32380,-83.3333333333333,4,2,4,100,0,0
32880,-83.3333333333333,4,2,5,100,0,0
33131,-83.3333333333333,4,2,3,100,0,0
33631,-83.3333333333333,4,2,5,100,0,0
34131,-83.3333333333333,4,2,4,60,0,0
35631,-83.3333333333333,4,2,5,100,0,0
36131,-83.3333333333333,4,2,7,100,0,0
36380,-83.3333333333333,4,2,4,100,0,0
36880,-83.3333333333333,4,2,5,100,0,0
37131,-83.3333333333333,4,2,3,100,0,0
37630,-83.3333333333333,4,2,5,100,0,0
38131,-83.3333333333333,4,2,6,100,0,0
38380,-83.3333333333333,4,2,3,100,0,0
38631,-83.3333333333333,4,2,5,100,0,0
39131,-83.3333333333333,4,2,8,100,0,0
39631,-83.3333333333333,4,2,5,100,0,0
40131,-83.3333333333333,4,2,3,100,0,0
40380,-83.3333333333333,4,2,4,100,0,0
40880,-83.3333333333333,4,2,5,100,0,0
41131,-83.3333333333333,4,2,3,100,0,0
41631,-83.3333333333333,4,2,5,100,0,0
42131,-83.3333333333333,4,2,6,100,0,0
42380,-83.3333333333333,4,2,3,100,0,0
42631,-83.3333333333333,4,2,5,100,0,0
43131,-83.3333333333333,4,2,8,100,0,0
43631,-83.3333333333333,4,2,4,60,0,0
44131,-83.3333333333333,4,2,7,100,0,0
44380,-83.3333333333333,4,2,4,100,0,0
44881,-83.3333333333333,4,2,5,100,0,0
45131,-83.3333333333333,4,2,3,100,0,0
45631,-83.3333333333333,4,2,5,100,0,0
46131,-83.3333333333333,4,2,4,60,0,0
47131,-83.3333333333333,4,2,8,100,0,0
47380,-83.3333333333333,4,2,1,100,0,0
47631,-83.3333333333333,4,2,5,100,0,0
47880,-83.3333333333333,4,2,2,100,0,0
48131,-83.3333333333333,4,2,3,100,0,0
48631,-83.3333333333333,4,2,4,100,0,0
48880,-83.3333333333333,4,2,5,100,0,0
49130,-83.3333333333333,4,2,3,100,0,0
49631,-83.3333333333333,4,2,5,100,0,0
50131,-83.3333333333333,4,2,4,60,0,0
51381,-83.3333333333333,4,2,9,100,0,0
51631,-83.3333333333333,4,2,5,100,0,0
51880,-83.3333333333333,4,2,2,100,0,0
52131,-83.3333333333333,4,2,7,100,0,0
52380,-83.3333333333333,4,2,4,100,0,0
52881,-83.3333333333333,4,2,5,100,0,0
53131,-83.3333333333333,4,2,3,100,0,0
53631,-83.3333333333333,4,2,5,100,0,0
54131,-83.3333333333333,4,2,6,100,0,0
54380,-83.3333333333333,4,2,3,100,0,0
54631,-83.3333333333333,4,2,5,100,0,0
55131,-83.3333333333333,4,2,8,100,0,0
55381,-83.3333333333333,4,2,3,100,0,0
55631,-83.3333333333333,4,2,5,100,0,0
56130,-83.3333333333333,4,2,3,100,0,0
56631,-83.3333333333333,4,2,4,100,0,0
56880,-83.3333333333333,4,2,5,100,0,0
57131,-83.3333333333333,4,2,3,100,0,0
57631,-83.3333333333333,4,2,5,100,0,0
58131,-83.3333333333333,4,2,6,100,0,0
58631,-83.3333333333333,4,2,4,60,0,0
60131,-83.3333333333333,4,2,7,100,0,0
60631,-83.3333333333333,4,2,4,100,0,0
60880,-83.3333333333333,4,2,5,100,0,0
61130,-83.3333333333333,4,2,3,100,0,0
61631,-83.3333333333333,4,2,5,100,0,0
62131,-83.3333333333333,4,2,6,100,0,0
62631,-83.3333333333333,4,2,4,60,0,0
64131,-83.3333333333333,4,2,3,100,0,0
64631,-83.3333333333333,4,2,4,100,0,0
64881,-83.3333333333333,4,2,5,100,0,0
65131,-83.3333333333333,4,2,3,100,0,0
65631,-83.3333333333333,4,2,5,100,0,0
66131,-83.3333333333333,4,2,6,100,0,0
66380,-83.3333333333333,4,2,3,100,0,0
66631,-83.3333333333333,4,2,5,100,0,0
67131,-83.3333333333333,4,2,8,100,0,0
67631,-83.3333333333333,4,2,5,100,0,0
68131,-83.3333333333333,4,2,7,100,0,0
68631,-83.3333333333333,4,2,4,100,0,0
68881,-83.3333333333333,4,2,5,100,0,0
69131,-83.3333333333333,4,2,3,100,0,0
69631,-83.3333333333333,4,2,5,100,0,0
70131,-83.3333333333333,4,2,4,60,0,0
71631,-83.3333333333333,4,2,5,100,0,0
72131,-83.3333333333333,4,2,3,100,0,0
72380,-83.3333333333333,4,2,4,100,0,0
72880,-83.3333333333333,4,2,5,100,0,0
73131,-83.3333333333333,4,2,3,100,0,0
73631,-83.3333333333333,4,2,5,100,0,0
74131,-83.3333333333333,4,2,6,100,0,0
74380,-83.3333333333333,4,2,3,100,0,0
74631,-83.3333333333333,4,2,5,100,0,0
75130,-83.3333333333333,4,2,8,100,0,0
75630,-83.3333333333333,4,2,5,100,0,0
76131,-83.3333333333333,4,2,7,100,0,0
76380,-83.3333333333333,4,2,4,100,0,0
76880,-83.3333333333333,4,2,5,100,0,0
77131,-83.3333333333333,4,2,3,100,0,0
77631,-83.3333333333333,4,2,5,100,0,0
78131,-83.3333333333333,4,2,6,100,0,0
78380,-83.3333333333333,4,2,3,100,0,0
78631,-83.3333333333333,4,2,5,100,0,0
79131,-83.3333333333333,4,2,8,100,0,0
79631,-83.3333333333333,4,2,5,100,0,0
80131,-83.3333333333333,4,2,3,100,0,0
80380,-83.3333333333333,4,2,4,100,0,0
80880,-83.3333333333333,4,2,5,100,0,0
81131,-83.3333333333333,4,2,3,100,0,0
81631,-83.3333333333333,4,2,5,100,0,0
82131,-83.3333333333333,4,2,6,100,0,0
82380,-83.3333333333333,4,2,3,100,0,0
82631,-83.3333333333333,4,2,5,100,0,0
83131,-83.3333333333333,4,2,8,100,0,0
83631,-83.3333333333333,4,2,5,100,0,0
84131,-83.3333333333333,4,2,7,100,0,0
84380,-83.3333333333333,4,2,4,100,0,0
84880,-83.3333333333333,4,2,5,100,0,0
85131,-83.3333333333333,4,2,3,100,0,0
85631,-83.3333333333333,4,2,5,100,0,0
86131,-83.3333333333333,4,2,6,100,0,0
86380,-83.3333333333333,4,2,3,100,0,0
86631,-83.3333333333333,4,2,5,100,0,0
87131,-83.3333333333333,4,2,8,100,0,0
87631,-83.3333333333333,4,2,5,100,0,0
88131,-83.3333333333333,4,2,1,100,0,0

[Colours]
Combo1 : 255,149,202
Combo2 : 255,128,128

[HitObjects]
0,142,8131,6,0,B|28:120|29:151|74:109,1,71.9999978027344,6|2,1:2|3:2,0:0:0:0:
107,40,8631,2,0,B|140:45|156:46|146:70|177:75,1,71.9999978027344,2|2,3:2|3:2,0:0:0:0:
237,124,9131,1,10,3:2:0:0:
307,10,9631,1,2,1:2:0:0:
433,78,10131,2,0,B|442:111|431:111|410:150,1,71.9999978027344,6|2,2:2|3:2,0:0:0:0:
338,187,10631,2,0,B|359:203|377:173|423:181|467:232,1,143.999995605469,6|2,1:2|2:2,0:0:0:0:
481,374,11631,5,2,2:2:0:0:
352,310,12131,2,0,B|339:306|327:308|315:311|288:336,1,71.9999978027344,6|2,1:2|3:2,0:0:0:0:
204,357,12631,2,0,B|175:356|157:344|134:312,1,71.9999978027344,2|2,3:2|3:2,0:0:0:0:
157,238,13131,1,10,3:2:0:0:
62,129,13631,1,2,1:2:0:0:
165,28,14131,1,2,2:2:0:0:
165,28,15131,2,0,B|136:30|131:31|100:55,1,71.9999978027344,14|2,1:2|2:2,0:0:0:0:
45,121,15631,1,6,1:2:0:0:
11,261,16131,6,0,B|31:287|34:300|69:292,1,71.9999978027344,6|2,1:2|3:2,0:0:0:0:
137,239,16631,2,0,B|158:241|172:274|166:265|199:274,1,71.9999978027344,2|2,3:2|3:2,0:0:0:0:
277,240,17131,1,10,3:2:0:0:
405,304,17631,1,2,1:2:0:0:
471,176,18131,2,0,B|488:143|498:143|489:109,1,71.9999978027344,6|2,2:2|3:2,0:0:0:0:
452,31,18631,2,0,B|422:80|375:51|397:29|310:66,1,143.999995605469,6|2,1:2|2:2,0:0:0:0:
374,195,19631,1,2,2:2:0:0:
452,315,20131,6,0,B|440:320|407:329|394:314|379:333,1,71.9999978027344,6|2,1:2|3:2,0:0:0:0:
310,377,20631,2,0,B|283:377|264:364|250:343,1,71.9999978027344,2|2,3:2|3:2,0:0:0:0:
218,262,21131,1,10,3:2:0:0:
81,229,21631,1,2,1:2:0:0:
140,97,22131,1,2,2:2:0:0:
140,97,23131,2,0,B|171:73|176:72|204:69,1,71.9999978027344,14|2,1:2|2:2,0:0:0:0:
268,11,23631,2,0,B|301:6|313:26|334:33,1,71.9999978027344,6|2,1:2|3:2,0:0:0:0:
366,113,24131,6,0,B|374:187|360:188|310:216|309:228|328:251,1,143.999995605469,6|2,1:2|3:2,0:0:0:0:
364,315,24881,1,2,3:2:0:0:
289,359,25131,2,0,B|298:364|266:359|242:361|230:363|220:374,1,71.9999978027344,10|2,3:2|3:2,0:0:0:0:
159,311,25631,1,2,1:2:0:0:
51,215,26131,1,2,2:2:0:0:
51,215,27631,2,0,B|40:197|77:192|49:158|66:131,1,71.9999978027344,6|2,1:2|3:2,0:0:0:0:
126,88,28131,6,0,B|176:105|161:64|146:57|177:28|235:20,1,143.999995605469,6|2,1:2|3:2,0:0:0:0:
286,88,28881,1,2,3:2:0:0:
354,35,29131,2,0,B|384:31|373:14|412:30|423:54,1,71.9999978027344,10|2,3:2|3:2,0:0:0:0:
470,114,29631,1,2,1:2:0:0:
414,246,30131,1,2,2:2:0:0:
414,246,31631,2,0,B|424:268|430:281|402:289|414:313,1,71.9999978027344,6|2,1:2|3:2,0:0:0:0:
345,365,32131,6,0,B|308:330|307:361|279:339,1,71.9999978027344,6|2,1:2|3:2,0:0:0:0:
244,261,32631,2,0,B|211:266|195:267|205:291|183:293,1,71.9999978027344,2|2,3:2|3:2,0:0:0:0:
143,370,33131,1,10,3:2:0:0:
31,278,33631,1,2,1:2:0:0:
45,134,34131,1,2,2:2:0:0:
45,134,35631,1,6,1:2:0:0:
152,38,36131,6,0,B|179:13|191:10|203:8|216:12,1,71.9999978027344,6|2,1:2|3:2,0:0:0:0:
265,82,36631,2,0,B|278:78|286:116|333:112,1,71.9999978027344,2|2,3:2|3:2,0:0:0:0:
388,51,37131,2,0,B|405:112|359:155|365:136|376:201,1,143.999995605469,10|2,3:2|1:2,0:0:0:0:
440,318,38131,2,0,B|413:343|401:346|389:348|376:344,1,71.9999978027344,6|2,2:2|3:2,0:0:0:0:
310,288,38631,2,0,B|268:291|260:253|247:257,1,71.9999978027344,6|2,1:2|3:2,0:0:0:0:
162,250,39131,1,14,1:2:0:0:
54,154,39631,1,6,1:2:0:0:
117,25,40131,6,0,B|157:26|147:32|190:44,1,71.9999978027344,6|2,1:2|3:2,0:0:0:0:
252,97,40631,2,0,B|287:85|303:70|322:66,1,71.9999978027344,2|2,3:2|3:2,0:0:0:0:
398,36,41131,1,10,3:2:0:0:
463,164,41631,1,2,1:2:0:0:
411,298,42131,2,0,B|389:285|377:259|343:256,1,71.9999978027344,6|2,2:2|3:2,0:0:0:0:
266,247,42631,1,6,1:2:0:0:
190,289,42881,1,2,3:2:0:0:
134,355,43131,2,0,B|83:339|73:328|56:299|42:283|14:262,1,143.999995605469,14|2,1:2|2:2,0:0:0:0:
91,141,44131,6,0,B|119:145|128:143|137:134|158:120,1,71.9999978027344,6|2,1:2|3:2,0:0:0:0:
209,51,44631,1,2,3:2:0:0:
287,87,44881,1,2,3:2:0:0:
372,71,45131,1,10,3:2:0:0:
458,186,45631,1,2,1:2:0:0:
408,321,46131,1,2,2:2:0:0:
408,321,47131,2,0,B|400:283|387:264|393:250,1,71.9999978027344,14|2,1:2|2:2,0:0:0:0:
312,217,47631,2,0,B|305:203|318:184|326:146,1,71.9999978027344,6|2,1:2|3:2,0:0:0:0:
279,73,48131,5,6,1:2:0:0:
138,39,48631,2,0,B|97:41|102:52|78:66|68:62,2,71.9999978027344,2|2|10,3:2|3:2|3:2,0:0:0:0:
220,12,49381,1,2,3:2:0:0:
279,73,49631,1,2,1:2:0:0:
417,32,50131,1,2,2:2:0:0:
417,32,51381,1,6,2:2:0:0:
364,100,51631,2,0,B|329:95|321:88|305:75|295:74,1,71.9999978027344,6|2,1:2|3:2,0:0:0:0:
232,16,52131,6,0,B|207:12|210:29|163:35,1,71.9999978027344,6|2,1:2|3:2,0:0:0:0:
118,108,52631,1,2,3:2:0:0:
34,128,52881,1,2,3:2:0:0:
8,210,53131,2,0,B|22:230|18:260|16:272|23:279,1,71.9999978027344,10|2,3:2|3:2,0:0:0:0:
97,322,53631,1,2,1:2:0:0:
232,370,54131,2,0,B|288:372|288:367|299:357|313:352,1,71.9999978027344,6|2,2:2|3:2,0:0:0:0:
321,273,54631,2,0,B|356:280|342:295|395:305,1,71.9999978027344,6|2,1:2|3:2,0:0:0:0:
464,337,55131,1,14,1:2:0:0:
510,264,55381,1,2,2:2:0:0:
465,189,55631,2,0,B|447:160|444:148|436:133|435:118|427:42,1,143.999995605469,6|6,1:2|1:2,0:0:0:0:
285,29,56631,6,0,B|239:29|237:31|214:55,1,71.9999978027344,2|2,3:2|3:2,0:0:0:0:
178,109,57131,2,0,B|143:111|138:98|138:89|115:76,1,71.9999978027344,10|2,3:2|3:2,0:0:0:0:
43,31,57631,1,2,1:2:0:0:
55,174,58131,2,0,B|46:224|0:239|-4:262|16:311,1,143.999995605469,6|2,2:2|2:2,0:0:0:0:
12,303,60131,5,6,1:2:0:0:
156,291,60631,2,0,B|210:299|198:299|225:320,2,71.9999978027344,2|2|10,3:2|3:2|3:2,0:0:0:0:
112,216,61381,1,2,3:2:0:0:
160,144,61631,1,2,1:2:0:0:
303,144,62131,2,0,B|372:118|343:82|361:93|426:85,1,143.999995605469,6|2,2:2|2:2,0:0:0:0:
426,85,64131,5,6,1:2:0:0:
482,217,64631,1,2,3:2:0:0:
442,293,64881,1,2,3:2:0:0:
356,283,65131,2,0,B|362:339|347:326|337:330|342:358,1,71.9999978027344,10|2,3:2|3:2,0:0:0:0:
257,374,65631,1,2,1:2:0:0:
165,262,66131,2,0,B|159:257|133:238|129:249|96:249,1,71.9999978027344,6|2,2:2|3:2,0:0:0:0:
35,188,66631,2,0,B|64:173|48:154|87:151|88:132,1,71.9999978027344,6|2,1:2|3:2,0:0:0:0:
114,56,67131,1,14,1:2:0:0:
245,115,67631,1,6,1:2:0:0:
385,83,68131,5,6,1:2:0:0:
455,208,68631,1,2,3:2:0:0:
409,281,68881,1,2,3:2:0:0:
345,339,69131,2,0,B|324:310|311:306|282:310|283:308,1,71.9999978027344,10|2,3:2|3:2,0:0:0:0:
208,265,69631,1,2,1:2:0:0:
71,311,70131,1,2,2:2:0:0:
71,311,71631,1,6,1:2:0:0:
10,180,72131,6,0,B|54:171|39:189|91:169,1,71.9999978027344,6|2,1:2|3:2,0:0:0:0:
123,97,72631,2,0,B|144:94|134:70|150:69|183:64,1,71.9999978027344,2|2,3:2|3:2,0:0:0:0:
250,10,73131,1,10,3:2:0:0:
379,72,73631,1,2,1:2:0:0:
438,203,74131,2,0,B|447:236|436:236|418:269,1,71.9999978027344,6|2,2:2|3:2,0:0:0:0:
354,326,74631,1,6,1:2:0:0:
215,285,75131,1,14,1:2:0:0:
79,333,75631,1,6,1:2:0:0:
7,208,76131,6,0,B|20:212|32:210|44:207|71:182,1,71.9999978027344,6|2,1:2|3:2,0:0:0:0:
98,100,76631,2,0,B|112:80|130:68|159:67,1,71.9999978027344,2|2,3:2|3:2,0:0:0:0:
233,110,77131,1,10,3:2:0:0:
367,57,77631,1,2,1:2:0:0:
459,167,78131,2,0,B|484:194|487:206|489:218|485:231,1,71.9999978027344,6|2,2:2|3:2,0:0:0:0:
468,315,78631,2,0,B|454:335|436:347|407:348,1,71.9999978027344,6|2,1:2|3:2,0:0:0:0:
341,291,79131,1,14,1:2:0:0:
206,343,79631,1,6,1:2:0:0:
145,212,80131,6,0,B|125:186|122:173|87:181,1,71.9999978027344,6|2,1:2|3:2,0:0:0:0:
27,119,80631,2,0,B|35:87|26:93|59:79|61:58,1,71.9999978027344,2|2,3:2|3:2,0:0:0:0:
140,22,81131,1,10,3:2:0:0:
276,68,81631,1,2,1:2:0:0:
409,13,82131,2,0,B|418:47|408:47|391:80,1,71.9999978027344,6|2,2:2|3:2,0:0:0:0:
378,165,82631,2,0,B|390:184|397:206|407:232|404:231,1,71.9999978027344,6|2,1:2|3:2,0:0:0:0:
449,305,83131,1,14,1:2:0:0:
314,356,83631,1,6,1:2:0:0:
250,226,84131,6,0,B|238:221|205:212|192:227|180:212,1,71.9999978027344,6|2,1:2|3:2,0:0:0:0:
135,286,84631,2,0,B|125:273|92:268|81:290|67:274,1,71.9999978027344,2|2,3:2|3:2,0:0:0:0:
27,198,85131,1,10,3:2:0:0:
106,78,85631,1,2,1:2:0:0:
248,95,86131,2,0,B|260:80|273:95|306:86|317:81,1,71.9999978027344,6|2,2:2|3:2,0:0:0:0:
360,156,86631,2,0,B|361:174|379:169|412:174|420:186,1,71.9999978027344,6|2,1:2|3:2,0:0:0:0:
481,248,87131,1,14,1:2:0:0:
374,344,87631,1,6,1:2:0:0:
235,305,88131,1,6,1:2:0:0:
