osu file format v14

[General]
AudioFilename: audio.mp3
AudioLeadIn: 0
PreviewTime: 40131
Countdown: 0
SampleSet: None
StackLeniency: 0.7
Mode: 0
LetterboxInBreaks: 0
WidescreenStoryboard: 1

[Editor]
Bookmarks: 8131,24131,40131,56131,72131,88131
DistanceSpacing: 0.7
BeatDivisor: 4
GridSize: 8
TimelineZoom: 2.7

[Metadata]
Title:Boss
TitleUnicode:Boss
Artist:Lil Pump
ArtistUnicode:Lil Pump
Creator:1103
Version:myah's supervisor hard
Source:
Tags:jetski english hip hop myah visionary vastly godsenger
BeatmapID:4026590
BeatmapSetID:1765492

[Difficulty]
HPDrainRate:3
CircleSize:2.9
OverallDifficulty:6
ApproachRate:7.5
SliderMultiplier:2.7
SliderTickRate:1

[Events]
//Background and Video events
0,0,"Lil Pump - Boss [Official Music Video] 1-9 screenshot.jpg",0,0
Video,-200,"heavily censored butts.avi"
//Break Periods
//Storyboard Layer 0 (Background)
//Storyboard Layer 1 (Fail)
//Storyboard Layer 2 (Pass)
//Storyboard Layer 3 (Foreground)
//Storyboard Layer 4 (Overlay)
//Storyboard Sound Samples

[TimingPoints]
131,500,4,2,1,60,1,0
631,-100,4,2,1,100,0,0
5631,-100,4,2,2,100,0,0
7381,-100,4,2,1,100,0,0
8131,-100,4,2,3,100,0,0
8256,-100,4,2,99,5,0,0
8381,-100,4,2,4,100,0,0
8506,-100,4,2,99,5,0,0
8631,-100,4,2,4,100,0,0
8881,-100,4,2,5,100,0,0
9006,-100,4,2,4,100,0,0
9131,-100,4,2,3,100,0,0
9381,-100,4,2,1,100,0,0
9631,-100,4,2,5,100,0,0
9881,-100,4,2,2,100,0,0
10131,-100,4,2,6,100,0,0
10256,-100,4,2,99,5,0,0
10381,-100,4,2,3,100,0,0
10506,-100,4,2,99,5,0,0
10631,-100,4,2,5,100,0,0
11006,-100,4,2,4,100,0,0
11131,-100,4,2,4,60,0,0
12131,-100,4,2,7,100,0,0
12256,-100,4,2,99,5,0,0
12381,-100,4,2,4,100,0,0
12506,-100,4,2,99,5,0,0
12631,-100,4,2,4,100,0,0
12881,-100,4,2,5,100,0,0
13131,-100,4,2,3,100,0,0
13631,-100,4,2,5,100,0,0
14131,-100,4,2,4,60,0,0
15131,-100,4,2,8,100,0,0
15506,-100,4,2,99,5,0,0
15631,-100,4,2,5,100,0,0
16006,-100,4,2,99,5,0,0
16131,-100,4,2,3,100,0,0
16381,-100,4,2,4,100,0,0
16506,-100,4,2,99,5,0,0
16631,-100,4,2,4,100,0,0
16881,-100,4,2,5,100,0,0
17006,-100,4,2,4,100,0,0
17131,-100,4,2,3,100,0,0
17381,-100,4,2,1,100,0,0
17631,-100,4,2,5,100,0,0
17881,-100,4,2,2,100,0,0
18131,-100,4,2,6,100,0,0
18256,-100,4,2,99,5,0,0
18381,-100,4,2,3,100,0,0
18631,-100,4,2,5,100,0,0
19006,-100,4,2,4,100,0,0
19131,-100,4,2,4,60,0,0
19756,-100,4,2,99,5,0,0
20131,-100,4,2,7,100,0,0
20256,-100,4,2,99,5,0,0
20381,-100,4,2,4,100,0,0
20506,-100,4,2,99,5,0,0
20631,-100,4,2,4,100,0,0
20881,-100,4,2,5,100,0,0
21131,-100,4,2,3,100,0,0
21381,-100,4,2,1,100,0,0
21631,-100,4,2,5,100,0,0
21881,-100,4,2,2,100,0,0
22131,-100,4,2,4,60,0,0
23131,-100,4,2,8,100,0,0
23506,-100,4,2,99,5,0,0
23631,-100,4,2,5,100,0,0
24006,-100,4,2,99,5,0,0
24131,-100,4,2,3,100,0,0
24631,-100,4,2,4,100,0,0
24881,-100,4,2,5,100,0,0
25006,-100,4,2,4,100,0,0
25131,-100,4,2,3,100,0,0
25381,-100,4,2,1,100,0,0
25631,-100,4,2,5,100,0,0
26006,-100,4,2,99,5,0,0
26131,-100,4,2,4,60,0,0
27631,-100,4,2,5,100,0,0
27756,-100,4,2,1,100,0,0
27881,-100,4,2,2,100,0,0
28131,-100,4,2,7,100,0,0
28256,-100,4,2,1,100,0,0
28506,-100,4,2,99,5,0,0
28631,-100,4,2,4,100,0,0
28881,-100,4,2,5,100,0,0
29006,-100,4,2,4,100,0,0
29131,-100,4,2,3,100,0,0
29381,-100,4,2,1,100,0,0
29631,-100,4,2,5,100,0,0
29881,-100,4,2,2,100,0,0
30131,-100,4,2,4,60,0,0
31631,-100,4,2,5,100,0,0
32006,-100,4,2,99,5,0,0
32131,-100,4,2,3,100,0,0
32256,-100,4,2,99,5,0,0
32381,-100,4,2,4,100,0,0
32506,-100,4,2,99,5,0,0
32631,-100,4,2,4,100,0,0
32881,-100,4,2,5,100,0,0
33006,-100,4,2,4,100,0,0
33131,-100,4,2,3,100,0,0
33381,-100,4,2,1,100,0,0
33631,-100,4,2,5,100,0,0
34006,-100,4,2,99,5,0,0
34131,-100,4,2,4,60,0,0
35631,-100,4,2,5,100,0,0
36006,-100,4,2,99,5,0,0
36131,-100,4,2,7,100,0,0
36256,-100,4,2,99,5,0,0
36381,-100,4,2,4,100,0,0
36506,-100,4,2,99,5,0,0
36631,-100,4,2,4,100,0,0
36881,-100,4,2,5,100,0,0
37006,-100,4,2,1,100,0,0
37131,-100,4,2,3,100,0,0
37381,-100,4,2,1,100,0,0
37631,-100,4,2,5,100,0,0
37881,-100,4,2,2,100,0,0
38131,-100,4,2,6,100,0,0
38381,-100,4,2,3,100,0,0
38631,-100,4,2,5,100,0,0
39006,-100,4,2,1,100,0,0
39131,-100,4,2,8,100,0,0
39381,-100,4,2,1,100,0,0
39631,-100,4,2,5,100,0,0
39881,-100,4,2,2,100,0,0
40131,-90.9090909090909,4,2,3,100,0,0
40506,-90.9090909090909,4,2,99,5,0,0
40631,-90.9090909090909,4,2,4,100,0,0
40756,-90.9090909090909,4,2,99,5,0,0
40881,-90.9090909090909,4,2,5,100,0,0
41006,-90.9090909090909,4,2,99,5,0,0
41131,-90.9090909090909,4,2,3,100,0,0
41381,-90.9090909090909,4,2,1,100,0,0
41631,-90.9090909090909,4,2,5,100,0,0
41881,-90.9090909090909,4,2,2,100,0,0
42131,-90.9090909090909,4,2,6,100,0,0
42256,-90.9090909090909,4,2,4,100,0,0
42381,-90.9090909090909,4,2,3,100,0,0
42506,-90.9090909090909,4,2,4,100,0,0
42631,-90.9090909090909,4,2,5,100,0,0
43131,-90.9090909090909,4,2,8,100,0,0
43631,-90.9090909090909,4,2,4,60,0,0
44131,-90.9090909090909,4,2,7,100,0,0
44381,-90.9090909090909,4,2,4,100,0,0
44881,-90.9090909090909,4,2,5,100,0,0
45006,-90.9090909090909,4,2,4,100,0,0
45131,-90.9090909090909,4,2,3,100,0,0
45381,-90.9090909090909,4,2,1,100,0,0
45631,-90.9090909090909,4,2,5,100,0,0
45881,-90.9090909090909,4,2,2,100,0,0
46131,-125,4,2,4,60,0,0
47131,-90.9090909090909,4,2,8,100,0,0
47506,-90.9090909090909,4,2,99,5,0,0
47631,-90.9090909090909,4,2,5,100,0,0
48006,-90.9090909090909,4,2,99,5,0,0
48131,-90.9090909090909,4,2,3,100,0,0
48631,-90.9090909090909,4,2,4,100,0,0
48881,-90.9090909090909,4,2,5,100,0,0
49131,-90.9090909090909,4,2,3,100,0,0
49631,-90.9090909090909,4,2,5,100,0,0
49881,-90.9090909090909,4,2,2,100,0,0
50131,-90.9090909090909,4,2,4,60,0,0
51381,-90.9090909090909,4,2,9,100,0,0
51631,-90.9090909090909,4,2,5,100,0,0
51881,-90.9090909090909,4,2,2,100,0,0
52131,-90.9090909090909,4,2,7,100,0,0
52381,-90.9090909090909,4,2,4,100,0,0
52881,-90.9090909090909,4,2,5,100,0,0
53006,-90.9090909090909,4,2,4,100,0,0
53131,-90.9090909090909,4,2,3,100,0,0
53256,-90.9090909090909,4,2,4,100,0,0
53381,-90.9090909090909,4,2,3,100,0,0
53506,-90.9090909090909,4,2,4,100,0,0
53631,-90.9090909090909,4,2,5,100,0,0
54131,-90.9090909090909,4,2,6,100,0,0
54256,-90.9090909090909,4,2,4,100,0,0
54381,-90.9090909090909,4,2,3,100,0,0
54506,-90.9090909090909,4,2,4,100,0,0
54631,-90.9090909090909,4,2,5,100,0,0
55006,-90.9090909090909,4,2,4,100,0,0
55131,-90.9090909090909,4,2,8,100,0,0
55381,-90.9090909090909,4,2,3,100,0,0
55506,-90.9090909090909,4,2,4,100,0,0
55631,-90.9090909090909,4,2,5,100,0,0
55881,-90.9090909090909,4,2,2,100,0,0
56131,-90.9090909090909,4,2,3,100,0,0
56506,-90.9090909090909,4,2,99,5,0,0
56631,-90.9090909090909,4,2,4,100,0,0
56756,-90.9090909090909,4,2,99,5,0,0
56881,-90.9090909090909,4,2,5,100,0,0
57006,-90.9090909090909,4,2,99,5,0,0
57131,-90.9090909090909,4,2,3,100,0,0
57506,-90.9090909090909,4,2,4,100,0,0
57631,-90.9090909090909,4,2,5,100,0,0
57881,-90.9090909090909,4,2,2,100,0,0
58131,-90.9090909090909,4,2,6,100,0,0
58381,-90.9090909090909,4,2,1,100,0,0
58631,-125,4,2,4,60,0,0
60131,-90.9090909090909,4,2,7,100,0,0
60381,-90.9090909090909,4,2,4,100,0,0
60881,-90.9090909090909,4,2,5,100,0,0
61131,-90.9090909090909,4,2,3,100,0,0
61506,-90.9090909090909,4,2,99,5,0,0
61631,-90.9090909090909,4,2,5,100,0,0
61881,-90.9090909090909,4,2,2,100,0,0
62131,-90.9090909090909,4,2,6,100,0,0
62381,-90.9090909090909,4,2,1,100,0,0
62631,-125,4,2,4,60,0,0
64131,-90.9090909090909,4,2,3,100,0,0
64631,-90.9090909090909,4,2,4,100,0,0
64881,-90.9090909090909,4,2,5,100,0,0
65006,-90.9090909090909,4,2,4,100,0,0
65131,-90.9090909090909,4,2,3,100,0,0
65506,-90.9090909090909,4,2,4,100,0,0
65631,-90.9090909090909,4,2,5,100,0,0
65756,-90.9090909090909,4,2,4,100,0,0
65881,-90.9090909090909,4,2,2,100,0,0
66131,-90.9090909090909,4,2,6,100,0,0
66256,-90.9090909090909,4,2,4,100,0,0
66381,-90.9090909090909,4,2,3,100,0,0
66506,-90.9090909090909,4,2,4,100,0,0
66631,-90.9090909090909,4,2,5,100,0,0
67006,-90.9090909090909,4,2,4,100,0,0
67131,-90.9090909090909,4,2,8,100,0,0
67256,-90.9090909090909,4,2,1,100,0,0
67631,-90.9090909090909,4,2,5,100,0,0
67881,-90.9090909090909,4,2,2,100,0,0
68131,-90.9090909090909,4,2,7,100,0,0
68381,-90.9090909090909,4,2,4,100,0,0
68881,-90.9090909090909,4,2,5,100,0,0
69006,-90.9090909090909,4,2,4,100,0,0
69131,-90.9090909090909,4,2,3,100,0,0
69506,-90.9090909090909,4,2,4,100,0,0
69631,-90.9090909090909,4,2,5,100,0,0
69881,-90.9090909090909,4,2,2,100,0,0
70131,-125,4,2,4,60,0,0
71381,-125,4,2,99,5,0,0
71631,-90.9090909090909,4,2,5,100,0,0
71881,-90.9090909090909,4,2,2,100,0,0
72131,-100,4,2,3,100,0,0
72256,-100,4,2,99,5,0,0
72381,-100,4,2,4,100,0,0
72506,-100,4,2,99,5,0,0
72631,-100,4,2,4,100,0,0
72881,-100,4,2,5,100,0,0
73006,-100,4,2,4,100,0,0
73131,-100,4,2,3,100,0,0
73381,-100,4,2,1,100,0,0
73631,-100,4,2,5,100,0,0
73881,-100,4,2,2,100,0,0
74131,-100,4,2,6,100,0,0
74256,-100,4,2,99,5,0,0
74381,-100,4,2,3,100,0,0
74631,-100,4,2,5,100,0,0
75006,-100,4,2,99,5,0,0
75131,-100,4,2,8,100,0,0
75506,-100,4,2,99,5,0,0
75631,-100,4,2,5,100,0,0
76006,-100,4,2,99,5,0,0
76131,-100,4,2,7,100,0,0
76381,-100,4,2,4,100,0,0
76881,-100,4,2,5,100,0,0
77131,-100,4,2,3,100,0,0
77381,-100,4,2,1,100,0,0
77631,-100,4,2,5,100,0,0
77881,-100,4,2,2,100,0,0
78131,-100,4,2,6,100,0,0
78381,-100,4,2,3,100,0,0
78631,-100,4,2,5,100,0,0
79006,-100,4,2,99,5,0,0
79131,-100,4,2,8,100,0,0
79506,-100,4,2,99,5,0,0
79631,-100,4,2,5,100,0,0
80006,-100,4,2,99,5,0,0
80131,-100,4,2,3,100,0,0
80381,-100,4,2,4,100,0,0
80881,-100,4,2,5,100,0,0
81006,-100,4,2,4,100,0,0
81131,-100,4,2,3,100,0,0
81381,-100,4,2,1,100,0,0
81631,-100,4,2,5,100,0,0
81881,-100,4,2,2,100,0,0
82131,-100,4,2,6,100,0,0
82381,-100,4,2,3,100,0,0
82631,-100,4,2,5,100,0,0
83006,-100,4,2,99,5,0,0
83131,-100,4,2,8,100,0,0
83506,-100,4,2,99,5,0,0
83631,-100,4,2,5,100,0,0
84006,-100,4,2,99,5,0,0
84131,-100,4,2,7,100,0,0
84381,-100,4,2,4,100,0,0
84881,-100,4,2,5,100,0,0
85131,-100,4,2,3,100,0,0
85631,-100,4,2,5,100,0,0
85881,-100,4,2,2,100,0,0
86131,-100,4,2,6,100,0,0
86381,-100,4,2,3,100,0,0
86631,-100,4,2,5,100,0,0
87006,-100,4,2,99,5,0,0
87131,-100,4,2,8,100,0,0
87506,-100,4,2,99,5,0,0
87631,-100,4,2,5,100,0,0
88006,-100,4,2,99,5,0,0
88131,-100,4,2,1,100,0,0

[Colours]
Combo1 : 255,149,202
Combo2 : 255,128,128

[HitObjects]
256,192,5631,12,2,7631,2:2:0:0:
126,119,8131,6,0,L|149:43,1,67.5,6|0,1:2|0:0,0:0:0:0:
62,26,8381,2,0,L|39:106,1,67.5,2|0,3:2|0:0,0:0:0:0:
18,175,8631,2,0,P|74:209|65:276,1,135,2|2,3:2|3:2,0:0:0:0:
68,271,9006,1,2,2:2:0:0:
68,271,9131,1,10,3:2:0:0:
161,369,9381,1,2,3:2:0:0:
286,245,9631,2,0,P|211:225|209:170,1,135,2|2,1:2|3:2,0:0:0:0:
226,3,10131,6,0,L|316:30,1,67.5,6|0,2:2|0:0,0:0:0:0:
376,44,10381,2,0,L|454:31,1,67.5,2|0,3:2|0:0,0:0:0:0:
508,90,10631,2,0,P|475:154|461:233,1,135,6|2,1:2|3:2,0:0:0:0:
461,215,11006,1,2,2:2:0:0:
461,215,11131,1,2,2:2:0:0:
200,284,11631,1,2,2:2:0:0:
291,30,12131,6,0,P|287:68|311:109,1,67.5,6|0,1:2|0:0,0:0:0:0:
360,157,12381,2,0,P|364:195|340:236,1,67.5,2|0,3:2|0:0,0:0:0:0:
296,288,12631,2,0,P|225:271|147:265,2,135,2|2|10,3:2|3:2|3:2,0:0:0:0:
26,269,13631,1,2,1:2:0:0:
180,52,14131,5,2,2:2:0:0:
72,63,14381,1,2,2:2:0:0:
86,172,14631,1,2,2:2:0:0:
193,158,14881,1,2,2:2:0:0:
343,53,15131,6,0,P|302:156|289:253,1,202.5,14|0,1:2|0:0,0:0:0:0:
278,334,15631,2,0,B|408:343|339:267|488:281,1,202.5,6|0,1:2|0:0,0:0:0:0:
465,279,16131,5,6,1:2:0:0:
491,106,16381,2,0,P|460:134|438:179,1,67.5,2|0,3:2|0:0,0:0:0:0:
491,79,16631,1,2,3:2:0:0:
324,70,16881,1,2,3:2:0:0:
324,70,17006,1,2,2:2:0:0:
324,70,17131,2,0,B|370:129|309:133|357:213,1,135,10|2,3:2|3:2,0:0:0:0:
172,195,17631,2,0,P|233:235|254:301,1,135,2|2,1:2|3:2,0:0:0:0:
85,342,18131,6,0,P|113:323|149:305,1,67.5,6|0,2:2|0:0,0:0:0:0:
69,356,18381,1,2,3:2:0:0:
2,193,18631,2,0,P|56:142|115:117,1,135,6|2,1:2|3:2,0:0:0:0:
111,118,19006,1,2,2:2:0:0:
111,118,19131,1,2,2:2:0:0:
254,346,19631,2,0,L|283:274,1,67.5,2|0,2:2|0:0,0:0:0:0:
347,92,20131,6,0,P|381:81|405:54,1,67.5,6|0,1:2|0:0,0:0:0:0:
330,7,20381,2,0,L|254:-2,1,67.5,2|0,3:2|0:0,0:0:0:0:
194,55,20631,2,0,L|215:133,2,67.5,2|0|2,3:2|0:0|3:2,0:0:0:0:
145,223,21131,2,0,P|106:176|25:209,1,135,10|2,3:2|3:2,0:0:0:0:
150,325,21631,2,0,B|244:323|193:274|300:274,1,135,2|2,1:2|3:2,0:0:0:0:
396,326,22131,5,2,2:2:0:0:
461,258,22381,1,2,2:2:0:0:
394,191,22631,1,2,2:2:0:0:
451,116,22881,1,2,2:2:0:0:
302,22,23131,2,0,B|253:54|253:54|281:216,1,202.5,14|0,1:2|0:0,0:0:0:0:
296,281,23631,2,0,B|249:288|219:260|219:260|327:344,1,202.5,6|0,1:2|0:0,0:0:0:0:
404,354,24131,5,6,1:2:0:0:
404,354,24256,1,0,0:0:0:0:
416,91,24631,2,0,P|481:114|469:192,1,135,2|2,3:2|3:2,0:0:0:0:
409,218,25006,1,2,2:2:0:0:
409,218,25131,2,0,L|252:187,1,135,10|2,3:2|3:2,0:0:0:0:
103,159,25631,2,0,B|135:240|135:240|161:250|161:250|199:342,1,202.5,2|0,1:2|0:0,0:0:0:0:
272,383,26131,5,2,2:2:0:0:
272,383,26256,1,0,0:0:0:0:
349,264,26631,1,2,2:2:0:0:
370,365,26881,1,2,2:2:0:0:
370,365,27006,1,2,2:2:0:0:
370,365,27131,1,2,2:2:0:0:
254,106,27631,2,0,L|321:89,2,67.5,6|0|2,1:2|0:0|3:2,0:0:0:0:
107,8,28131,5,6,1:2:0:0:
107,8,28256,2,0,B|135:71|135:71|66:118,1,135
2,148,28631,2,0,P|27:219|2:281,1,135,2|2,3:2|3:2,0:0:0:0:
65,346,29006,1,2,2:2:0:0:
65,346,29131,2,0,B|129:362|129:362|191:312,1,135,10|2,3:2|3:2,0:0:0:0:
235,151,29631,2,0,B|189:207|158:140|100:191,1,135,2|2,1:2|3:2,0:0:0:0:
198,31,30131,5,2,2:2:0:0:
198,31,30256,1,0,0:0:0:0:
330,124,30631,1,2,2:2:0:0:
307,28,30881,1,2,2:2:0:0:
307,28,31006,1,2,2:2:0:0:
307,28,31131,1,2,2:2:0:0:
505,211,31631,2,0,B|459:169|409:209|409:209|360:251|316:213,1,202.5,6|0,1:2|0:0,0:0:0:0:
249,168,32131,6,0,L|259:72,1,67.5,6|0,1:2|0:0,0:0:0:0:
168,93,32381,2,0,L|161:160,1,67.5,2|0,3:2|0:0,0:0:0:0:
86,206,32631,2,0,P|130:274|132:352,1,135,2|2,3:2|3:2,0:0:0:0:
210,372,33006,1,2,2:2:0:0:
210,372,33131,2,0,L|365:353,1,135,10|2,3:2|3:2,0:0:0:0:
507,291,33631,2,0,B|496:259|463:242|463:242|498:177|470:112,1,202.5,2|0,1:2|0:0,0:0:0:0:
470,112,34131,5,2,2:2:0:0:
396,30,34381,1,2,2:2:0:0:
297,73,34631,1,2,2:2:0:0:
315,184,34881,1,2,2:2:0:0:
315,184,35006,1,2,2:2:0:0:
315,184,35131,1,2,2:2:0:0:
155,37,35631,2,0,P|192:123|222:244,1,202.5,6|0,1:2|0:0,0:0:0:0:
247,311,36131,6,0,L|229:394,1,67.5,6|0,1:2|0:0,0:0:0:0:
146,355,36381,2,0,L|165:276,1,67.5,2|0,3:2|0:0,0:0:0:0:
107,220,36631,2,0,P|143:163|210:191,1,135,2|2,3:2|3:2,0:0:0:0:
200,176,37006,1,0,0:0:0:0:
200,176,37131,1,10,3:2:0:0:
308,258,37381,1,2,3:2:0:0:
479,219,37631,2,0,P|424:259|368:337,1,135,2|2,1:2|3:2,0:0:0:0:
374,134,38131,6,0,B|458:82|458:82|509:103,2,135,6|2|6,2:2|3:2|1:2,0:0:0:0:
240,38,38881,1,2,3:2:0:0:
240,38,39006,1,0,0:0:0:0:
240,38,39131,2,0,P|260:96|263:182,1,135,14|2,1:2|2:2,0:0:0:0:
92,203,39631,2,0,P|158:217|217:280,1,135,6|2,1:2|3:2,0:0:0:0:
344,376,40131,5,6,1:2:0:0:
344,376,40256,2,0,B|326:339|326:339|383:217,1,148.50000453186
411,161,40631,2,0,P|380:134|330:138,1,74.2500022659302,2|0,3:2|0:0,0:0:0:0:
285,67,40881,2,0,P|248:71|222:96,1,74.2500022659302,2|0,3:2|0:0,0:0:0:0:
173,171,41131,2,0,L|200:332,1,148.50000453186,10|2,3:2|3:2,0:0:0:0:
18,307,41631,2,0,B|37:279|69:271|69:271|54:165,1,148.50000453186,2|2,1:2|3:2,0:0:0:0:
24,11,42131,5,6,2:2:0:0:
24,11,42256,1,2,2:2:0:0:
24,11,42381,2,0,L|108:25,1,74.2500022659302,2|2,3:2|2:2,0:0:0:0:
167,78,42631,2,0,P|117:140|116:207,1,148.50000453186,6|2,1:2|3:2,0:0:0:0:
188,368,43131,2,0,L|497:317,1,297.000009063721,14|2,1:2|2:2,0:0:0:0:
326,65,44131,6,0,B|359:80|359:80|380:202,2,148.50000453186,6|2|2,1:2|3:2|3:2,0:0:0:0:
236,222,44881,1,2,3:2:0:0:
236,222,45006,1,2,2:2:0:0:
236,222,45131,2,0,P|196:269|119:231,1,148.50000453186,10|2,3:2|3:2,0:0:0:0:
5,107,45631,2,0,B|93:148|69:88|164:133,1,148.50000453186,2|2,1:2|3:2,0:0:0:0:
292,51,46131,6,0,L|278:-9,2,54,2|2|2,2:2|2:2|2:2,0:0:0:0:
383,111,46631,2,0,L|370:163,2,54,2|0|2,2:2|0:0|2:2,0:0:0:0:
500,244,47131,2,0,P|387:248|290:309,1,222.750006797791,14|0,1:2|0:0,0:0:0:0:
230,364,47631,2,0,B|62:316|62:316|37:270,1,222.750006797791,6|0,1:2|0:0,0:0:0:0:
2,192,48131,6,0,L|29:29,1,148.50000453186,6|0,1:2|3:3,0:0:0:0:
154,169,48631,1,2,3:2:0:0:
262,27,48881,1,2,3:2:0:0:
389,151,49131,2,0,L|231:122,1,148.50000453186,10|2,3:2|3:2,0:0:0:0:
369,250,49631,2,0,B|406:274|406:274|530:249,1,148.50000453186,2|2,1:2|3:2,0:0:0:0:
492,150,50131,5,2,2:2:0:0:
390,125,50381,1,2,2:2:0:0:
308,60,50631,1,2,2:2:0:0:
205,40,50881,1,2,2:2:0:0:
184,141,51131,1,2,2:2:0:0:
285,161,51381,1,6,2:2:0:0:
111,200,51631,2,0,B|130:226|162:234|162:234|134:332,1,148.50000453186,6|2,1:2|3:2,0:0:0:0:
11,190,52131,6,0,B|18:141|65:112|65:112|52:44,1,148.50000453186,6|2,1:2|3:2,0:0:0:0:
226,130,52631,1,2,3:2:0:0:
226,130,52881,2,0,P|228:88|258:59,1,74.2500022659302,2|2,3:2|2:2,0:0:0:0:
337,35,53131,1,10,3:2:0:0:
337,35,53256,1,2,2:2:0:0:
337,35,53381,2,0,L|422:53,2,74.2500022659302,2|2|2,3:2|2:2|1:2,0:0:0:0:
501,352,54131,5,6,2:2:0:0:
501,352,54256,1,2,2:2:0:0:
501,352,54381,2,0,L|423:367,2,74.2500022659302,2|2|6,3:2|2:2|1:2,0:0:0:0:
378,221,54881,2,0,P|386:259|423:277,1,74.2500022659302,2|2,3:2|2:2,0:0:0:0:
502,262,55131,2,0,L|479:112,1,148.50000453186,14|2,1:2|2:2,0:0:0:0:
465,27,55506,1,2,2:2:0:0:
465,27,55631,2,0,B|362:29|421:81|303:79,1,148.50000453186,6|2,1:2|3:2,0:0:0:0:
162,17,56131,6,0,B|204:33|204:33|223:169|223:169|266:182,1,222.750006797791,6|0,1:2|0:0,0:0:0:0:
324,244,56631,2,0,P|287:263|230:260,1,74.2500022659302,2|0,3:2|0:0,0:0:0:0:
165,253,56881,2,0,P|122:274|101:319,1,74.2500022659302,2|0,3:2|0:0,0:0:0:0:
79,379,57131,1,10,3:2:0:0:
0,218,57381,1,2,3:2:0:0:
0,218,57506,1,2,2:2:0:0:
0,218,57631,2,0,B|66:188|66:188|53:83,1,148.50000453186,2|2,1:2|3:2,0:0:0:0:
201,8,58131,6,0,B|291:9|243:57|365:53,1,148.50000453186,6|2,2:2|3:2,0:0:0:0:
468,39,58631,2,0,L|449:167,2,108,2|2|2,2:2|2:2|2:2,0:0:0:0:
347,61,59381,1,2,2:2:0:0:
347,61,59506,1,2,2:2:0:0:
347,61,59631,1,2,2:2:0:0:
140,351,60131,6,0,B|246:298|246:298|288:307,1,148.50000453186,6|0,1:2|3:3,0:0:0:0:
446,355,60631,1,2,3:2:0:0:
446,355,60756,1,0,0:0:0:0:
446,355,60881,2,0,B|467:311|467:311|437:189,1,148.50000453186,2|10,3:2|3:2,0:0:0:0:
301,105,61381,2,0,L|396:124,1,74.2500022659302,2|0,3:2|0:0,0:0:0:0:
404,35,61631,2,0,B|339:-7|339:-7|234:14,1,148.50000453186,2|2,1:2|3:2,0:0:0:0:
94,46,62131,6,0,B|91:147|145:77|147:210,1,148.50000453186,6|2,2:2|3:2,0:0:0:0:
160,308,62631,1,2,2:2:0:0:
286,278,62881,1,2,2:2:0:0:
272,149,63131,1,2,2:2:0:0:
145,179,63381,1,2,2:2:0:0:
267,136,63631,1,2,2:2:0:0:
4,377,64131,6,0,P|65:330|56:263,1,148.50000453186,6|0,1:2|3:3,0:0:0:0:
6,94,64631,2,0,P|56:40|126:72,1,148.50000453186,2|2,3:2|3:2,0:0:0:0:
177,137,65006,1,2,2:2:0:0:
177,137,65131,2,0,B|252:156|252:156|324:96,1,148.50000453186,10|2,3:2|3:2,0:0:0:0:
357,37,65506,1,2,2:2:0:0:
357,37,65631,2,0,L|425:91,2,74.2500022659302,2|2|2,1:2|2:2|3:2,0:0:0:0:
496,149,66131,5,6,2:2:0:0:
496,149,66256,1,2,2:2:0:0:
496,149,66381,2,0,P|452:173|439:206,1,74.2500022659302,2|2,3:2|2:2,0:0:0:0:
411,276,66631,2,0,L|229:240,1,148.50000453186,6|2,1:2|3:2,0:0:0:0:
179,223,67006,1,2,2:2:0:0:
179,223,67131,2,0,P|130:241|115:272,2,74.2500022659302,14|0|2,1:2|0:0|2:2,0:0:0:0:
5,183,67631,2,0,L|33:368,1,148.50000453186,6|2,1:2|3:2,0:0:0:0:
93,163,68131,6,0,B|124:137|124:137|139:24,1,148.50000453186,6|0,1:2|3:3,0:0:0:0:
264,172,68631,1,2,3:2:0:0:
264,172,68756,1,2,2:2:0:0:
264,172,68881,2,0,L|243:91,2,74.2500022659302,2|2|10,3:2|2:2|3:2,0:0:0:0:
405,281,69381,2,0,L|426:194,1,74.2500022659302,2|2,3:2|2:2,0:0:0:0:
502,167,69631,2,0,B|483:135|452:124|452:124|474:18,1,148.50000453186,2|2,1:2|3:2,0:0:0:0:
348,32,70131,5,2,2:2:0:0:
348,32,70256,1,2,2:2:0:0:
348,32,70381,2,0,L|365:112,2,54,2|2|2,2:2|2:2|2:2,0:0:0:0:
311,162,70881,1,2,2:2:0:0:
311,162,71006,1,2,2:2:0:0:
311,162,71131,2,0,P|286:197|217:174,1,108,2|0,2:2|0:0,0:0:0:0:
124,42,71631,2,0,P|54:19|-2:79,1,148.50000453186,6|2,1:2|3:2,0:0:0:0:
19,238,72131,6,0,P|43:269|57:324,1,67.5,6|0,1:2|0:0,0:0:0:0:
110,362,72381,2,0,P|136:329|139:277,1,67.5,2|0,3:2|0:0,0:0:0:0:
147,217,72631,2,0,P|154:146|187:87,1,135,2|2,3:2|3:2,0:0:0:0:
242,25,73006,1,2,2:2:0:0:
242,25,73131,2,0,B|340:61|340:61|386:39,1,135,10|2,3:2|3:2,0:0:0:0:
512,145,73631,2,0,L|483:-5,1,135,2|2,1:2|3:2,0:0:0:0:
396,163,74131,6,0,P|384:196|397:238,1,67.5,6|0,2:2|0:0,0:0:0:0:
375,140,74381,1,2,3:2:0:0:
467,289,74631,2,0,P|416:314|244:339,1,202.5,6|2,1:2|2:2,0:0:0:0:
192,306,75131,2,0,B|205:273|241:256|241:256|207:194|202:111,1,202.5,14|0,1:2|0:0,0:0:0:0:
235,49,75631,2,0,B|110:37|165:118|44:100,1,202.5,6|0,1:2|0:0,0:0:0:0:
1,25,76131,5,6,1:2:0:0:
62,195,76381,1,2,3:2:0:0:
232,236,76631,1,2,3:2:0:0:
293,67,76881,1,2,3:2:0:0:
455,132,77131,2,0,B|413:163|413:163|440:271,1,135,10|2,3:2|3:2,0:0:0:0:
280,331,77631,2,0,B|365:380|340:305|442:359,1,135,2|2,1:2|3:2,0:0:0:0:
275,231,78131,6,0,P|199:264|168:321,1,135,6|2,2:2|3:2,0:0:0:0:
19,217,78631,2,0,B|78:71|78:71|147:41,1,202.5,6|0,1:2|0:0,0:0:0:0:
204,33,79131,2,0,B|212:78|183:111|183:111|177:178|223:228,1,202.5,14|0,1:2|0:0,0:0:0:0:
241,305,79631,2,0,B|107:305|184:246|34:238,1,202.5,6|0,1:2|0:0,0:0:0:0:
2,169,80131,6,0,L|-4:92,2,67.5,6|0|2,1:2|0:0|3:2,0:0:0:0:
94,20,80631,1,2,3:2:0:0:
243,112,80881,1,2,3:2:0:0:
243,112,81006,1,2,2:2:0:0:
243,112,81131,2,0,B|204:143|204:143|224:238,1,135,10|2,3:2|3:2,0:0:0:0:
354,341,81631,2,0,P|395:300|464:335,1,135,2|2,1:2|3:2,0:0:0:0:
496,154,82131,6,0,B|442:199|442:199|374:178,1,135,6|2,2:2|3:2,0:0:0:0:
301,23,82631,2,0,B|270:49|270:49|296:245,1,202.5,6|2,1:2|2:2,0:0:0:0:
300,296,83131,2,0,B|234:296|211:238|211:238|195:134,1,202.5,14|0,1:2|0:0,0:0:0:0:
171,65,83631,2,0,B|60:123|167:169|39:232,1,202.5,6|0,1:2|0:0,0:0:0:0:
25,140,84131,5,6,1:2:0:0:
101,297,84381,2,0,P|166:334|216:287,1,135,2|2,3:2|3:2,0:0:0:0:
300,154,84881,1,2,3:2:0:0:
161,46,85131,1,10,3:2:0:0:
364,331,85631,2,0,B|392:238|392:238|442:230,1,135,2|2,1:2|3:2,0:0:0:0:
354,72,86131,5,6,2:2:0:0:
192,141,86381,1,2,3:2:0:0:
299,2,86631,2,0,B|240:64|292:135|292:135|274:212,1,202.5,6|0,1:2|0:0,0:0:0:0:
260,274,87131,2,0,B|168:317|168:317|110:233,1,202.5,14|0,1:2|0:0,0:0:0:0:
70,156,87631,2,0,B|22:191|9:245|50:296|50:296|84:344,1,202.5,6|0,1:2|0:0,0:0:0:0:
73,329,88131,5,6,1:2:0:0:
