osu file format v14

[General]
AudioFilename: audio.mp3
AudioLeadIn: 0
PreviewTime: 40131
Countdown: 0
SampleSet: Soft
StackLeniency: 0.7
Mode: 0
LetterboxInBreaks: 0
WidescreenStoryboard: 0

[Editor]
Bookmarks: 8131,24131,40131,56131,72131,88131
DistanceSpacing: 1.1
BeatDivisor: 8
GridSize: 8
TimelineZoom: 2.7

[Metadata]
Title:Boss
TitleUnicode:Boss
Artist:Lil Pump
ArtistUnicode:Lil Pump
Creator:1103
Version:boss
Source:
Tags:jetski english hip hop myah visionary vastly godsenger
BeatmapID:3613893
BeatmapSetID:1765492

[Difficulty]
HPDrainRate:6
CircleSize:3
OverallDifficulty:8
ApproachRate:9
SliderMultiplier:2.7
SliderTickRate:1

[Events]
//Background and Video events
0,0,"Lil Pump - Boss [Official Music Video] 1-9 screenshot.jpg",0,0
Video,-200,"heavily censored butts.avi"
//Break Periods
//Storyboard Layer 0 (Background)
//Storyboard Layer 1 (Fail)
//Storyboard Layer 2 (Pass)
//Storyboard Layer 3 (Foreground)
//Storyboard Layer 4 (Overlay)
//Storyboard Sound Samples

[TimingPoints]
131,500,4,2,1,60,1,0
131,-100,4,2,1,60,0,0
256,-100,4,2,99,5,0,0
381,-100,4,2,1,60,0,0
506,-100,4,2,99,5,0,0
631,-76.9230769230769,4,2,2,100,0,0
755,-76.9230769230769,4,2,99,5,0,0
881,-76.9230769230769,4,2,2,100,0,0
1005,-76.9230769230769,4,2,99,5,0,0
1131,-100,4,2,1,100,0,0
1256,-100,4,2,99,5,0,0
1381,-100,4,2,1,100,0,0
1506,-100,4,2,99,5,0,0
1631,-76.9230769230769,4,2,2,100,0,0
1755,-76.9230769230769,4,2,99,5,0,0
1881,-76.9230769230769,4,2,2,100,0,0
2005,-76.9230769230769,4,2,99,5,0,0
2131,-100,4,2,1,100,0,0
2256,-100,4,2,99,5,0,0
2381,-100,4,2,1,100,0,0
2506,-100,4,2,99,5,0,0
2631,-76.9230769230769,4,2,2,100,0,0
2755,-76.9230769230769,4,2,99,5,0,0
2881,-76.9230769230769,4,2,2,100,0,0
3005,-76.9230769230769,4,2,99,5,0,0
3131,-100,4,2,1,100,0,0
3256,-100,4,2,99,5,0,0
3381,-100,4,2,1,100,0,0
3506,-100,4,2,99,5,0,0
3631,-76.9230769230769,4,2,2,100,0,0
3818,-76.9230769230769,4,2,99,5,0,0
3881,-76.9230769230769,4,2,2,100,0,0
4005,-76.9230769230769,4,2,99,5,0,0
4131,-100,4,2,1,100,0,0
4631,-76.9230769230769,4,2,2,100,0,0
5131,-100,4,2,1,100,0,0
5631,-76.9230769230769,4,2,2,100,0,0
6005,-76.9230769230769,4,2,99,5,0,0
6131,-100,4,2,1,100,0,0
6631,-76.9230769230769,4,2,1,100,0,0
7131,-100,4,2,1,100,0,0
7568,-100,4,2,99,5,0,0
7631,-100,4,2,1,100,0,0
7881,-250,4,2,1,100,0,0
8068,-250,4,2,99,5,0,0
8131,-40,4,2,3,100,0,0
8318,-40,4,2,99,5,0,0
8381,-100,4,2,4,100,0,0
8506,-100,4,2,99,5,0,0
8631,-100,4,2,4,100,0,0
8756,-100,4,2,99,5,0,0
8881,-100,4,2,5,100,0,0
8943,-100,4,2,99,5,0,0
9006,-100,4,2,4,100,0,0
9131,-100,4,2,3,100,0,0
9318,-100,4,2,99,5,0,0
9381,-100,4,2,1,100,0,0
9506,-100,4,2,99,5,0,0
9631,-100,4,2,5,100,0,0
9881,-100,4,2,2,100,0,0
10131,-50,4,2,6,100,0,0
10318,-50,4,2,99,5,0,0
10381,-100,4,2,3,100,0,0
10506,-100,4,2,99,5,0,0
10631,-50,4,2,5,100,0,0
10818,-50,4,2,99,5,0,0
10881,-100,4,2,5,100,0,0
10943,-100,4,2,99,5,0,0
11006,-100,4,2,4,100,0,0
11131,-100,4,2,4,60,0,0
12131,-40,4,2,7,100,0,0
12318,-40,4,2,99,5,0,0
12381,-100,4,2,4,100,0,0
12506,-100,4,2,99,5,0,0
12631,-100,4,2,4,100,0,0
12756,-100,4,2,99,5,0,0
12881,-100,4,2,5,100,0,0
13006,-100,4,2,99,5,0,0
13131,-100,4,2,3,100,0,0
13318,-100,4,2,99,5,0,0
13381,-100,4,2,1,100,0,0
13506,-100,4,2,99,5,0,0
13631,-100,4,2,5,100,0,0
13881,-100,4,2,2,100,0,0
14131,-100,4,2,4,60,0,0
15131,-40,4,2,8,100,0,0
15318,-40,4,2,99,5,0,0
15381,-100,4,2,1,100,0,0
15506,-100,4,2,99,5,0,0
15631,-100,4,2,5,100,0,0
15818,-100,4,2,99,5,0,0
15881,-100,4,2,2,100,0,0
16006,-100,4,2,99,5,0,0
16131,-40,4,2,3,100,0,0
16318,-40,4,2,99,5,0,0
16381,-100,4,2,4,100,0,0
16506,-100,4,2,99,5,0,0
16631,-100,4,2,4,100,0,0
16756,-100,4,2,99,5,0,0
16881,-100,4,2,5,100,0,0
16943,-100,4,2,99,5,0,0
17006,-100,4,2,4,100,0,0
17131,-100,4,2,3,100,0,0
17318,-100,4,2,99,5,0,0
17381,-100,4,2,1,100,0,0
17506,-100,4,2,99,5,0,0
17631,-50,4,2,5,100,0,0
17881,-100,4,2,2,100,0,0
18131,-100,4,2,6,100,0,0
18256,-100,4,2,99,5,0,0
18381,-100,4,2,3,100,0,0
18506,-100,4,2,99,5,0,0
18631,-50,4,2,5,100,0,0
18818,-50,4,2,99,5,0,0
18881,-100,4,2,5,100,0,0
18943,-100,4,2,99,5,0,0
19006,-100,4,2,4,100,0,0
19131,-100,4,2,4,60,0,0
20131,-40,4,2,7,100,0,0
20318,-40,4,2,99,5,0,0
20381,-100,4,2,4,100,0,0
20506,-100,4,2,99,5,0,0
20631,-100,4,2,4,100,0,0
20756,-100,4,2,99,5,0,0
20881,-100,4,2,5,100,0,0
21006,-100,4,2,99,5,0,0
21131,-100,4,2,3,100,0,0
21318,-100,4,2,99,5,0,0
21381,-100,4,2,1,100,0,0
21506,-100,4,2,99,5,0,0
21631,-100,4,2,5,100,0,0
21881,-100,4,2,2,100,0,0
22131,-100,4,2,4,60,0,0
23131,-40,4,2,8,100,0,0
23318,-40,4,2,99,5,0,0
23381,-100,4,2,1,100,0,0
23506,-100,4,2,99,5,0,0
23631,-50,4,2,5,100,0,0
23818,-50,4,2,99,5,0,0
23881,-50,4,2,2,100,0,0
24068,-50,4,2,99,5,0,0
24131,-40,4,2,3,100,0,0
24256,-100,4,2,1,100,0,0
24318,-100,4,2,99,5,0,0
24381,-100,4,2,4,100,0,0
24506,-100,4,2,99,5,0,0
24631,-100,4,2,4,100,0,0
24818,-100,4,2,99,5,0,0
24881,-100,4,2,5,100,0,0
25006,-100,4,2,4,100,0,0
25131,-100,4,2,3,100,0,0
25506,-100,4,2,99,5,0,0
25631,-50,4,2,5,100,0,0
25756,-50,4,2,99,5,0,0
25881,-50,4,2,2,100,0,0
26006,-50,4,2,99,5,0,0
26131,-50,4,2,4,60,0,0
27631,-50,4,2,5,100,0,0
27693,-50,4,2,1,100,0,0
27881,-50,4,2,2,100,0,0
28131,-40,4,2,7,100,0,0
28318,-40,4,2,99,5,0,0
28381,-100,4,2,4,100,0,0
28506,-100,4,2,99,5,0,0
28631,-100,4,2,4,100,0,0
28756,-100,4,2,99,5,0,0
28881,-100,4,2,5,100,0,0
29006,-100,4,2,4,100,0,0
29131,-100,4,2,3,100,0,0
29506,-100,4,2,99,5,0,0
29631,-50,4,2,5,100,0,0
29756,-50,4,2,99,5,0,0
29881,-50,4,2,2,100,0,0
30006,-50,4,2,99,5,0,0
30131,-50,4,2,4,60,0,0
31631,-50,4,2,5,100,0,0
31818,-50,4,2,99,5,0,0
31881,-50,4,2,2,100,0,0
32006,-50,4,2,99,5,0,0
32131,-40,4,2,3,100,0,0
32318,-40,4,2,99,5,0,0
32381,-100,4,2,4,100,0,0
32506,-100,4,2,99,5,0,0
32631,-100,4,2,4,100,0,0
32756,-100,4,2,99,5,0,0
32881,-100,4,2,5,100,0,0
32943,-100,4,2,99,5,0,0
33006,-100,4,2,4,100,0,0
33131,-100,4,2,3,100,0,0
33381,-100,4,2,1,100,0,0
33631,-50,4,2,5,100,0,0
33756,-50,4,2,99,5,0,0
33881,-50,4,2,2,100,0,0
34006,-50,4,2,99,5,0,0
34131,-50,4,2,4,60,0,0
35631,-50,4,2,5,100,0,0
35818,-50,4,2,99,5,0,0
35881,-100,4,2,2,100,0,0
36006,-100,4,2,99,5,0,0
36131,-40,4,2,7,100,0,0
36318,-40,4,2,99,5,0,0
36381,-100,4,2,4,100,0,0
36506,-100,4,2,99,5,0,0
36631,-100,4,2,4,100,0,0
36756,-100,4,2,99,5,0,0
36881,-100,4,2,5,100,0,0
37006,-100,4,2,99,5,0,0
37131,-100,4,2,3,100,0,0
37381,-100,4,2,1,100,0,0
37631,-50,4,2,5,100,0,0
37818,-50,4,2,99,5,0,0
37881,-100,4,2,2,100,0,0
38006,-100,4,2,99,5,0,0
38131,-100,4,2,6,100,0,0
38256,-100,4,2,99,5,0,0
38381,-100,4,2,3,100,0,0
38506,-100,4,2,99,5,0,0
38631,-50,4,2,5,100,0,0
38818,-50,4,2,99,5,0,0
38881,-50,4,2,5,100,0,0
39068,-50,4,2,99,5,0,0
39131,-40,4,2,8,100,0,0
39318,-40,4,2,99,5,0,0
39381,-40,4,2,1,100,0,0
39568,-40,4,2,99,5,0,0
39631,-40,4,2,5,100,0,0
39818,-40,4,2,99,5,0,0
39881,-100,4,2,2,100,0,0
40006,-100,4,2,99,5,0,0
40131,-40,4,2,3,100,0,1
40318,-40,4,2,99,5,0,1
40381,-66.6666666666667,4,2,4,100,0,1
40506,-66.6666666666667,4,2,99,5,0,1
40631,-66.6666666666667,4,2,4,100,0,1
40693,-66.6666666666667,4,2,99,5,0,1
40756,-66.6666666666667,4,2,4,100,0,1
40881,-66.6666666666667,4,2,5,100,0,1
41068,-66.6666666666667,4,2,99,5,0,1
41131,-66.6666666666667,4,2,3,100,0,1
41256,-66.6666666666667,4,2,99,5,0,1
41381,-66.6666666666667,4,2,1,100,0,1
41506,-66.6666666666667,4,2,99,5,0,1
41631,-50,4,2,5,100,0,1
41881,-66.6666666666667,4,2,2,100,0,1
42131,-50,4,2,6,100,0,1
42256,-50,4,2,4,100,0,1
42381,-50,4,2,3,100,0,1
42506,-50,4,2,4,100,0,1
42631,-50,4,2,5,100,0,1
43131,-50,4,2,8,100,0,1
43256,-50,4,2,99,5,0,1
43381,-50,4,2,1,100,0,1
43506,-50,4,2,99,5,0,1
43631,-50,4,2,4,60,0,1
44131,-40,4,2,7,100,0,1
44318,-40,4,2,99,5,0,1
44381,-66.6666666666667,4,2,4,100,0,1
44506,-66.6666666666667,4,2,99,5,0,1
44631,-66.6666666666667,4,2,4,100,0,1
44756,-66.6666666666667,4,2,99,5,0,1
44881,-66.6666666666667,4,2,5,100,0,1
45006,-66.6666666666667,4,2,4,100,0,1
45068,-66.6666666666667,4,2,99,5,0,1
45131,-66.6666666666667,4,2,3,100,0,1
45256,-66.6666666666667,4,2,99,5,0,1
45381,-66.6666666666667,4,2,1,100,0,1
45506,-66.6666666666667,4,2,99,5,0,1
45631,-50,4,2,5,100,0,1
45756,-50,4,2,99,5,0,1
45881,-66.6666666666667,4,2,2,100,0,1
46006,-66.6666666666667,4,2,99,5,0,1
46131,-66.6666666666667,4,2,4,60,0,1
47131,-50,4,2,8,100,0,1
47256,-50,4,2,99,5,0,1
47381,-50,4,2,1,100,0,1
47506,-50,4,2,99,5,0,1
47631,-50,4,2,5,100,0,1
47756,-50,4,2,99,5,0,1
47881,-50,4,2,2,100,0,1
48006,-50,4,2,99,5,0,1
48131,-50,4,2,3,100,0,1
48443,-50,4,2,99,5,0,1
48506,-50,4,2,3,100,0,1
48631,-50,4,2,4,100,0,1
48693,-50,4,2,99,5,0,1
48756,-50,4,2,4,100,0,1
48881,-50,4,2,5,100,0,1
49068,-50,4,2,99,5,0,1
49131,-66.6666666666667,4,2,3,100,0,1
49256,-66.6666666666667,4,2,99,5,0,1
49381,-66.6666666666667,4,2,3,100,0,1
49506,-66.6666666666667,4,2,99,5,0,1
49631,-66.6666666666667,4,2,5,100,0,1
49818,-66.6666666666667,4,2,99,5,0,1
49881,-66.6666666666667,4,2,2,100,0,1
50006,-66.6666666666667,4,2,99,5,0,1
50131,-66.6666666666667,4,2,4,60,0,0
51381,-66.6666666666667,4,2,9,100,0,1
51568,-66.6666666666667,4,2,99,5,0,1
51631,-66.6666666666667,4,2,5,100,0,1
51818,-66.6666666666667,4,2,99,5,0,1
51881,-66.6666666666667,4,2,2,100,0,1
52006,-66.6666666666667,4,2,99,5,0,1
52131,-50,4,2,7,100,0,1
52318,-50,4,2,99,5,0,1
52381,-50,4,2,4,100,0,1
52506,-50,4,2,99,5,0,1
52631,-50,4,2,4,100,0,1
52881,-50,4,2,5,100,0,1
53006,-50,4,2,4,100,0,1
53131,-66.6666666666667,4,2,3,100,0,1
53256,-66.6666666666667,4,2,4,100,0,1
53381,-66.6666666666667,4,2,3,100,0,1
53506,-66.6666666666667,4,2,4,100,0,1
53631,-66.6666666666667,4,2,5,100,0,1
54006,-66.6666666666667,4,2,99,5,0,1
54131,-66.6666666666667,4,2,6,100,0,1
54256,-66.6666666666667,4,2,4,100,0,1
54381,-66.6666666666667,4,2,3,100,0,1
54506,-66.6666666666667,4,2,4,100,0,1
54631,-50,4,2,5,100,0,1
54818,-50,4,2,99,5,0,1
54881,-50,4,2,5,100,0,1
55006,-50,4,2,4,100,0,1
55131,-50,4,2,8,100,0,1
55318,-50,4,2,99,5,0,1
55381,-50,4,2,3,100,0,1
55506,-50,4,2,4,100,0,1
55631,-50,4,2,5,100,0,1
55818,-50,4,2,99,5,0,1
55881,-66.6666666666667,4,2,2,100,0,1
56006,-66.6666666666667,4,2,99,5,0,1
56131,-50,4,2,3,100,0,1
56568,-50,4,2,99,5,0,1
56631,-66.6666666666667,4,2,4,100,0,1
56693,-66.6666666666667,4,2,99,5,0,1
56756,-66.6666666666667,4,2,4,100,0,1
56881,-66.6666666666667,4,2,5,100,0,1
57068,-66.6666666666667,4,2,99,5,0,1
57131,-66.6666666666667,4,2,3,100,0,1
57256,-66.6666666666667,4,2,99,5,0,1
57381,-66.6666666666667,4,2,3,100,0,1
57506,-66.6666666666667,4,2,4,100,0,1
57631,-66.6666666666667,4,2,5,100,0,1
57756,-66.6666666666667,4,2,99,5,0,1
57881,-66.6666666666667,4,2,2,100,0,1
58006,-66.6666666666667,4,2,99,5,0,1
58131,-50,4,2,6,100,0,1
58568,-50,4,2,99,5,0,1
58631,-50,4,2,4,60,0,0
60131,-50,4,2,7,100,0,1
60443,-50,4,2,99,5,0,1
60506,-50,4,2,1,100,0,1
60631,-66.6666666666667,4,2,4,100,0,1
60693,-66.6666666666667,4,2,99,5,0,1
60756,-66.6666666666667,4,2,4,100,0,1
60881,-66.6666666666667,4,2,5,100,0,1
61068,-66.6666666666667,4,2,99,5,0,1
61131,-66.6666666666667,4,2,3,100,0,1
61256,-66.6666666666667,4,2,99,5,0,1
61381,-66.6666666666667,4,2,3,100,0,1
61506,-66.6666666666667,4,2,99,5,0,1
61631,-66.6666666666667,4,2,5,100,0,1
61881,-66.6666666666667,4,2,2,100,0,1
62131,-50,4,2,6,100,0,1
62443,-50,4,2,99,5,0,1
62506,-50,4,2,6,100,0,1
62631,-66.6666666666667,4,2,4,60,0,0
64131,-50,4,2,3,100,0,1
64443,-50,4,2,99,5,0,1
64506,-50,4,2,3,100,0,1
64631,-66.6666666666667,4,2,4,100,0,1
64693,-66.6666666666667,4,2,99,5,0,1
64756,-66.6666666666667,4,2,4,100,0,1
64881,-66.6666666666667,4,2,5,100,0,1
65068,-66.6666666666667,4,2,99,5,0,1
65131,-66.6666666666667,4,2,3,100,0,1
65256,-66.6666666666667,4,2,99,5,0,1
65381,-66.6666666666667,4,2,3,100,0,1
65443,-66.6666666666667,4,2,99,5,0,1
65506,-66.6666666666667,4,2,4,100,0,1
65568,-66.6666666666667,4,2,99,5,0,1
65631,-66.6666666666667,4,2,5,100,0,1
65756,-66.6666666666667,4,2,4,100,0,1
65881,-66.6666666666667,4,2,2,100,0,1
66006,-66.6666666666667,4,2,99,5,0,1
66131,-66.6666666666667,4,2,6,100,0,1
66256,-66.6666666666667,4,2,4,100,0,1
66381,-66.6666666666667,4,2,3,100,0,1
66506,-66.6666666666667,4,2,4,100,0,1
66631,-50,4,2,5,100,0,1
66818,-50,4,2,99,5,0,1
66881,-50,4,2,5,100,0,1
67068,-50,4,2,99,5,0,1
67131,-43.4782608695652,4,2,8,100,0,1
67318,-43.4782608695652,4,2,99,5,0,1
67381,-43.4782608695652,4,2,1,100,0,1
67568,-43.4782608695652,4,2,99,5,0,1
67631,-43.4782608695652,4,2,5,100,0,1
67818,-43.4782608695652,4,2,99,5,0,1
67881,-66.6666666666667,4,2,2,100,0,1
68068,-66.6666666666667,4,2,99,5,0,1
68131,-50,4,2,7,100,0,1
68256,-50,4,2,99,5,0,1
68381,-50,4,2,4,100,0,1
68506,-50,4,2,99,5,0,1
68631,-66.6666666666667,4,2,4,100,0,1
68881,-66.6666666666667,4,2,5,100,0,1
69006,-66.6666666666667,4,2,4,100,0,1
69131,-66.6666666666667,4,2,3,100,0,1
69256,-66.6666666666667,4,2,99,5,0,1
69381,-66.6666666666667,4,2,3,100,0,1
69506,-66.6666666666667,4,2,4,100,0,1
69631,-66.6666666666667,4,2,5,100,0,1
69693,-66.6666666666667,4,2,99,5,0,1
69756,-66.6666666666667,4,2,4,100,0,1
69818,-66.6666666666667,4,2,99,5,0,1
69881,-66.6666666666667,4,2,2,100,0,1
70131,-50,4,2,4,60,0,0
70631,-50,4,2,4,60,0,0
71631,-50,4,2,5,100,0,1
71756,-50,4,2,99,5,0,1
71881,-50,4,2,2,100,0,1
72006,-50,4,2,99,5,0,1
72131,-40,4,2,3,100,0,0
72318,-40,4,2,99,5,0,0
72381,-100,4,2,4,100,0,0
72506,-100,4,2,99,5,0,0
72631,-100,4,2,4,100,0,0
72756,-100,4,2,99,5,0,0
72881,-100,4,2,5,100,0,0
72943,-100,4,2,99,5,0,0
73006,-100,4,2,4,100,0,0
73131,-100,4,2,3,100,0,0
73318,-100,4,2,99,5,0,0
73381,-100,4,2,1,100,0,0
73506,-100,4,2,99,5,0,0
73631,-100,4,2,5,100,0,0
73881,-100,4,2,2,100,0,0
74131,-50,4,2,6,100,0,0
74318,-50,4,2,99,5,0,0
74381,-100,4,2,3,100,0,0
74506,-100,4,2,99,5,0,0
74631,-50,4,2,5,100,0,0
74818,-50,4,2,99,5,0,0
74881,-100,4,2,5,100,0,0
74943,-100,4,2,99,5,0,0
75006,-100,4,2,4,100,0,0
75131,-100,4,2,8,100,0,0
75256,-100,4,2,99,5,0,0
75381,-100,4,2,1,100,0,0
75506,-100,4,2,99,5,0,0
75631,-100,4,2,5,100,0,0
75756,-100,4,2,99,5,0,0
75881,-100,4,2,2,100,0,0
76006,-100,4,2,99,5,0,0
76131,-40,4,2,7,100,0,0
76318,-40,4,2,99,5,0,0
76381,-100,4,2,4,100,0,0
76506,-100,4,2,99,5,0,0
76631,-100,4,2,4,100,0,0
76756,-100,4,2,99,5,0,0
76881,-100,4,2,5,100,0,0
77006,-100,4,2,99,5,0,0
77131,-100,4,2,3,100,0,0
77318,-100,4,2,99,5,0,0
77381,-100,4,2,1,100,0,0
77506,-100,4,2,99,5,0,0
77631,-100,4,2,5,100,0,0
77881,-100,4,2,2,100,0,0
78131,-100,4,2,6,100,0,0
78256,-100,4,2,99,5,0,0
78381,-100,4,2,3,100,0,0
78506,-100,4,2,99,5,0,0
78631,-50,4,2,5,100,0,0
78818,-50,4,2,99,5,0,0
78881,-100,4,2,5,100,0,0
79006,-100,4,2,99,5,0,0
79131,-40,4,2,8,100,0,0
79318,-40,4,2,99,5,0,0
79381,-100,4,2,1,100,0,0
79506,-100,4,2,99,5,0,0
79631,-100,4,2,5,100,0,0
79818,-100,4,2,99,5,0,0
79881,-100,4,2,2,100,0,0
80006,-100,4,2,99,5,0,0
80131,-40,4,2,3,100,0,0
80318,-40,4,2,99,5,0,0
80381,-100,4,2,4,100,0,0
80506,-100,4,2,99,5,0,0
80631,-100,4,2,4,100,0,0
80756,-100,4,2,99,5,0,0
80881,-100,4,2,5,100,0,0
80943,-100,4,2,99,5,0,0
81006,-100,4,2,4,100,0,0
81131,-100,4,2,3,100,0,0
81318,-100,4,2,99,5,0,0
81381,-100,4,2,1,100,0,0
81506,-100,4,2,99,5,0,0
81631,-50,4,2,5,100,0,0
81881,-100,4,2,2,100,0,0
82131,-100,4,2,6,100,0,0
82256,-100,4,2,99,5,0,0
82381,-100,4,2,3,100,0,0
82506,-100,4,2,99,5,0,0
82631,-50,4,2,5,100,0,0
82818,-50,4,2,99,5,0,0
82881,-100,4,2,5,100,0,0
82943,-100,4,2,99,5,0,0
83006,-100,4,2,4,100,0,0
83131,-100,4,2,8,100,0,0
83256,-100,4,2,99,5,0,0
83381,-100,4,2,1,100,0,0
83506,-100,4,2,99,5,0,0
83631,-100,4,2,5,100,0,0
83756,-100,4,2,99,5,0,0
83881,-100,4,2,2,100,0,0
84006,-100,4,2,99,5,0,0
84131,-40,4,2,7,100,0,0
84318,-40,4,2,99,5,0,0
84381,-100,4,2,4,100,0,0
84506,-100,4,2,99,5,0,0
84631,-100,4,2,4,100,0,0
84756,-100,4,2,99,5,0,0
84881,-100,4,2,5,100,0,0
85006,-100,4,2,99,5,0,0
85131,-100,4,2,3,100,0,0
85318,-100,4,2,99,5,0,0
85381,-100,4,2,1,100,0,0
85506,-100,4,2,99,5,0,0
85631,-100,4,2,5,100,0,0
85881,-100,4,2,2,100,0,0
86131,-100,4,2,6,100,0,0
86256,-100,4,2,99,5,0,0
86381,-100,4,2,3,100,0,0
86506,-100,4,2,99,5,0,0
86631,-40,4,2,5,100,0,0
86818,-40,4,2,99,5,0,0
86881,-100,4,2,5,100,0,0
87006,-100,4,2,99,5,0,0
87131,-40,4,2,8,100,0,0
87318,-40,4,2,99,5,0,0
87381,-100,4,2,1,100,0,0
87506,-100,4,2,99,5,0,0
87631,-50,4,2,5,100,0,0
87818,-50,4,2,99,5,0,0
87881,-50,4,2,2,100,0,0
88068,-50,4,2,99,5,0,0
88131,-40,4,2,1,100,0,0

[Colours]
Combo1 : 255,149,202
Combo2 : 255,128,128

[HitObjects]
0,0,131,6,0,P|14:36|18:69,1,67.5,2|0,2:2|0:0,0:0:0:0:
128,128,381,2,0,P|113:91|109:58,1,67.5,2|0,2:2|0:0,0:0:0:0:
256,0,631,6,0,L|193:84,1,87.749995983124,2|0,2:2|0:0,0:0:0:0:
83,209,881,2,0,L|20:293,1,87.749995983124,2|0,2:2|0:0,0:0:0:0:
84,352,1131,6,0,P|120:337|153:333,1,67.5,2|0,2:2|0:0,0:0:0:0:
288,384,1381,2,0,P|257:359|237:333,1,67.5,2|0,2:2|0:0,0:0:0:0:
272,248,1631,6,0,L|356:270,1,87.749995983124,2|0,2:2|0:0,0:0:0:0:
92,206,1881,2,0,L|8:184,1,87.749995983124,2|0,2:2|0:0,0:0:0:0:
176,256,2131,6,0,P|181:222|194:191,1,67.5,2|0,2:2|0:0,0:0:0:0:
168,88,2381,2,0,P|201:93|232:106,1,67.5,2|0,2:2|0:0,0:0:0:0:
312,160,2631,6,0,L|334:75,1,87.749995983124,2|0,2:2|0:0,0:0:0:0:
488,96,2881,2,0,L|510:11,1,87.749995983124,2|0,2:2|0:0,0:0:0:0:
416,176,3131,6,0,P|464:216|480:240,1,67.5,2|0,2:2|0:0,0:0:0:0:
356,270,3381,2,0,P|361:332|356:360,1,67.5,2|0,2:2|0:0,0:0:0:0:
247,368,3631,6,0,L|85:383,1,131.624993974686,2|0,2:2|0:0,0:0:0:0:
115,380,3881,2,0,P|101:340|57:317,1,87.749995983124,2|0,2:2|0:0,0:0:0:0:
16,240,4131,5,2,2:2:0:0:
16,240,4381,1,2,2:2:0:0:
200,40,4631,6,0,P|176:96|144:208,1,175.499991966248,2|2,2:2|2:2,0:0:0:0:
55,77,5131,5,2,2:2:0:0:
55,77,5381,1,2,2:2:0:0:
331,131,5631,6,0,P|306:260|263:384,1,263.249987949372,2|0,2:2|0:0,0:0:0:0:
256,192,6131,12,0,7568,0:0:0:0:
264,136,7631,5,0,0:0:0:0:
302,82,7756,1,0,0:0:0:0:
192,24,7881,2,0,L|212:60,1,40.5
320,216,8131,6,0,P|200:160|56:136,1,253.125,6|0,1:2|0:0,0:0:0:0:
82,137,8381,2,0,L|112:256,1,67.5,2|0,3:2|0:0,0:0:0:0:
0,0,8631,2,0,L|64:18,1,67.5,2|0,3:2|0:0,0:0:0:0:
183,263,8881,2,0,L|167:311,1,33.75,2|0,3:2|0:0,0:0:0:0:
173,296,9006,1,2,2:2:0:0:
248,368,9131,2,0,P|292:343|340:330,1,101.25,10|0,3:2|0:0,0:0:0:0:
330,311,9381,2,0,P|373:319|399:334,1,67.5,2|0,3:2|0:0,0:0:0:0:
512,231,9631,1,2,1:2:0:0:
512,231,9881,1,2,3:2:0:0:
512,0,10131,6,0,P|488:72|368:56,1,202.5,6|0,2:2|0:0,0:0:0:0:
377,67,10381,2,0,P|370:25|344:-9,1,67.5,2|0,3:2|0:0,0:0:0:0:
322,193,10631,2,0,P|226:157|127:170,1,202.5,6|0,1:2|0:0,0:0:0:0:
128,169,10881,2,0,L|118:202,1,33.75,2|0,3:2|0:0,0:0:0:0:
118,201,11006,1,2,2:2:0:0:
170,40,11131,5,2,2:2:0:0:
99,337,11631,1,2,2:2:0:0:
155,56,12131,6,0,L|402:3,1,253.125,6|0,1:2|0:0,0:0:0:0:
391,0,12381,2,0,P|358:17|342:46,1,67.5,2|0,3:2|0:0,0:0:0:0:
218,160,12631,2,0,P|185:177|169:206,1,67.5,2|0,3:2|0:0,0:0:0:0:
94,51,12881,2,0,P|129:54|158:71,1,67.5,2|0,3:2|0:0,0:0:0:0:
320,176,13131,2,0,P|368:193|403:228,1,101.25,10|0,3:2|0:0,0:0:0:0:
418,210,13381,2,0,P|434:250|434:290,1,67.5,2|0,3:2|0:0,0:0:0:0:
496,120,13631,1,2,1:2:0:0:
496,120,13881,1,2,3:2:0:0:
392,360,14131,5,2,2:2:0:0:
328,296,14381,1,2,2:2:0:0:
216,384,14631,1,2,2:2:0:0:
424,272,14881,1,2,2:2:0:0:
144,176,15131,6,0,P|128:296|16:296,1,253.125,14|0,1:2|0:0,0:0:0:0:
17,296,15381,2,0,P|40:256|32:208,1,67.5,2|0,2:2|0:0,0:0:0:0:
0,16,15631,2,0,P|30:45|88:63,1,101.25,6|0,1:2|0:0,0:0:0:0:
64,80,15881,2,0,P|112:80|144:64,1,67.5,2|0,3:2|0:0,0:0:0:0:
256,0,16131,6,0,B|240:173|272:67|256:251,1,253.125,6|0,1:2|0:0,0:0:0:0:
255,252,16381,2,0,P|302:272|316:294,1,67.5,2|0,3:2|0:0,0:0:0:0:
496,192,16631,2,0,P|449:172|435:150,1,67.5,2|0,3:2|0:0,0:0:0:0:
248,344,16881,2,0,L|215:354,1,33.75,2|0,3:2|0:0,0:0:0:0:
216,355,17006,1,2,2:2:0:0:
136,304,17131,2,0,P|153:260|148:202,1,101.25,10|0,3:2|0:0,0:0:0:0:
162,199,17381,2,0,P|136:167|105:153,1,67.5,2|0,3:2|0:0,0:0:0:0:
256,0,17631,1,2,1:2:0:0:
256,0,17881,1,2,3:2:0:0:
112,64,18131,6,0,P|152:57|180:37,1,67.5,6|0,2:2|0:0,0:0:0:0:
256,224,18381,2,0,P|285:207|318:203,1,67.5,2|0,3:2|0:0,0:0:0:0:
504,144,18631,2,0,P|403:128|318:73,1,202.5,6|0,1:2|0:0,0:0:0:0:
319,74,18881,2,0,P|333:58|341:33,1,33.75,2|0,3:2|0:0,0:0:0:0:
335,34,19006,1,2,2:2:0:0:
405,235,19131,5,2,2:2:0:0:
474,0,19631,1,2,2:2:0:0:
0,0,20131,6,0,P|88:8|75:145,1,253.125,6|0,1:2|0:0,0:0:0:0:
78,143,20381,2,0,P|22:126|-25:134,1,67.5,2|0,3:2|0:0,0:0:0:0:
264,72,20631,2,0,P|230:68|199:55,1,67.5,2|0,3:2|0:0,0:0:0:0:
24,216,20881,2,0,P|11:247|7:280,1,67.5,2|0,3:2|0:0,0:0:0:0:
168,160,21131,2,0,P|248:184|262:222,1,101.25,10|0,3:2|0:0,0:0:0:0:
272,176,21381,2,0,P|268:209|255:240,1,67.5,2|0,3:2|0:0,0:0:0:0:
128,352,21631,1,2,1:2:0:0:
128,352,21881,1,2,3:2:0:0:
104,264,22131,5,2,2:2:0:0:
256,232,22381,1,2,2:2:0:0:
384,344,22631,1,2,2:2:0:0:
480,320,22881,1,2,2:2:0:0:
512,7,23131,6,0,P|385:7|352:159,1,253.125,14|0,1:2|0:0,0:0:0:0:
390,187,23381,2,0,P|414:163|429:123,1,67.5,2|0,2:2|0:0,0:0:0:0:
260,37,23631,2,0,P|162:72|62:93,1,202.5,6|0,1:2|0:0,0:0:0:0:
65,86,23881,2,0,P|159:50|257:30,1,202.5,2|0,3:2|0:0,0:0:0:0:
258,29,24131,6,0,P|187:53|248:236,1,253.125,6|0,1:2|0:0,0:0:0:0:
193,218,24381,2,0,P|134:201|108:201,1,67.5,2|0,3:2|0:0,0:0:0:0:
93,365,24631,2,0,P|135:340|145:309,1,67.5,2|0,3:2|0:0,0:0:0:0:
64,273,24881,1,2,3:2:0:0:
64,273,25006,1,2,2:2:0:0:
272,160,25131,2,0,P|280:240|320:376,1,202.5,10|0,3:2|0:0,0:0:0:0:
448,296,25631,2,0,P|384:275|307:268,1,135,2|0,1:2|0:0,0:0:0:0:
195,116,25881,2,0,P|128:109|64:88,1,135,2|0,3:2|0:0,0:0:0:0:
274,17,26131,5,2,2:2:0:0:
274,17,26256,1,0,0:0:0:0:
274,17,26631,1,2,2:2:0:0:
274,17,26881,1,2,2:2:0:0:
274,17,27006,1,2,2:2:0:0:
274,17,27131,1,2,2:2:0:0:
184,64,27631,5,6,1:2:0:0:
184,64,27693,1,0,0:0:0:0:
184,64,27756,1,0,0:0:0:0:
336,160,27881,2,0,L|416:136,2,67.5,2|0|0,3:2|0:0|0:0,0:0:0:0:
8,240,28131,6,0,P|104:248|120:384,1,253.125,6|0,1:2|0:0,0:0:0:0:
121,382,28381,2,0,P|80:368|40:368,1,67.5,2|0,3:2|0:0,0:0:0:0:
234,244,28631,2,0,P|266:255|298:255,1,67.5,2|0,3:2|0:0,0:0:0:0:
383,325,28881,1,2,3:2:0:0:
383,325,29006,1,2,2:2:0:0:
512,110,29131,2,0,P|430:106|391:215,1,202.5,10|0,3:2|0:0,0:0:0:0:
339,68,29631,2,0,P|269:56|209:29,1,135,2|0,1:2|0:0,0:0:0:0:
173,316,29881,2,0,P|242:327|302:354,1,135,2|0,3:2|0:0,0:0:0:0:
128,243,30131,5,2,2:2:0:0:
128,243,30256,1,0,0:0:0:0:
381,140,30631,1,2,2:2:0:0:
210,30,30881,1,2,2:2:0:0:
219,47,31006,1,2,2:2:0:0:
228,64,31131,1,2,2:2:0:0:
512,8,31631,6,0,B|373:45|373:45|357:21|316:18,1,202.5,6|0,1:2|0:0,0:0:0:0:
432,64,31881,2,0,B|393:79|393:79|368:120|392:200,1,135,2|0,3:2|0:0,0:0:0:0:
0,0,32131,6,0,P|123:24|237:78,1,253.125,6|0,1:2|0:0,0:0:0:0:
216,216,32381,2,0,P|228:244|236:282,1,67.5,2|0,3:2|0:0,0:0:0:0:
360,312,32631,2,0,P|367:344|380:375,1,67.5,2|0,3:2|0:0,0:0:0:0:
472,256,32881,2,0,P|449:248|426:246,1,33.75,2|0,3:2|0:0,0:0:0:0:
432,256,33006,1,2,2:2:0:0:
512,344,33131,1,10,3:2:0:0:
512,344,33381,1,2,3:2:0:0:
160,356,33631,2,0,P|144:290|112:232,1,135,2|0,1:2|0:0,0:0:0:0:
400,152,33881,2,0,P|367:93|351:27,1,135,2|0,3:2|0:0,0:0:0:0:
272,0,34131,5,2,2:2:0:0:
272,0,34381,1,2,2:2:0:0:
272,0,34631,1,2,2:2:0:0:
245,379,34881,1,2,2:2:0:0:
245,379,35006,1,2,2:2:0:0:
245,379,35131,1,2,2:2:0:0:
0,0,35631,6,0,P|96:0|109:110,1,202.5,6|0,1:2|0:0,0:0:0:0:
138,85,35881,2,0,P|138:114|168:154,1,67.5,2|0,3:2|0:0,0:0:0:0:
361,0,36131,6,0,P|358:71|226:195,1,253.125,6|0,1:2|0:0,0:0:0:0:
252,206,36381,2,0,P|216:212|179:250,1,67.5,2|0,3:2|0:0,0:0:0:0:
56,176,36631,2,0,P|54:209|44:241,1,67.5,2|0,3:2|0:0,0:0:0:0:
240,304,36881,2,0,P|229:336|228:369,1,67.5,2|0,3:2|0:0,0:0:0:0:
112,360,37131,1,10,3:2:0:0:
112,360,37381,1,2,3:2:0:0:
321,256,37631,2,0,L|524:225,1,202.5,2|0,1:2|0:0,0:0:0:0:
511,239,37881,2,0,P|471:252|449:281,1,67.5,2|0,3:2|0:0,0:0:0:0:
364,163,38131,2,0,P|359:120|345:83,1,67.5,6|0,2:2|0:0,0:0:0:0:
504,72,38381,2,0,P|494:39|491:6,1,67.5,2|0,3:2|0:0,0:0:0:0:
200,160,38631,6,0,P|102:188|1:197,1,202.5,6|0,1:2|0:0,0:0:0:0:
2,197,38881,2,0,P|99:168|200:159,1,202.5,2|0,3:2|0:0,0:0:0:0:
125,295,39131,6,0,P|89:173|78:47,1,253.125,14|0,1:2|0:0,0:0:0:0:
78,47,39381,2,0,P|113:168|124:294,1,253.125,2|0,2:2|0:0,0:0:0:0:
15,363,39631,6,0,P|131:313|255:295,1,253.125,6|0,1:2|0:0,0:0:0:0:
360,224,39881,2,0,P|399:239|432:271,1,67.5,2|0,3:2|0:0,0:0:0:0:
512,176,40131,6,0,P|398:130|307:39,1,253.125,6|0,1:2|0:0,0:0:0:0:
307,39,40381,2,0,P|349:70|399:88,1,101.250003862381,2|0,3:2|0:0,0:0:0:0:
512,280,40631,2,0,P|496:301|487:326,1,50.6250019311906,2|0,3:2|0:0,0:0:0:0:
493,341,40756,1,0,0:0:0:0:
289,355,40881,2,0,P|334:293|360:221,1,151.875005793572,2|0,3:2|0:0,0:0:0:0:
216,112,41131,2,0,P|196:62|185:11,1,101.250003862381,10|0,3:2|0:0,0:0:0:0:
52,277,41381,2,0,P|45:227|24:181,1,101.250003862381,2|0,3:2|0:0,0:0:0:0:
96,8,41631,1,2,1:2:0:0:
96,8,41881,1,2,3:2:0:0:
5,348,42131,5,6,2:2:0:0:
85,357,42256,1,2,2:2:0:0:
165,366,42381,1,2,3:2:0:0:
246,375,42506,1,2,2:2:0:0:
326,384,42631,1,6,1:2:0:0:
512,120,42881,1,2,3:2:0:0:
296,0,43131,2,0,P|310:72|327:131,1,135,14|0,1:2|0:0,0:0:0:0:
152,80,43381,2,0,P|174:146|187:219,1,135,2|0,2:2|0:0,0:0:0:0:
166,201,43631,5,2,2:2:0:0:
504,224,44131,6,0,P|400:240|400:368,1,253.125,6|0,1:2|0:0,0:0:0:0:
398,366,44381,2,0,P|458:330|517:338,1,101.250003862381,2|0,3:2|0:0,0:0:0:0:
264,272,44631,2,0,P|204:308|145:300,1,101.250003862381,2|0,3:2|0:0,0:0:0:0:
416,0,44881,1,2,3:2:0:0:
400,88,45006,2,0,P|437:104|460:120,1,50.6250019311906,2|0,2:2|0:0,0:0:0:0:
190,25,45131,6,0,P|203:88|231:162,1,101.250003862381,10|0,3:2|0:0,0:0:0:0:
104,264,45381,2,0,P|78:241|10:229,1,101.250003862381,2|0,3:2|0:0,0:0:0:0:
32,40,45631,2,0,P|108:34|192:8,1,135,2|0,1:2|0:0,0:0:0:0:
320,200,45881,2,0,P|385:183|452:178,1,101.250003862381,2|0,3:2|0:0,0:0:0:0:
413,202,46131,5,2,2:2:0:0:
413,202,46256,1,2,2:2:0:0:
413,202,46381,1,2,2:2:0:0:
128,232,46631,1,2,2:2:0:0:
128,232,46756,1,0,0:0:0:0:
128,232,46881,1,2,2:2:0:0:
128,232,47006,1,0,0:0:0:0:
134,347,47131,6,0,P|78:309|13:296,1,135,14|0,1:2|0:0,0:0:0:0:
384,40,47381,2,0,P|440:78|506:92,1,135,2|0,2:2|0:0,0:0:0:0:
179,7,47631,2,0,P|166:72|128:128,1,135,6|0,1:2|0:0,0:0:0:0:
333,369,47881,2,0,P|347:303|384:248,1,135,2|0,3:2|0:0,0:0:0:0:
285,23,48131,6,0,L|225:359,1,337.5,6|0,1:2|0:0,0:0:0:0:
136,384,48506,1,0,0:0:0:0:
0,352,48631,2,0,P|32:336|72:328,1,67.5,2|0,3:2|0:0,0:0:0:0:
72,320,48756,1,0,0:0:0:0:
0,183,48881,2,0,P|92:224|191:247,1,202.5,2|0,3:2|0:0,0:0:0:0:
304,384,49131,2,0,P|347:357|394:339,1,101.250003862381,10|0,3:2|0:0,0:0:0:0:
488,96,49381,2,0,P|444:122|397:140,1,101.250003862381,2|0,3:2|0:0,0:0:0:0:
408,352,49631,2,0,P|427:274|459:201,1,151.875005793572,2|0,1:2|0:0,0:0:0:0:
376,128,49881,2,0,P|396:80|408:30,1,101.250003862381,2|0,3:2|0:0,0:0:0:0:
512,0,50131,5,2,2:2:0:0:
512,0,50256,1,2,2:2:0:0:
512,0,50381,1,2,2:2:0:0:
512,0,50506,1,2,2:2:0:0:
512,0,50631,1,2,2:2:0:0:
352,224,50881,1,2,2:2:0:0:
454,205,51131,1,2,2:2:0:0:
165,0,51381,6,0,P|232:36|306:53,1,151.875005793572,6|0,2:2|0:0,0:0:0:0:
306,53,51631,2,0,P|239:16|165:0,1,151.875005793572,6|0,1:2|0:0,0:0:0:0:
96,304,51881,2,0,P|46:318|2:345,1,101.250003862381,2|0,3:2|0:0,0:0:0:0:
0,168,52131,6,0,P|96:186|200:193,1,202.5,6|0,1:2|0:0,0:0:0:0:
288,360,52381,2,0,P|356:365|423:377,1,135,2|0,3:2|0:0,0:0:0:0:
484,169,52631,2,0,P|440:115|358:234,1,270,2|2,3:2|3:2,0:0:0:0:
190,294,53006,1,2,2:2:0:0:
190,294,53131,1,10,3:2:0:0:
200,193,53256,1,2,2:2:0:0:
208,96,53381,1,2,3:2:0:0:
216,0,53506,1,2,2:2:0:0:
27,11,53631,6,0,P|175:42|326:56,1,303.750011587143,2|0,1:2|0:0,0:0:0:0:
440,0,54131,1,6,2:2:0:0:
440,0,54256,1,2,2:2:0:0:
416,88,54381,1,2,3:2:0:0:
416,88,54506,1,2,2:2:0:0:
512,106,54631,6,0,P|432:130|447:234,1,202.5,6|0,1:2|0:0,0:0:0:0:
355,271,54881,2,0,P|369:320|301:374,1,135,2|2,3:2|2:2,0:0:0:0:
131,292,55131,6,0,P|182:214|268:251,1,202.5,14|0,1:2|0:0,0:0:0:0:
226,338,55381,1,2,2:2:0:0:
226,338,55506,1,2,2:2:0:0:
56,224,55631,2,0,P|40:152|-16:32,1,202.5,6|0,1:2|0:0,0:0:0:0:
86,25,55881,2,0,P|70:89|40:131,1,101.250003862381,2|0,3:2|0:0,0:0:0:0:
8,320,56131,6,0,P|78:270|437:122,1,472.5,6|0,1:2|0:0,0:0:0:0:
432,122,56631,2,0,P|425:89|425:65,1,50.6250019311906,2|0,3:2|0:0,0:0:0:0:
434,60,56756,1,0,0:0:0:0:
240,0,56881,2,0,P|259:85|258:149,1,151.875005793572,2|0,3:2|0:0,0:0:0:0:
512,176,57131,2,0,P|480:226|449:256,1,101.250003862381,10|0,3:2|0:0,0:0:0:0:
376,200,57381,1,2,3:2:0:0:
376,200,57506,1,2,2:2:0:0:
395,336,57631,2,0,L|496:352,1,101.250003862381,2|0,1:2|0:0,0:0:0:0:
304,272,57881,2,0,L|288:372,1,101.250003862381,2|0,3:2|0:0,0:0:0:0:
450,255,58131,6,0,P|226:180|25:57,1,472.5,6|0,2:2|0:0,0:0:0:0:
25,57,58631,5,2,2:2:0:0:
25,57,58756,1,0,0:0:0:0:
25,57,58881,1,2,2:2:0:0:
200,304,59131,1,2,2:2:0:0:
128,368,59381,1,2,2:2:0:0:
128,368,59506,1,2,2:2:0:0:
128,368,59631,1,2,2:2:0:0:
212,27,60131,6,0,L|301:356,1,337.5,6|0,1:2|0:0,0:0:0:0:
272,368,60506,1,0,0:0:0:0:
384,264,60631,2,0,P|416:280|450:310,1,50.6250019311906,2|0,3:2|0:0,0:0:0:0:
432,304,60756,1,0,0:0:0:0:
360,176,60881,2,0,P|385:93|421:10,1,151.875005793572,2|0,3:2|0:0,0:0:0:0:
144,248,61131,6,0,P|167:306|185:367,1,101.250003862381,10|0,3:2|0:0,0:0:0:0:
410,32,61381,2,0,P|351:55|290:73,1,101.250003862381,2|0,3:2|0:0,0:0:0:0:
0,16,61631,2,0,P|103:24|87:116,1,202.500007724762,2|2,1:2|3:2,0:0:0:0:
208,112,62006,1,0,0:0:0:0:
315,67,62131,2,0,P|176:91|117:291,1,337.5,6|0,2:2|0:0,0:0:0:0:
120,272,62506,1,0,0:0:0:0:
57,330,62631,5,2,2:2:0:0:
57,330,62881,1,2,2:2:0:0:
57,330,63131,1,2,2:2:0:0:
57,330,63381,1,2,2:2:0:0:
57,330,63631,1,2,2:2:0:0:
300,352,64131,6,0,L|212:27,1,337.5,6|0,1:2|0:0,0:0:0:0:
200,24,64506,1,0,0:0:0:0:
275,101,64631,2,0,P|298:108|336:110,1,50.6250019311906,2|0,3:2|0:0,0:0:0:0:
333,103,64756,1,2,2:2:0:0:
486,62,64881,2,0,P|427:113|410:183,1,151.875005793572,2|0,3:2|0:0,0:0:0:0:
208,352,65131,6,0,P|176:307|118:286,1,101.250003862381,10|0,3:2|0:0,0:0:0:0:
24,88,65381,2,0,L|80:113,1,50.6250019311906,2|0,3:2|0:0,0:0:0:0:
95,118,65506,2,0,L|151:143,1,50.6250019311906,2|0,2:2|0:0,0:0:0:0:
216,104,65631,2,0,P|203:55|195:6,1,101.250003862381,2|2,1:2|2:2,0:0:0:0:
18,181,65881,2,0,P|31:230|40:280,1,101.250003862381,2|0,3:2|0:0,0:0:0:0:
456,368,66131,5,6,2:2:0:0:
505,320,66256,1,2,2:2:0:0:
493,254,66381,1,2,3:2:0:0:
430,226,66506,1,2,2:2:0:0:
373,263,66631,6,0,P|318:314|191:329,1,202.5,6|0,1:2|0:0,0:0:0:0:
195,330,66881,2,0,P|250:279|377:264,1,202.5,2|0,3:2|0:0,0:0:0:0:
321,379,67131,6,0,P|262:314|245:166,1,232.875004441738,14|0,1:2|0:0,0:0:0:0:
244,171,67381,2,0,P|302:235|319:383,1,232.875004441738,2|0,2:2|0:0,0:0:0:0:
112,216,67631,6,0,P|138:133|258:44,1,232.875004441738,6|0,1:2|0:0,0:0:0:0:
331,361,67881,2,0,P|274:372|184:334,1,151.875005793572,2|0,3:2|0:0,0:0:0:0:
333,93,68131,6,0,P|399:84|464:64,1,135,6|0,1:2|0:0,0:0:0:0:
504,232,68381,2,0,P|441:240|368:264,1,135,0|0,3:3|0:0,0:0:0:0:
88,376,68631,5,2,3:2:0:0:
72,306,68756,1,2,2:2:0:0:
56,237,68881,1,2,3:2:0:0:
40,168,69006,1,2,2:2:0:0:
24,99,69131,2,0,P|85:86|133:57,1,101.250003862381,10|0,3:2|0:0,0:0:0:0:
424,7,69381,5,2,3:2:0:0:
398,134,69506,1,2,2:2:0:0:
373,261,69631,2,0,L|447:219,1,50.6250019311906,2|0,1:2|0:0,0:0:0:0:
441,225,69756,2,0,L|515:183,1,50.6250019311906,2|0,2:2|0:0,0:0:0:0:
512,184,69881,1,2,3:2:0:0:
256,40,70131,5,2,2:2:0:0:
256,40,70256,1,2,2:2:0:0:
256,40,70381,1,2,2:2:0:0:
256,40,70506,1,2,2:2:0:0:
256,40,70631,1,2,2:2:0:0:
192,336,70881,1,2,2:2:0:0:
231,345,71006,1,2,2:2:0:0:
270,354,71131,1,2,2:2:0:0:
310,363,71256,1,2,2:2:0:0:
112,384,71631,6,0,P|71:331|6:317,1,135,6|0,1:2|0:0,0:0:0:0:
512,288,71881,2,0,P|485:348|427:379,1,135,2|0,3:2|0:0,0:0:0:0:
191,215,72131,6,0,P|311:159|455:135,1,253.125,6|0,1:2|0:0,0:0:0:0:
429,137,72381,2,0,L|399:256,1,67.5,2|0,3:2|0:0,0:0:0:0:
512,0,72631,2,0,L|448:18,1,67.5,2|0,3:2|0:0,0:0:0:0:
329,263,72881,2,0,L|345:311,1,33.75,2|0,3:2|0:0,0:0:0:0:
339,295,73006,1,2,2:2:0:0:
264,368,73131,2,0,P|220:343|172:330,1,101.25,10|0,3:2|0:0,0:0:0:0:
176,312,73381,2,0,P|133:320|107:335,1,67.5,2|0,3:2|0:0,0:0:0:0:
104,152,73631,1,2,1:2:0:0:
104,152,73881,1,2,3:2:0:0:
0,0,74131,6,0,P|24:72|144:56,1,202.5,6|0,2:2|0:0,0:0:0:0:
134,67,74381,2,0,P|141:25|167:-9,1,67.5,2|0,3:2|0:0,0:0:0:0:
190,193,74631,2,0,P|286:157|385:170,1,202.5,6|0,1:2|0:0,0:0:0:0:
383,169,74881,2,0,L|393:202,1,33.75,2|0,3:2|0:0,0:0:0:0:
392,201,75006,1,2,2:2:0:0:
336,312,75131,6,0,L|356:378,1,67.5,14|0,1:2|0:0,0:0:0:0:
480,232,75381,2,0,L|500:298,1,67.5,2|0,2:2|0:0,0:0:0:0:
344,320,75631,2,0,L|364:386,1,67.5,6|0,1:2|0:0,0:0:0:0:
488,240,75881,2,0,L|508:306,1,67.5,2|0,3:2|0:0,0:0:0:0:
344,0,76131,6,0,L|81:56,1,253.125,6|0,1:2|0:0,0:0:0:0:
96,52,76381,2,0,P|72:24|39:0,1,67.5,2|0,3:2|0:0,0:0:0:0:
271,37,76631,2,0,P|257:68|256:104,1,67.5,2|0,3:2|0:0,0:0:0:0:
407,103,76881,2,0,P|375:88|341:88,1,67.5,2|0,3:2|0:0,0:0:0:0:
208,184,77131,2,0,P|160:201|125:236,1,101.25,10|0,3:2|0:0,0:0:0:0:
112,216,77381,2,0,P|96:256|96:296,1,67.5,2|0,3:2|0:0,0:0:0:0:
16,120,77631,1,2,1:2:0:0:
16,120,77881,1,2,3:2:0:0:
216,384,78131,6,0,P|232:344|232:304,1,67.5,6|0,2:2|0:0,0:0:0:0:
336,240,78381,2,0,P|339:206|353:175,1,67.5,2|0,3:2|0:0,0:0:0:0:
254,101,78631,6,0,P|157:70|76:11,1,202.5,6|0,1:2|0:0,0:0:0:0:
76,11,78881,2,0,P|97:55|107:112,1,67.5,2|0,3:2|0:0,0:0:0:0:
368,176,79131,6,0,P|384:296|496:296,1,253.125,14|0,1:2|0:0,0:0:0:0:
494,296,79381,2,0,P|471:256|479:208,1,67.5,2|0,2:2|0:0,0:0:0:0:
512,16,79631,2,0,P|482:45|424:63,1,101.25,6|0,1:2|0:0,0:0:0:0:
448,80,79881,2,0,P|400:80|368:64,1,67.5,2|0,3:2|0:0,0:0:0:0:
256,0,80131,6,0,B|272:173|240:67|256:251,1,253.125,6|0,1:2|0:0,0:0:0:0:
256,252,80381,2,0,P|209:272|195:294,1,67.5,2|0,3:2|0:0,0:0:0:0:
16,192,80631,2,0,P|63:172|77:150,1,67.5,2|0,3:2|0:0,0:0:0:0:
263,345,80881,2,0,L|296:355,1,33.75,2|0,3:2|0:0,0:0:0:0:
296,355,81006,1,2,2:2:0:0:
376,304,81131,2,0,P|359:260|364:202,1,101.25,10|0,3:2|0:0,0:0:0:0:
350,199,81381,2,0,P|376:167|407:153,1,67.5,2|0,3:2|0:0,0:0:0:0:
256,0,81631,1,2,1:2:0:0:
256,0,81881,1,2,3:2:0:0:
400,64,82131,6,0,P|360:57|332:37,1,67.5,6|0,2:2|0:0,0:0:0:0:
256,224,82381,2,0,P|227:207|194:203,1,67.5,2|0,3:2|0:0,0:0:0:0:
8,144,82631,2,0,P|109:128|194:73,1,202.5,6|0,1:2|0:0,0:0:0:0:
192,74,82881,2,0,P|178:58|170:33,1,33.75,2|0,3:2|0:0,0:0:0:0:
173,46,83006,1,2,2:2:0:0:
120,256,83131,6,0,L|96:352,1,67.5,14|0,1:2|0:0,0:0:0:0:
312,352,83381,2,0,L|328:286,1,67.5,2|0,2:2|0:0,0:0:0:0:
107,261,83631,2,0,L|83:357,1,67.5,6|0,1:2|0:0,0:0:0:0:
299,357,83881,2,0,L|315:291,1,67.5,2|0,3:2|0:0,0:0:0:0:
512,0,84131,6,0,P|424:8|437:145,1,253.125,6|0,1:2|0:0,0:0:0:0:
433,143,84381,2,0,P|489:126|536:134,1,67.5,2|0,3:2|0:0,0:0:0:0:
240,67,84631,2,0,P|274:63|305:50,1,67.5,2|0,3:2|0:0,0:0:0:0:
488,216,84881,2,0,P|501:247|505:280,1,67.5,2|0,3:2|0:0,0:0:0:0:
344,160,85131,2,0,P|264:184|250:222,1,101.25,10|0,3:2|0:0,0:0:0:0:
240,176,85381,2,0,P|244:209|257:240,1,67.5,2|0,3:2|0:0,0:0:0:0:
384,352,85631,1,2,1:2:0:0:
384,352,85881,1,2,3:2:0:0:
504,280,86131,6,0,P|448:272|416:248,1,67.5,6|0,2:2|0:0,0:0:0:0:
264,360,86381,2,0,P|232:347|199:347,1,67.5,2|0,3:2|0:0,0:0:0:0:
0,383,86631,6,0,P|56:367|216:255,1,253.125,6|0,1:2|0:0,0:0:0:0:
214,257,86881,2,0,P|169:256|128:232,1,67.5,2|0,3:2|0:0,0:0:0:0:
1,7,87131,2,0,P|128:7|161:159,1,253.125,14|0,1:2|0:0,0:0:0:0:
110,166,87381,2,0,P|93:136|88:94,1,67.5,2|0,2:2|0:0,0:0:0:0:
260,22,87631,2,0,P|355:57|453:77,1,202.5,6|0,1:2|0:0,0:0:0:0:
454,77,87881,2,0,P|360:41|262:21,1,202.5,2|0,3:2|0:0,0:0:0:0:
512,0,88131,5,6,1:2:0:0:
