osu file format v14

[General]
AudioFilename: audio.mp3
AudioLeadIn: 0
PreviewTime: 79803
Countdown: 0
SampleSet: None
StackLeniency: 0.7
Mode: 0
LetterboxInBreaks: 0
SkinPreference:- YUGEN -
WidescreenStoryboard: 1

[Editor]
DistanceSpacing: 1.3
BeatDivisor: 6
GridSize: 32
TimelineZoom: 1.7

[Metadata]
Title:Ive Been Waiting
TitleUnicode:Ive Been Waiting
Artist:Lil Peep ILoveMakonnen feat. Fall Out Boy
ArtistUnicode:Lil Peep ILoveMakonnen feat. Fall Out Boy
Creator:Griffdog21
Version:Normal
Source:
Tags:Lil Peep, ive been waiting, hip hop, Fall Out Boy
BeatmapID:1988916
BeatmapSetID:952500

[Difficulty]
HPDrainRate:5
CircleSize:4
OverallDifficulty:4
ApproachRate:6
SliderMultiplier:1.4
SliderTickRate:1

[Events]
//Background and Video events
Video,0,"Lil_Peep_&_ILoveMakonnen_feat._Fall_Out_Boy_–_I’ve_Been_Waiting.mp4"
0,0,"maxresdefault.jpg",0,0
//Break Periods
//Storyboard Layer 0 (Background)
//Storyboard Layer 1 (Fail)
//Storyboard Layer 2 (Pass)
//Storyboard Layer 3 (Foreground)
//Storyboard Sound Samples

[TimingPoints]
650,461.538461538462,4,1,0,100,1,0

[Colours]
Combo1 : 64,0,64
Combo2 : 0,0,64
Combo3 : 128,64,0
Combo4 : 64,0,0
Combo5 : 64,0,128

[HitObjects]
160,160,7573,5,0,0:0:0:0:
192,256,8034,1,8,0:0:0:0:
288,320,8496,2,4,P|384:256|416:224,1,140
416,160,10342,1,0,0:0:0:0:
384,128,10573,1,0,0:0:0:0:
356,100,10803,1,0,0:0:0:0:
322,69,11265,1,0,0:0:0:0:
253,74,11957,1,0,0:0:0:0:
160,128,12188,1,0,0:0:0:0:
160,256,12650,1,0,0:0:0:0:
256,288,13111,1,0,0:0:0:0:
256,224,13573,6,4,L|256:64,1,140
254,64,14496,1,0,0:0:0:0:
224,64,14957,1,0,0:0:0:0:
192,128,15880,1,0,0:0:0:0:
320,128,16342,1,0,0:0:0:0:
96,288,17726,1,0,0:0:0:0:
224,160,18188,1,0,0:0:0:0:
352,32,18650,1,4,0:0:0:0:
224,32,19111,1,8,0:0:0:0:
352,32,19573,1,0,0:0:0:0:
288,96,20034,1,0,0:0:0:0:
224,160,20496,5,4,0:0:0:0:
224,160,21188,2,0,P|64:160|43:122,1,210
124,71,22342,1,0,0:0:0:0:
256,160,22803,1,8,0:0:0:0:
192,224,23265,1,0,0:0:0:0:
288,224,23726,1,0,0:0:0:0:
384,224,24188,1,0,0:0:0:0:
384,224,24650,5,12,0:0:0:0:
288,128,26034,1,0,0:0:0:0:
224,128,26496,1,8,0:0:0:0:
192,128,26957,1,0,0:0:0:0:
160,128,27419,1,0,0:0:0:0:
128,128,27880,1,0,0:0:0:0:
224,224,28342,1,0,0:0:0:0:
288,192,28803,5,4,0:0:0:0:
160,288,29265,1,0,0:0:0:0:
256,192,29726,1,0,0:0:0:0:
352,288,30188,1,8,0:0:0:0:
320,128,30650,1,0,0:0:0:0:
224,128,31111,1,0,0:0:0:0:
256,192,31573,1,0,0:0:0:0:
255,233,32034,1,12,0:0:0:0:
192,128,33419,1,0,0:0:0:0:
256,192,33880,1,8,0:0:0:0:
320,128,34342,1,0,0:0:0:0:
384,192,34803,1,0,0:0:0:0:
448,96,35265,1,0,0:0:0:0:
101,103,35726,1,8,0:0:0:0:
282,98,35957,1,0,0:0:0:0:
219,147,36188,5,4,0:0:0:0:
160,192,36650,1,0,0:0:0:0:
160,192,37111,1,0,0:0:0:0:
288,288,37419,1,0,0:0:0:0:
303,222,37803,1,0,0:0:0:0:
224,96,38265,1,0,0:0:0:0:
224,96,38496,1,0,0:0:0:0:
320,256,38957,1,0,0:0:0:0:
392,76,39419,1,8,0:0:0:0:
392,76,39726,6,4,L|284:142,1,116.666666666667
256,160,40342,1,0,0:0:0:0:
208,182,40803,2,8,P|135:291|134:297,1,140
219,327,41496,1,0,0:0:0:0:
286,289,41957,1,0,0:0:0:0:
357,260,42188,1,0,0:0:0:0:
429,249,42650,1,0,0:0:0:0:
416,160,43111,6,12,L|288:96,1,140
256,64,44496,1,0,0:0:0:0:
160,64,44957,1,8,0:0:0:0:
128,128,45419,1,0,0:0:0:0:
160,192,45880,1,0,0:0:0:0:
192,256,46342,1,0,0:0:0:0:
128,288,46803,1,8,0:0:0:0:
96,224,47265,1,0,0:0:0:0:
96,160,47726,1,0,0:0:0:0:
96,96,48188,6,0,P|192:64|224:96,1,140
224,128,49111,2,8,L|96:64,2,140
224,160,50496,1,8,0:0:0:0:
160,256,50957,1,8,0:0:0:0:
192,160,51419,1,4,0:0:0:0:
256,256,51880,1,0,0:0:0:0:
160,160,52342,1,8,0:0:0:0:
96,256,52803,1,0,0:0:0:0:
224,256,53496,1,0,0:0:0:0:
160,192,54188,1,8,0:0:0:0:
256,128,54650,1,0,0:0:0:0:
320,288,55111,1,0,0:0:0:0:
224,192,55573,1,0,0:0:0:0:
320,160,56034,1,8,0:0:0:0:
160,256,56496,1,0,0:0:0:0:
192,128,56957,5,0,0:0:0:0:
192,128,58342,1,0,0:0:0:0:
140,249,58803,1,0,0:0:0:0:
253,231,59265,1,0,0:0:0:0:
180,154,59726,5,8,0:0:0:0:
173,243,60188,1,4,0:0:0:0:
254,248,60880,1,0,0:0:0:0:
161,143,61573,1,8,0:0:0:0:
295,127,62034,1,4,0:0:0:0:
260,203,62496,1,0,0:0:0:0:
214,249,62957,1,0,0:0:0:0:
181,287,63419,1,8,0:0:0:0:
121,186,63880,1,0,0:0:0:0:
199,107,64111,1,0,0:0:0:0:
199,107,64342,1,0,0:0:0:0:
199,107,64573,5,4,0:0:0:0:
176,243,65726,1,0,0:0:0:0:
212,196,66188,1,0,0:0:0:0:
254,162,66650,1,0,0:0:0:0:
320,160,67342,1,0,0:0:0:0:
384,160,67573,2,0,P|384:256|352:288,1,140
320,288,69419,1,4,0:0:0:0:
256,288,69650,1,0,0:0:0:0:
192,288,69880,1,0,0:0:0:0:
128,288,70342,5,4,0:0:0:0:
192,192,71265,1,0,0:0:0:0:
256,128,71726,1,0,0:0:0:0:
288,192,72188,1,0,0:0:0:0:
352,192,72650,1,8,0:0:0:0:
416,192,72880,6,0,L|416:320,1,116.666666666667
416,320,73419,1,0,0:0:0:0:
320,320,73803,1,4,0:0:0:0:
286,235,74034,1,0,0:0:0:0:
256,160,74957,2,0,P|160:128|64:256,1,280
288,256,76803,1,0,0:0:0:0:
256,160,77265,1,0,0:0:0:0:
192,256,77726,1,0,0:0:0:0:
224,160,78650,1,0,0:0:0:0:
288,256,79111,1,0,0:0:0:0:
192,256,79573,5,4,0:0:0:0:
192,96,80034,2,0,L|256:96,3,46.6666666666667
256,96,80957,1,0,0:0:0:0:
192,256,81419,1,0,0:0:0:0:
229,161,81880,1,8,0:0:0:0:
273,262,82342,1,0,0:0:0:0:
338,198,82803,1,0,0:0:0:0:
290,155,83265,1,0,0:0:0:0:
212,162,83726,5,4,0:0:0:0:
171,189,84650,1,0,0:0:0:0:
138,150,85111,1,0,0:0:0:0:
184,64,85573,1,0,0:0:0:0:
266,132,86034,1,0,0:0:0:0:
301,163,86496,1,0,0:0:0:0:
342,201,86957,1,0,0:0:0:0:
301,291,87419,1,8,0:0:0:0:
301,291,87880,5,4,0:0:0:0:
128,160,88803,1,0,0:0:0:0:
128,256,89265,1,8,0:0:0:0:
224,192,89726,1,0,0:0:0:0:
320,128,90188,1,0,0:0:0:0:
320,224,90650,6,0,P|224:256|192:224,1,140
224,192,92496,1,0,0:0:0:0:
256,256,92957,1,8,0:0:0:0:
352,224,93419,1,0,0:0:0:0:
320,160,93880,1,0,0:0:0:0:
256,160,94342,1,0,0:0:0:0:
192,96,94803,6,8,L|224:96,6,23.3333333333333
96,96,95726,5,12,0:0:0:0:
256,192,96188,12,0,99880,0:0:0:0:
