osu file format v14

[General]
AudioFilename: audio.mp3
AudioLeadIn: 0
PreviewTime: 79803
Countdown: 0
SampleSet: Normal
StackLeniency: 0.7
Mode: 0
LetterboxInBreaks: 0
SkinPreference:- YUGEN -
WidescreenStoryboard: 1

[Editor]
DistanceSpacing: 1.3
BeatDivisor: 4
GridSize: 32
TimelineZoom: 2

[Metadata]
Title:Ive Been Waiting
TitleUnicode:Ive Been Waiting
Artist:Lil Peep ILoveMakonnen feat. Fall Out Boy
ArtistUnicode:Lil Peep ILoveMakonnen feat. Fall Out Boy
Creator:Griffdog21
Version:#$^% Me Up
Source:
Tags:Lil Peep, ive been waiting, hip hop, Fall Out Boy
BeatmapID:1988915
BeatmapSetID:952500

[Difficulty]
HPDrainRate:7
CircleSize:5
OverallDifficulty:8
ApproachRate:8.5
SliderMultiplier:1.4
SliderTickRate:1

[Events]
//Background and Video events
Video,0,"Lil_Peep_&_ILoveMakonnen_feat._Fall_Out_Boy_–_I’ve_Been_Waiting.mp4"
0,0,"maxresdefault.jpg",0,0
//Break Periods
2,56050,66022
//Storyboard Layer 0 (Background)
//Storyboard Layer 1 (Fail)
//Storyboard Layer 2 (Pass)
//Storyboard Layer 3 (Foreground)
//Storyboard Sound Samples

[TimingPoints]
235,461.538461538462,4,1,0,100,1,0
335,-50,4,1,0,100,0,0

[Colours]
Combo1 : 64,0,64
Combo2 : 0,0,64
Combo3 : 128,64,0
Combo4 : 64,0,0
Combo5 : 64,0,128

[HitObjects]
96,160,7620,6,0,L|224:96,1,140
395,234,8312,1,4,0:0:0:0:
129,269,8543,1,0,0:0:0:0:
160,64,8773,1,0,0:0:0:0:
256,352,9004,1,8,0:0:0:0:
352,128,9235,1,0,0:0:0:0:
96,192,9466,1,4,0:0:0:0:
160,288,10389,5,0,0:0:0:0:
245,78,10620,1,0,0:0:0:0:
320,288,10850,1,8,0:0:0:0:
128,160,11081,1,0,0:0:0:0:
352,160,11312,1,4,0:0:0:0:
352,160,11773,5,8,0:0:0:0:
128,160,12004,1,0,0:0:0:0:
233,50,12235,1,0,0:0:0:0:
288,64,12466,1,0,0:0:0:0:
265,196,12697,1,8,0:0:0:0:
345,129,12927,1,0,0:0:0:0:
416,64,13158,1,8,0:0:0:0:
96,64,13850,6,0,L|166:198,1,140,0|8,0:0|0:0,0:0:0:0:
256,192,14311,1,0,0:0:0:0:
256,192,14427,1,0,0:0:0:0:
256,192,14542,1,0,0:0:0:0:
96,128,14773,6,8,P|256:64|288:96,2,140
160,160,15697,2,0,P|288:192|384:160,1,140
355,178,16158,1,4,0:0:0:0:
64,64,17773,5,0,0:0:0:0:
160,192,18004,1,0,0:0:0:0:
256,64,18235,1,8,0:0:0:0:
352,192,18466,1,0,0:0:0:0:
192,122,18697,1,4,0:0:0:0:
300,125,19389,5,0,0:0:0:0:
332,276,19620,1,0,0:0:0:0:
56,95,19850,1,0,0:0:0:0:
96,256,20081,1,8,0:0:0:0:
224,96,20312,1,0,0:0:0:0:
224,256,20543,5,0,0:0:0:0:
224,256,20620,1,0,0:0:0:0:
224,256,20697,1,4,0:0:0:0:
128,128,21235,6,8,L|288:128,4,140
96,320,22389,1,4,0:0:0:0:
288,32,22620,1,0,0:0:0:0:
384,256,22850,1,8,0:0:0:0:
160,160,23081,1,0,0:0:0:0:
416,96,23312,1,0,0:0:0:0:
256,320,23543,1,0,0:0:0:0:
192,64,23773,1,8,0:0:0:0:
352,224,24004,1,0,0:0:0:0:
96,128,24235,2,8,L|224:32,2,140
134,322,25850,5,8,0:0:0:0:
352,160,26081,1,0,0:0:0:0:
99,212,26312,1,0,0:0:0:0:
141,64,26543,1,8,0:0:0:0:
290,294,26773,1,0,0:0:0:0:
320,96,27004,1,0,0:0:0:0:
144,158,27235,2,8,L|353:195,1,140
340,191,27697,1,0,0:0:0:0:
256,256,27927,1,4,0:0:0:0:
480,128,28389,5,8,0:0:0:0:
384,128,28620,1,0,0:0:0:0:
320,128,28735,1,0,0:0:0:0:
256,128,28850,1,0,0:0:0:0:
160,128,29081,1,0,0:0:0:0:
64,192,29273,5,12,0:0:0:0:
224,256,29543,1,0,0:0:0:0:
320,192,29773,1,0,0:0:0:0:
192,32,30004,1,0,0:0:0:0:
94,274,30235,1,8,0:0:0:0:
384,52,30466,1,0,0:0:0:0:
384,288,30697,1,0,0:0:0:0:
252,51,30927,1,0,0:0:0:0:
160,288,31158,1,8,0:0:0:0:
252,51,31389,1,0,0:0:0:0:
384,288,31620,1,0,0:0:0:0:
396,65,32081,5,8,0:0:0:0:
128,160,33466,1,0,0:0:0:0:
192,160,33697,2,8,L|352:160,1,140
256,160,34850,1,8,0:0:0:0:
256,160,35312,1,0,0:0:0:0:
256,160,35773,1,8,0:0:0:0:
256,160,36004,1,0,0:0:0:0:
256,160,36235,1,0,0:0:0:0:
256,160,36697,5,12,0:0:0:0:
92,319,37158,1,0,0:0:0:0:
92,319,37389,1,0,0:0:0:0:
232,70,37850,1,0,0:0:0:0:
267,303,38312,1,0,0:0:0:0:
384,64,38543,1,8,0:0:0:0:
96,64,39004,1,0,0:0:0:0:
96,160,39235,1,0,0:0:0:0:
256,256,39697,2,0,P|256:96|172:62,1,256.666666666667
130,60,40389,5,8,0:0:0:0:
70,98,40850,2,0,P|66:195|212:177,1,280
256,85,41543,1,0,0:0:0:0:
99,248,42004,1,0,0:0:0:0:
320,64,42235,1,8,0:0:0:0:
176,261,42697,2,0,P|326:253|362:222,1,186.666666666667
416,160,43389,2,0,B|512:0|352:32|288:32,1,256.666666666667
234,39,44543,5,0,0:0:0:0:
105,140,44773,1,0,0:0:0:0:
384,315,45004,1,8,0:0:0:0:
21,280,45235,1,0,0:0:0:0:
250,169,45466,1,4,0:0:0:0:
114,70,45927,5,8,0:0:0:0:
184,263,46389,1,0,0:0:0:0:
262,51,46850,1,8,0:0:0:0:
291,151,47312,1,0,0:0:0:0:
309,263,47773,1,12,0:0:0:0:
115,80,48235,1,0,0:0:0:0:
256,288,48696,1,8,0:0:0:0:
306,79,49158,1,0,0:0:0:0:
378,296,49620,1,12,0:0:0:0:
160,32,50081,5,0,0:0:0:0:
352,64,50312,1,0,0:0:0:0:
160,128,50543,1,8,0:0:0:0:
352,160,50773,1,0,0:0:0:0:
160,224,51004,1,0,0:0:0:0:
352,256,51235,1,0,0:0:0:0:
256,96,51466,1,8,0:0:0:0:
256,224,51697,1,4,0:0:0:0:
160,224,51927,6,0,P|64:160|64:128,1,140
64,123,52389,1,8,0:0:0:0:
305,285,52620,1,0,0:0:0:0:
356,249,52850,1,0,0:0:0:0:
384,224,53543,6,0,P|448:160|448:96,1,140
448,96,54004,1,0,0:0:0:0:
352,77,54235,1,8,0:0:0:0:
256,64,54466,1,0,0:0:0:0:
156,80,54697,1,0,0:0:0:0:
128,160,54927,1,0,0:0:0:0:
192,224,55158,1,8,0:0:0:0:
288,224,55389,1,0,0:0:0:0:
352,160,55620,1,0,0:0:0:0:
256,128,55850,1,0,0:0:0:0:
256,224,66697,5,0,0:0:0:0:
256,64,67389,1,0,0:0:0:0:
256,320,67620,1,0,0:0:0:0:
256,160,67850,1,0,0:0:0:0:
128,96,69466,5,0,0:0:0:0:
256,320,69697,1,0,0:0:0:0:
384,96,69927,1,8,0:0:0:0:
320,64,70158,1,0,0:0:0:0:
255,64,70389,6,0,B|162:107|162:107|160:126|160:126|198:227|279:147,1,280
314,91,71081,1,0,0:0:0:0:
314,91,71312,1,0,0:0:0:0:
384,286,71543,1,0,0:0:0:0:
64,192,71773,1,0,0:0:0:0:
224,64,72004,1,0,0:0:0:0:
384,192,72235,5,4,0:0:0:0:
256,288,72466,1,0,0:0:0:0:
480,32,72697,1,8,0:0:0:0:
256,128,72927,1,0,0:0:0:0:
32,32,73158,1,0,0:0:0:0:
385,288,73389,5,0,0:0:0:0:
353,288,73465,1,0,0:0:0:0:
322,286,73542,1,0,0:0:0:0:
291,282,73619,1,0,0:0:0:0:
261,275,73696,1,0,0:0:0:0:
231,265,73773,1,0,0:0:0:0:
202,252,73850,1,0,0:0:0:0:
176,236,73927,1,0,0:0:0:0:
151,217,74004,5,4,0:0:0:0:
114,118,74774,1,0,0:0:0:0:
192,224,76850,5,0,0:0:0:0:
192,128,77081,1,0,0:0:0:0:
271,77,77312,1,8,0:0:0:0:
352,128,77543,1,0,0:0:0:0:
352,224,77773,1,4,0:0:0:0:
64,64,78466,5,0,0:0:0:0:
161,308,78697,1,0,0:0:0:0:
275,134,78927,1,0,0:0:0:0:
416,320,79158,1,8,0:0:0:0:
448,128,79389,1,0,0:0:0:0:
288,64,79620,1,4,0:0:0:0:
256,192,80312,5,0,0:0:0:0:
389,98,80543,1,0,0:0:0:0:
242,74,80812,5,8,0:0:0:0:
202,90,80889,1,8,0:0:0:0:
164,104,80966,1,8,0:0:0:0:
131,135,81043,1,8,0:0:0:0:
115,173,81120,1,8,0:0:0:0:
111,221,81197,1,8,0:0:0:0:
134,263,81273,5,8,0:0:0:0:
234,194,81466,5,4,0:0:0:0:
360,337,81697,1,0,0:0:0:0:
360,107,81927,1,8,0:0:0:0:
95,262,82158,1,0,0:0:0:0:
181,77,82389,1,0,0:0:0:0:
239,318,82620,1,0,0:0:0:0:
64,64,82850,1,8,0:0:0:0:
416,288,83081,1,0,0:0:0:0:
64,288,83312,1,0,0:0:0:0:
416,64,83773,1,4,0:0:0:0:
361,78,84927,5,0,0:0:0:0:
85,311,85158,1,0,0:0:0:0:
131,59,85389,1,0,0:0:0:0:
403,293,85620,1,8,0:0:0:0:
264,58,85850,1,0,0:0:0:0:
111,178,86081,1,0,0:0:0:0:
410,144,86312,1,0,0:0:0:0:
268,328,86543,1,8,0:0:0:0:
256,32,86773,1,0,0:0:0:0:
256,320,87004,2,8,L|256:32,1,280
256,192,87927,5,4,0:0:0:0:
192,160,88620,1,0,0:0:0:0:
192,160,88735,1,0,0:0:0:0:
192,160,88850,1,0,0:0:0:0:
320,64,89081,5,0,0:0:0:0:
160,320,89312,1,8,0:0:0:0:
384,192,89543,1,0,0:0:0:0:
96,64,89773,1,0,0:0:0:0:
384,0,90004,1,0,0:0:0:0:
401,318,90235,1,8,0:0:0:0:
256,96,90466,1,0,0:0:0:0:
128,288,90696,5,0,0:0:0:0:
384,128,90927,1,0,0:0:0:0:
384,128,91043,1,0,0:0:0:0:
384,128,91158,1,8,0:0:0:0:
288,96,91389,1,4,0:0:0:0:
96,192,92543,5,0,0:0:0:0:
192,192,92773,1,0,0:0:0:0:
288,192,93004,1,8,0:0:0:0:
384,192,93235,1,0,0:0:0:0:
128,64,93466,1,0,0:0:0:0:
256,320,93697,1,0,0:0:0:0:
433,53,93927,1,8,0:0:0:0:
352,32,94158,2,0,P|256:96|355:176,1,280
448,160,94850,5,8,0:0:0:0:
417,213,94966,1,0,0:0:0:0:
376,259,95081,1,0,0:0:0:0:
291,292,95312,1,4,0:0:0:0:
256,192,95773,5,12,0:0:0:0:
256,192,96004,12,0,100389,0:0:0:0:
