osu file format v14

[General]
AudioFilename: audio.mp3
AudioLeadIn: 0
PreviewTime: 20950
Countdown: 0
SampleSet: None
StackLeniency: 0.7
Mode: 0
LetterboxInBreaks: 0
WidescreenStoryboard: 1

[Editor]
DistanceSpacing: 1.4
BeatDivisor: 2
GridSize: 4
TimelineZoom: 1

[Metadata]
Title:Star Shopping
TitleUnicode:Star Shopping
Artist:Lil Peep
ArtistUnicode:Lil Peep
Creator:- titan
Version:simple
Source:
Tags:kryptik lil peep part one 1 hip hop lo-fi rap emo
BeatmapID:1551859
BeatmapSetID:735102

[Difficulty]
HPDrainRate:3
CircleSize:2
OverallDifficulty:2
ApproachRate:1
SliderMultiplier:0.7
SliderTickRate:1

[Events]
//Background and Video events
0,0,"stars.jpg",0,0
//Break Periods
//Storyboard Layer 0 (Background)
//Storyboard Layer 1 (Fail)
//Storyboard Layer 2 (Pass)
//Storyboard Layer 3 (Foreground)
//Storyboard Sound Samples

[TimingPoints]
20950,645.161290322581,4,2,0,35,1,0
124175,-100,4,2,0,30,0,0
126756,-100,4,2,0,25,0,0
129337,-100,4,2,0,20,0,0
130627,-100,4,2,0,15,0,0
131917,-100,4,2,0,10,0,0
133208,-100,4,2,0,5,0,0

[Colours]
Combo1 : 62,106,151
Combo2 : 62,62,151

[HitObjects]
176,364,20950,6,0,P|184:296|152:232,1,140,0|8,1:0|0:0,0:0:0:0:
108,148,22885,1,0,1:0:0:0:
172,72,23530,2,0,L|312:64,1,140,0|8,1:0|0:0,0:0:0:0:
392,124,25466,1,0,0:0:0:0:
368,220,26111,6,0,P|360:288|392:352,1,140,0|8,1:0|0:0,0:0:0:0:
488,328,28046,1,0,0:0:0:0:
508,232,28691,2,0,L|500:92,1,140,0|8,0:0|0:0,0:0:0:0:
408,56,30627,1,0,1:0:0:0:
336,120,31272,6,0,P|268:128|204:96,1,140,0|8,1:0|0:0,0:0:0:0:
112,64,33207,1,0,1:0:0:0:
52,144,33852,2,0,L|60:284,1,140,0|8,1:0|0:0,0:0:0:0:
140,340,35788,1,0,0:0:0:0:
228,296,36433,6,0,P|296:288|360:320,1,140,0|8,1:0|0:0,0:0:0:0:
456,308,38368,1,0,0:0:0:0:
500,220,39013,2,0,L|492:80,1,140,0|8,0:0|0:0,0:0:0:0:
404,40,40949,1,0,1:0:0:0:
332,104,41595,6,0,B|316:172|316:172|256:224,1,140,0|8,1:0|0:0,0:0:0:0:
184,160,43530,1,0,1:0:0:0:
104,220,44175,2,0,L|96:360,1,140,0|8,1:0|0:0,0:0:0:0:
192,348,46111,1,0,0:0:0:0:
284,384,46756,6,0,B|329:330|329:330|397:314,1,140,0|8,1:0|0:0,0:0:0:0:
476,256,48691,1,0,0:0:0:0:
440,164,49336,2,0,L|300:156,1,140,0|8,0:0|0:0,0:0:0:0:
204,176,51272,1,0,1:0:0:0:
124,120,51917,6,0,B|70:165|70:165|54:233,1,140,0|8,1:0|0:0,0:0:0:0:
148,268,53852,1,0,1:0:0:0:
204,348,54497,2,0,L|344:356,1,140,0|8,1:0|0:0,0:0:0:0:
404,276,56433,1,0,0:0:0:0:
340,200,57078,6,0,B|286:154|286:154|270:86,1,140,0|8,1:0|0:0,0:0:0:0:
220,4,59013,1,0,0:0:0:0:
140,60,59659,2,0,L|0:68,1,140,0|8,0:0|0:0,0:0:0:0:
28,164,61594,1,0,1:0:0:0:
0,260,62240,6,0,B|88:276|44:228|160:240,1,140,0|8,1:0|0:0,0:0:0:0:
188,156,64175,1,0,1:0:0:0:
280,192,64820,2,0,L|420:184,1,140,0|8,1:0|0:0,0:0:0:0:
480,108,66756,1,0,0:0:0:0:
412,36,67401,6,0,B|324:20|368:68|252:56,1,140,0|8,1:0|0:0,0:0:0:0:
184,28,69336,1,0,0:0:0:0:
152,120,69981,2,0,L|160:260,1,140,0|8,0:0|0:0,0:0:0:0:
240,320,71917,1,0,1:0:0:0:
324,268,72562,6,0,B|412:252|368:300|484:288,1,140,0|8,1:0|0:0,0:0:0:0:
508,204,74497,1,0,1:0:0:0:
448,128,75142,2,0,L|308:120,1,140,0|8,1:0|0:0,0:0:0:0:
240,192,77078,1,0,0:0:0:0:
144,172,77723,6,0,B|128:260|176:216|164:332,1,140,0|8,1:0|0:0,0:0:0:0:
244,368,79658,1,0,0:0:0:0:
300,288,80304,2,0,L|440:280,1,140,0|8,0:0|0:0,0:0:0:0:
480,192,82239,1,0,1:0:0:0:
420,116,82885,6,0,B|364:128|364:128|268:100,1,140,0|8,1:0|0:0,0:0:0:0:
192,72,84820,1,0,1:0:0:0:
148,160,85465,2,0,L|156:300,1,140,0|8,1:0|0:0,0:0:0:0:
92,376,87401,1,0,0:0:0:0:
4,332,88046,6,0,B|-8:276|-8:276|20:180,1,140,0|8,1:0|0:0,0:0:0:0:
76,120,89981,1,0,0:0:0:0:
60,24,90626,2,0,L|200:16,1,140,0|8,0:0|0:0,0:0:0:0:
276,76,92562,1,0,1:0:0:0:
372,100,93208,6,0,B|384:156|384:156|356:252,1,140,0|8,1:0|0:0,0:0:0:0:
268,272,95143,1,0,1:0:0:0:
208,348,95788,2,0,L|68:340,1,140,0|8,1:0|0:0,0:0:0:0:
16,256,97724,1,0,0:0:0:0:
72,176,98369,6,0,B|128:188|128:188|224:160,1,140,0|8,1:0|0:0,0:0:0:0:
256,80,100304,1,0,0:0:0:0:
344,128,100949,2,0,L|484:136,1,140,0|8,0:0|0:0,0:0:0:0:
512,232,102885,1,0,1:0:0:0:
452,308,103530,6,0,B|412:316|392:344|392:344|360:324|316:328,1,140,0|8,1:0|0:0,0:0:0:0:
232,356,105465,1,0,1:0:0:0:
164,288,106110,2,0,B|156:244|176:216|176:216|168:152,1,140,0|8,1:0|0:0,0:0:0:0:
120,64,108046,1,0,0:0:0:0:
196,4,108691,6,0,B|236:12|256:40|256:40|288:20|321:23,1,140,0|8,1:0|0:0,0:0:0:0:
368,108,110626,1,0,0:0:0:0:
456,156,111272,2,0,B|464:200|444:228|444:228|452:292,1,140,0|8,0:0|0:0,0:0:0:0:
368,344,113207,1,0,1:0:0:0:
288,284,113853,6,0,B|248:292|228:320|228:320|196:300|152:304,1,140,0|8,1:0|0:0,0:0:0:0:
100,228,115788,1,0,1:0:0:0:
128,136,116433,2,0,B|172:144|200:124|200:124|264:132,1,140,0|8,1:0|0:0,0:0:0:0:
352,92,118369,1,0,0:0:0:0:
420,160,119014,6,0,B|423:193|403:225|403:225|431:245|439:285,1,140,0|8,1:0|0:0,0:0:0:0:
396,372,120949,1,0,0:0:0:0:
304,336,121595,2,0,B|260:328|232:348|232:348|168:340,1,140,0|8,0:0|0:0,0:0:0:0:
120,252,123530,1,0,1:0:0:0:
256,192,124175,12,0,134498,0:0:0:0:
