osu file format v14

[General]
AudioFilename: audio.mp3
AudioLeadIn: 0
PreviewTime: -1
Countdown: 1
SampleSet: Normal
StackLeniency: 0.7
Mode: 0
LetterboxInBreaks: 0
WidescreenStoryboard: 0

[Editor]
DistanceSpacing: 0.8
BeatDivisor: 8
GridSize: 32
TimelineZoom: 1

[Metadata]
Title:Save That Shit (prod. by smokeasac & IIVI)
TitleUnicode:Save That Shit (prod. by smokeasac & IIVI)
Artist:Lil Peep
ArtistUnicode:Lil Peep
Creator:[ KronixWolff ]
Version:Another Lonely Road
Source:Soundcloud sound cloud clout Lil Peep ☆LiL PEEP☆ smokeasac & IIVI
Tags:Lil Peep ☆LiL PEEP☆ Save That Shit smokeasac IIVI LoFi Rap Soundcloud
BeatmapID:1489445
BeatmapSetID:704068

[Difficulty]
HPDrainRate:6
CircleSize:4
OverallDifficulty:7
ApproachRate:10
SliderMultiplier:2.99999990463257
SliderTickRate:1

[Events]
//Background and Video events
0,0,"lil_peep_by_blue_bri-dbndq8m.png",0,0
//Break Periods
//Storyboard Layer 0 (Background)
//Storyboard Layer 1 (Fail)
//Storyboard Layer 2 (Pass)
//Storyboard Layer 3 (Foreground)
//Storyboard Sound Samples

[TimingPoints]
3798.14285714286,564.537735849056,4,1,0,100,1,0

[HitObjects]
160,352,18193,5,0,0:0:0:0:
320,256,18476,1,0,0:0:0:0:
416,256,18758,2,0,L|480:96,1,149.999995231628
384,64,20452,1,0,0:0:0:0:
256,288,20734,1,0,0:0:0:0:
128,192,21016,1,0,0:0:0:0:
128,288,22710,5,0,0:0:0:0:
384,64,22992,1,0,0:0:0:0:
128,288,23274,2,0,L|256:192,1,149.999995231629
256,96,24968,1,0,0:0:0:0:
192,192,25250,1,0,0:0:0:0:
320,192,25532,1,0,0:0:0:0:
256,256,25815,1,0,0:0:0:0:
192,128,27297,5,0,0:0:0:0:
256,256,27579,1,0,0:0:0:0:
320,128,27861,1,0,0:0:0:0:
160,224,28143,1,0,0:0:0:0:
320,128,28426,1,0,0:0:0:0:
320,128,28708,1,0,0:0:0:0:
160,224,28990,1,0,0:0:0:0:
128,96,29555,1,0,0:0:0:0:
96,192,29837,1,0,0:0:0:0:
192,256,30119,6,0,P|288:224|320:128,1,187.499994039536
256,96,31813,2,0,L|128:224,1,149.999995231629
256,256,32377,1,0,0:0:0:0:
352,128,32660,1,0,0:0:0:0:
160,128,32942,1,0,0:0:0:0:
352,256,33224,1,0,0:0:0:0:
256,96,33506,1,0,0:0:0:0:
160,256,33789,1,0,0:0:0:0:
384,160,36329,5,0,0:0:0:0:
256,256,36611,1,0,0:0:0:0:
256,96,36894,1,0,0:0:0:0:
448,64,37176,1,0,0:0:0:0:
64,160,37317,1,0,0:0:0:0:
448,256,37458,1,0,0:0:0:0:
128,320,37740,1,0,0:0:0:0:
416,192,38023,5,0,0:0:0:0:
256,64,38164,1,0,0:0:0:0:
192,224,38305,1,0,0:0:0:0:
288,160,38587,5,0,0:0:0:0:
256,224,38728,1,0,0:0:0:0:
320,224,38870,1,0,0:0:0:0:
192,96,39152,1,0,0:0:0:0:
224,256,39434,1,0,0:0:0:0:
384,192,39716,1,0,0:0:0:0:
288,32,39999,1,0,0:0:0:0:
160,128,40281,1,0,0:0:0:0:
256,64,40845,5,0,0:0:0:0:
160,192,40987,1,0,0:0:0:0:
256,288,41128,1,0,0:0:0:0:
352,192,41269,1,0,0:0:0:0:
256,64,41410,1,0,0:0:0:0:
352,192,41551,1,0,0:0:0:0:
256,288,41692,1,0,0:0:0:0:
160,192,41833,1,0,0:0:0:0:
160,64,41975,1,0,0:0:0:0:
352,64,42116,1,0,0:0:0:0:
256,288,42257,1,0,0:0:0:0:
352,256,42539,2,0,P|384:160|320:160,1,187.499994039536
256,192,43174,1,0,0:0:0:0:
384,160,43315,1,0,0:0:0:0:
352,256,43456,1,0,0:0:0:0:
128,64,43668,1,0,0:0:0:0:
96,160,43809,1,0,0:0:0:0:
192,128,43950,1,0,0:0:0:0:
256,64,44303,5,0,0:0:0:0:
384,224,44585,1,0,0:0:0:0:
256,256,44868,1,0,0:0:0:0:
256,192,45362,1,0,0:0:0:0:
256,256,45644,1,0,0:0:0:0:
320,224,45926,1,0,0:0:0:0:
256,192,46209,1,0,0:0:0:0:
256,352,46491,1,0,0:0:0:0:
416,256,46773,1,0,0:0:0:0:
192,160,47126,5,0,0:0:0:0:
192,288,47408,2,0,P|320:288|352:256,1,149.999995231629
256,192,47973,1,0,0:0:0:0:
288,128,48114,1,0,0:0:0:0:
320,192,48255,1,0,0:0:0:0:
416,64,48467,1,0,0:0:0:0:
224,96,48608,1,0,0:0:0:0:
128,192,48749,1,0,0:0:0:0:
64,256,48890,1,0,0:0:0:0:
32,320,49031,1,0,0:0:0:0:
128,320,49384,1,0,0:0:0:0:
160,288,49455,1,0,0:0:0:0:
192,256,49525,1,0,0:0:0:0:
224,224,49596,1,0,0:0:0:0:
256,192,49666,1,0,0:0:0:0:
288,160,49737,1,0,0:0:0:0:
320,128,49807,1,0,0:0:0:0:
352,96,49878,1,0,0:0:0:0:
384,64,49949,1,0,0:0:0:0:
224,64,50231,1,0,0:0:0:0:
224,256,50513,1,0,0:0:0:0:
416,256,50795,5,0,0:0:0:0:
416,64,51078,1,0,0:0:0:0:
224,64,51360,1,0,0:0:0:0:
320,256,51642,1,0,0:0:0:0:
416,160,51924,1,0,0:0:0:0:
320,64,52207,1,0,0:0:0:0:
256,160,52489,1,0,0:0:0:0:
