osu file format v14

[General]
AudioFilename: audio.mp3
AudioLeadIn: 0
PreviewTime: -1
Countdown: 1
SampleSet: Soft
StackLeniency: 1
Mode: 0
LetterboxInBreaks: 0
WidescreenStoryboard: 1

[Editor]
DistanceSpacing: 3.4
BeatDivisor: 8
GridSize: 16
TimelineZoom: 1

[Metadata]
Title:Save That Shit
TitleUnicode:Save That Shit
Artist:Lil Peep
ArtistUnicode:Lil Peep
Creator:ILoveTheUSO
Version:Insane
Source:
Tags:
BeatmapID:1554269
BeatmapSetID:735924

[Difficulty]
HPDrainRate:7
CircleSize:5
OverallDifficulty:5
ApproachRate:9
SliderMultiplier:1.4
SliderTickRate:1

[Events]
//Background and Video events
0,0,"dark_forest.jpg",0,0
//Break Periods
//Storyboard Layer 0 (Background)
//Storyboard Layer 1 (Fail)
//Storyboard Layer 2 (Pass)
//Storyboard Layer 3 (Foreground)
//Storyboard Sound Samples

[TimingPoints]
13.7058823529412,600,4,2,0,100,1,0
16201,1200,4,2,0,100,1,0
18380,600,4,2,0,100,1,0
36049,400,4,2,0,100,1,0
72833,600,4,2,0,100,1,0
90549,400,4,2,0,100,1,0

[HitObjects]
102,218,388,5,0,0:0:0:0:
154,63,613,1,0,0:0:0:0:
154,63,838,2,0,P|216:71|280:65,1,122.5
334,94,2788,5,0,0:0:0:0:
402,196,3088,2,0,P|392:217|341:264,1,87.5
143,282,5188,5,0,0:0:0:0:
139,116,5413,2,0,P|186:107|227:102,1,87.5
390,99,7513,6,0,B|390:154|359:169|356:255,1,157.5
228,313,9613,5,0,0:0:0:0:
146,147,9838,1,0,0:0:0:0:
146,147,10063,2,0,P|194:136|260:129,1,105
383,101,12088,5,0,0:0:0:0:
383,101,12313,2,0,P|386:174|383:194,1,87.5
174,305,14188,5,0,0:0:0:0:
112,181,14488,1,0,0:0:0:0:
112,181,14563,2,0,P|113:127|124:83,1,87.5
342,77,16501,6,0,B|286:166|286:166|304:252,1,192.5
379,201,18455,5,0,0:0:0:0:
456,246,18680,1,0,0:0:0:0:
358,284,18980,2,0,P|314:284|281:275,2,70
254,73,20780,5,0,0:0:0:0:
199,157,21005,1,0,0:0:0:0:
199,157,21230,2,0,P|157:187|137:211,2,70
322,94,23180,5,0,0:0:0:0:
358,220,23405,1,0,0:0:0:0:
358,220,23630,2,0,P|332:207|299:164,1,70
320,108,25505,5,0,0:0:0:0:
353,228,25730,1,0,0:0:0:0:
353,228,25880,2,0,P|304:206|275:204,1,70
171,86,27605,5,0,0:0:0:0:
156,189,27830,1,0,0:0:0:0:
156,189,28055,2,0,P|174:211|210:241,1,70
237,89,29930,5,0,0:0:0:0:
307,156,30155,1,0,0:0:0:0:
374,220,30380,1,0,0:0:0:0:
243,245,32255,5,0,0:0:0:0:
202,181,32480,1,0,0:0:0:0:
202,181,32705,2,0,P|223:144|245:122,1,70
241,101,34655,5,0,0:0:0:0:
335,189,34880,1,0,0:0:0:0:
335,189,35105,2,0,P|316:224|284:256,1,70
148,310,36530,6,0,P|142:284|137:214,1,87.5
280,98,37074,1,0,0:0:0:0:
280,98,37149,1,0,0:0:0:0:
280,98,37224,2,0,P|323:138|337:156,1,70
369,262,37599,5,0,0:0:0:0:
261,245,37799,1,0,0:0:0:0:
195,171,37999,1,0,0:0:0:0:
145,116,38249,2,0,P|124:158|115:204,1,87.5
157,270,38549,1,0,0:0:0:0:
344,99,38749,5,0,0:0:0:0:
344,99,38799,2,0,P|345:136|330:172,1,70
234,267,39249,1,0,0:0:0:0:
234,267,39299,1,0,0:0:0:0:
234,267,39349,2,0,P|221:218|219:187,1,70
321,42,39799,2,0,P|336:83|343:121,1,70
400,246,40199,5,0,0:0:0:0:
221,167,40349,2,0,P|210:194|205:246,1,70
94,310,41099,6,0,P|111:264|116:232,1,70
241,120,41649,1,0,0:0:0:0:
241,120,41699,1,0,0:0:0:0:
241,120,41749,2,0,P|302:113|324:114,1,70
381,300,42199,2,0,P|369:284|347:229,1,70
257,120,42649,1,0,0:0:0:0:
140,150,43249,6,0,B|124:165|106:226,1,70
223,286,43549,1,0,0:0:0:0:
329,79,43899,2,0,P|333:105|361:159,1,87.5
198,241,44349,1,0,0:0:0:0:
198,241,44399,1,0,0:0:0:0:
198,241,44449,2,0,P|162:211|144:179,1,70
283,103,44899,2,0,B|250:114|250:114|240:156,1,70
127,285,45499,5,0,0:0:0:0:
127,285,45699,2,0,P|120:232|120:190,1,87.5
193,268,46149,2,0,P|224:284|272:293,1,70
318,252,46599,1,0,0:0:0:0:
315,167,46899,1,0,0:0:0:0:
315,167,46949,1,0,0:0:0:0:
315,167,46999,2,0,P|292:136|265:112,1,70
169,116,47749,6,0,B|168:182|168:182|196:224,1,105
365,98,48449,2,0,P|377:188|371:226,1,122.5
325,292,48949,1,0,0:0:0:0:
234,282,49149,1,0,0:0:0:0:
234,282,49199,1,0,0:0:0:0:
234,282,49249,2,0,B|188:232|188:232|189:191,1,105
319,88,50099,6,0,P|327:122|327:164,1,70
195,186,50649,2,0,P|240:187|265:185,1,70
396,113,51149,2,0,B|411:170|411:170|368:145,1,105
238,119,51749,2,0,B|215:147|215:147|211:195,1,70
294,295,52249,2,0,P|311:258|320:207,1,87.5
181,79,52799,2,0,P|198:83|248:102,1,70
211,275,53249,1,0,0:0:0:0:
211,275,53399,2,0,B|207:220|206:218|207:219|207:219|248:183,1,105
384,91,53849,1,0,0:0:0:0:
384,91,53949,2,0,B|389:133|389:133|363:182,1,87.5
271,192,54399,5,0,0:0:0:0:
271,192,54449,1,0,0:0:0:0:
271,192,54499,2,0,B|282:228|282:228|328:253,1,87.5
380,200,54949,2,0,L|365:150,1,52.5
303,83,55199,2,0,B|262:78|261:78|261:78|227:105,1,70
213,268,55599,2,0,B|266:257|266:257|283:217,2,87.5
147,130,56349,2,0,P|156:168|168:192,1,52.5
388,76,56899,6,0,P|392:122|387:169,1,87.5
266,253,57299,1,0,0:0:0:0:
266,253,57349,2,0,B|224:187|224:187|219:126,1,140
351,85,58049,2,0,B|352:146|352:146|376:170|376:170|382:217,1,140
280,312,58599,1,0,0:0:0:0:
280,312,58649,2,0,P|244:254|229:207,1,105
290,78,59799,6,0,P|325:113|343:146,1,87.5
209,300,60299,1,0,0:0:0:0:
209,300,60349,1,0,0:0:0:0:
209,300,60399,2,0,P|194:235|193:213,1,87.5
275,285,60849,2,0,P|330:278|355:253,1,87.5
306,83,61249,5,0,0:0:0:0:
306,83,61299,1,0,0:0:0:0:
306,83,61349,2,0,B|243:84|243:84|204:122,1,105
354,140,61949,2,0,B|399:169|399:169|415:224,1,105
251,282,62499,2,0,B|213:228|213:228|195:176,1,105
340,63,63049,2,0,P|342:114|332:148,1,87.5
342,238,63399,5,0,0:0:0:0:
342,238,63449,1,0,0:0:0:0:
342,238,63499,2,0,P|285:244|279:244,2,52.5
121,308,64299,6,0,B|113:260|112:259|112:259|123:210,1,87.5
251,88,64649,2,0,P|276:120|312:151,1,87.5
361,282,64999,1,0,0:0:0:0:
361,282,65049,1,0,0:0:0:0:
361,282,65099,2,0,B|344:283|321:292|271:284,1,87.5
115,197,65499,2,0,P|181:172|219:166,1,105
338,86,65949,5,0,0:0:0:0:
338,86,66099,2,0,B|349:141|351:157|351:157|344:211,1,122.5
200,318,66549,2,0,P|187:269|181:237,1,70
260,99,67049,1,0,0:0:0:0:
366,156,67349,1,0,0:0:0:0:
366,156,67399,1,0,0:0:0:0:
366,156,67449,2,0,B|378:206|383:226|383:226|355:279,2,122.5
174,105,68799,6,0,P|141:129|166:98,1,105
256,328,69199,1,0,0:0:0:0:
256,328,69249,2,0,P|288:293|296:277,1,52.5
394,100,69599,2,0,B|396:131|396:131|355:127,1,70
236,102,69949,2,0,B|145:108|145:108|111:165,1,157.5
130,288,70499,5,0,0:0:0:0:
130,288,70549,2,0,P|220:271|226:268,1,87.5
331,80,70999,2,0,P|336:113|345:152,1,70
140,159,71349,2,0,L|120:119,2,35
263,323,71649,2,0,P|281:298|306:231,1,87.5
234,76,72249,1,0,0:0:0:0:
234,76,72299,1,0,0:0:0:0:
234,76,72349,2,0,P|185:84|145:83,2,87.5
381,199,73133,5,0,0:0:0:0:
209,266,73358,1,0,0:0:0:0:
209,266,73583,2,0,P|171:234|160:216,1,70
361,65,75158,5,0,0:0:0:0:
193,187,75383,1,0,0:0:0:0:
193,187,75608,2,0,P|212:221|233:248,1,70
134,255,77258,6,0,B|141:177|141:177|192:124,1,140
294,168,77933,2,0,B|252:189|252:189|223:219,1,87.5
386,276,78383,2,0,P|408:204|406:192,1,87.5
308,83,78908,2,0,P|271:83|230:91,1,70
175,304,79358,2,0,P|156:259|152:228,2,70
321,140,80033,2,0,P|317:170|290:225,1,87.5
176,150,80483,2,0,P|176:113|184:77,1,70
364,163,81083,1,0,0:0:0:0:
267,304,81308,2,0,B|229:264|229:264|218:222,1,87.5
291,97,81908,5,0,0:0:0:0:
291,97,81983,2,0,P|218:103|192:104,1,87.5
107,247,82433,1,0,0:0:0:0:
107,247,82508,2,0,P|160:256|205:262,1,87.5
193,281,84383,5,0,0:0:0:0:
326,137,84608,1,0,0:0:0:0:
326,137,84833,2,0,P|266:129|240:126,1,87.5
126,276,86408,6,0,P|132:247|151:199,1,70
353,61,86933,2,0,P|351:99|333:137,1,70
292,338,87458,2,0,P|265:292|255:268,1,70
144,80,87983,2,0,P|176:134|187:148,1,70
402,142,88583,2,0,P|365:163|330:166,1,70
109,285,89258,2,0,B|110:244|110:244|134:218|134:218|96:194|96:194|137:161|137:161,1,157.5
156,297,90158,2,0,B|223:302|223:302|260:279,1,105
87,169,90899,6,0,P|116:125|131:111,1,70
240,96,91449,2,0,P|240:129|219:163,1,70
334,149,92049,2,0,P|313:112|306:85,1,70
359,215,92499,2,0,B|374:270|374:270|357:303,1,87.5
257,314,92899,1,0,0:0:0:0:
160,304,93149,2,0,B|128:256|128:256|112:208,1,105
280,87,93649,1,0,0:0:0:0:
280,87,93699,1,0,0:0:0:0:
280,87,93749,2,0,P|299:127|305:173,1,87.5
127,294,94149,2,0,B|112:207|112:207|126:154,2,140
272,219,95399,5,0,0:0:0:0:
272,219,95449,1,0,0:0:0:0:
272,219,95499,2,0,P|297:182|315:146,1,70
151,86,95949,2,0,P|123:105|96:153,1,87.5
192,313,96399,1,0,0:0:0:0:
192,313,96449,2,0,B|259:255|259:255|276:180,1,157.5
195,89,96999,2,0,P|155:90|141:82,2,52.5
403,104,97449,5,0,0:0:0:0:
403,104,97499,1,0,0:0:0:0:
403,104,97549,2,0,B|406:121|412:152|402:175,1,70
238,293,97999,2,0,B|191:268|191:268|171:208,1,105
221,60,98449,2,0,B|262:98|262:98|241:149,1,105
356,297,98799,1,0,0:0:0:0:
356,297,98849,2,0,P|376:266|387:207,1,87.5
305,102,99249,2,0,B|236:103|236:103|185:142,1,122.5
123,322,99949,6,0,B|127:254|127:254|182:270,1,122.5
197,204,100499,2,0,B|201:136|201:136|256:152,1,122.5
329,262,100999,2,0,B|409:269|409:269|388:210,1,140
246,77,101549,1,0,0:0:0:0:
246,77,101599,1,0,0:0:0:0:
246,77,101649,2,0,B|153:115|152:115|152:115|133:176,1,157.5
