osu file format v14

[General]
AudioFilename: audio.mp3
AudioLeadIn: 0
PreviewTime: 64176
Countdown: 1
SampleSet: Normal
StackLeniency: 0.7
Mode: 0
LetterboxInBreaks: 0
WidescreenStoryboard: 0

[Editor]
Bookmarks: 9350,18488,36763,45901,55038,64176,73314,82451,91589,100726,109864,119002,137277,146415
DistanceSpacing: 5.1
BeatDivisor: 4
GridSize: 4
TimelineZoom: 3.299999

[Metadata]
Title:Benz Truck (Azide x Rfen Tribute)
TitleUnicode:Benz Truck (Azide x Rfen Tribute)
Artist:Lil Peep
ArtistUnicode:Lil Peep
Creator:dima21
Version:WaRNiNG
Source:
Tags:
BeatmapID:1538297
BeatmapSetID:728650

[Difficulty]
HPDrainRate:3.6
CircleSize:3.4
OverallDifficulty:8.7
ApproachRate:9.5
SliderMultiplier:2.5
SliderTickRate:0.5

[Events]
//Background and Video events
0,0,"skullcandy_20171011-lil-peep-masked-gorilla-0400-1300x867.jpg",0,0
//Break Periods
2,116845,117905
//Storyboard Layer 0 (Background)
//Storyboard Layer 1 (Fail)
//Storyboard Layer 2 (Pass)
//Storyboard Layer 3 (Foreground)
//Storyboard Sound Samples

[TimingPoints]
213,285.551113649343,4,1,0,40,1,0
9350,-142.857142857143,4,1,0,40,0,0
13348,-125,4,1,0,40,0,0
13919,-111.111111111111,4,1,0,40,0,0
14490,-142.857142857143,4,1,0,40,0,0
18488,-111.111111111111,4,1,0,40,0,0
22485,-111.111111111111,4,1,0,5,0,0
23057,-111.111111111111,4,1,0,40,0,0
27054,-200,4,1,0,40,0,0
27625,-99.9999999999999,4,1,0,40,0,0
29624,-142.857142857143,4,1,0,40,0,0
29910,-99.9999999999999,4,1,0,40,0,0
36763,-1000,4,1,0,5,0,0
45901,-100,4,1,0,40,0,0
52754,-200,4,1,0,40,0,0
55038,-71.4285714285714,4,1,0,40,0,1
63605,-200,4,1,0,40,0,1
64176,-71.4285714285714,4,1,0,40,0,1
72742,-200,4,1,0,40,0,1
73314,-111.111111111111,4,1,0,40,0,0
76740,-142.857142857143,4,1,0,40,0,0
77311,-200,4,1,0,40,0,0
77882,-200,4,1,0,5,0,0
82451,-90.9090909090909,4,1,0,40,0,0
91018,-125,4,1,0,40,0,0
91589,-83.3333333333333,4,1,0,40,0,0
100726,-1000,4,1,0,5,0,0
109864,-76.9230769230769,4,1,0,40,0,0
116717,-200,4,1,0,40,0,0
119002,-66.6666666666667,4,1,0,5,0,1
120144,-100,4,1,0,20,0,1
121286,-66.6666666666667,4,1,0,40,0,1
127568,-200,4,1,0,40,0,1
134993,-66.6666666666667,4,1,0,40,0,1
135278,-76.9230769230769,4,1,0,40,0,1
135564,-90.9090909090909,4,1,0,40,0,1
135849,-111.111111111111,4,1,0,40,0,1
136706,-142.857142857143,4,1,0,40,0,1
137277,-83.3333333333333,4,1,0,40,0,0
137377,-100,4,1,0,40,0,0
145844,-166.666666666667,4,1,0,40,0,0
146986,-83.3333333333333,4,1,0,30,0,0
153268,-166.666666666667,4,1,0,20,0,0
155552,-25,4,1,0,5,0,0

[HitObjects]
256,192,8208,12,0,9279,0:0:0:0:
143,285,9350,6,0,B|145:238|155:204|155:204|141:187|141:187|152:144|151:111,1,174.999994659424
63,271,9921,6,0,P|79:335|206:335,1,174.999994659424
232,128,10492,6,0,P|211:63|100:51,1,174.999994659424
63,271,11063,6,0,L|127:239,3,43.749998664856
232,128,11349,2,0,L|142:178,1,87.499997329712
320,160,11635,6,0,B|346:142|359:118|359:118|385:115|385:115|405:93|405:93|449:86|480:56,1,174.999994659424
352,320,12206,6,0,B|335:273|310:248|310:248|326:208|320:152,1,174.999994659424
171,92,12777,6,0,B|226:108|261:100|261:100|287:140|355:180,1,174.999994659424
140,228,13348,6,0,P|210:258|164:260,1,200
61,259,13919,6,0,P|80:150|173:91,1,224.999993133545
326,44,14490,2,0,B|283:58|237:42|237:42|219:71|150:100,1,174.999994659424
328,48,15061,2,0,B|383:75|424:72|424:72|426:123|459:165,1,174.999994659424
213,103,15632,6,0,L|285:103,3,43.749998664856
125,151,15918,2,0,P|125:71|141:39,1,87.499997329712
328,48,16203,6,0,B|321:113|328:180|328:180|310:153|296:144,1,174.999994659424
186,310,16774,2,0,P|190:254|188:192,1,87.499997329712
336,48,17060,2,0,P|330:97|338:171,1,87.499997329712
371,310,17346,6,0,B|372:328|359:353|359:353|370:274|348:207,1,174.999994659424
336,48,17917,6,0,B|335:30|348:5|348:5|337:84|359:151,1,174.999994659424
104,192,18488,6,0,B|87:131|87:131|80:32,1,112.499996566773
216,128,18773,2,0,B|234:187|234:187|240:248,1,112.499996566773
136,352,19059,1,0,0:0:0:0:
136,352,19202,1,0,0:0:0:0:
216,128,19344,2,0,B|270:93|270:93|360:88,1,112.499996566773
416,184,19630,6,0,B|362:219|362:219|272:224,1,112.499996566773
465,113,19916,2,0,P|497:177|481:241,1,112.499996566773
408,344,20201,1,0,0:0:0:0:
317,156,20344,1,0,0:0:0:0:
317,156,20487,1,0,0:0:0:0:
408,344,20629,1,0,0:0:0:0:
196,313,20772,6,0,B|137:291|137:291|100:257,1,112.499996566773
112,88,21058,5,0,0:0:0:0:
112,88,21129,1,0,0:0:0:0:
112,88,21201,1,0,0:0:0:0:
257,250,21343,2,0,P|280:328|257:386,1,112.499996566773
88,376,21629,1,0,0:0:0:0:
88,376,21772,1,0,0:0:0:0:
225,170,21914,6,0,P|281:170|337:218,1,112.499996566773
135,163,22200,6,0,P|191:91|237:77,1,112.499996566773
364,48,22485,6,0,P|380:48|412:56,14,28.1249991416931
208,83,23057,6,0,P|161:114|135:163,1,112.499996566773
280,32,23342,2,0,P|206:-1|139:24,1,112.499996566773
0,128,23628,1,0,0:0:0:0:
0,128,23770,1,0,0:0:0:0:
143,271,23913,2,0,B|147:239|134:221|134:221|141:200|141:200|131:170|135:127,1,112.499996566773
336,224,24199,6,0,B|324:185|324:185|328:232|313:302,1,112.499996566773
249,160,24484,2,0,P|293:108|377:128,1,112.499996566773
480,200,24770,1,0,0:0:0:0:
296,352,24913,1,0,0:0:0:0:
296,352,25055,1,0,0:0:0:0:
480,200,25198,1,0,0:0:0:0:
249,159,25341,6,0,B|268:133|279:110|279:110|303:111|333:103,2,112.499996566773
152,304,25769,1,0,0:0:0:0:
120,112,25912,2,0,B|88:85|80:58|80:58|53:50|17:16,1,112.499996566773,0|0,2:0|2:0,2:0:0:0:
212,14,26198,1,0,0:0:0:0:
212,14,26340,1,0,0:0:0:0:
82,255,26483,6,0,B|111:228|144:214|144:214|177:228|210:223,1,112.499996566773
59,335,26769,2,0,P|5:285|11:215,1,112.499996566773
217,146,27054,6,0,P|216:81|205:148,1,187.5
304,181,27625,6,0,P|322:110|296:32,1,125
115,26,27911,1,0,0:0:0:0:
312,48,28054,1,0,0:0:0:0:
360,250,28197,2,0,B|325:252|305:278|305:278|282:257|247:250,1,125
464,168,28482,5,0,0:0:0:0:
464,168,28625,1,0,0:0:0:0:
400,352,28768,1,0,0:0:0:0:
304,181,28910,1,0,0:0:0:0:
400,352,29053,6,0,B|424:309|419:277|419:277|439:260|456:232,1,125
353,71,29339,6,0,B|328:113|334:146|334:146|313:162|303:180,1,125
184,336,29624,2,0,B|216:304|216:304|240:256,1,87.499997329712
104,112,29910,6,0,P|168:144|120:136,1,250
28,186,30338,1,0,0:0:0:0:
250,15,30481,2,0,P|279:105|259:158,1,125
184,336,30766,5,0,0:0:0:0:
184,336,30909,1,0,0:0:0:0:
320,228,31052,2,0,B|360:193|381:150|381:150|374:192,1,125
309,313,31338,2,0,P|243:261|258:177,1,125
248,16,31623,5,0,0:0:0:0:
248,16,31695,1,0,0:0:0:0:
248,16,31766,1,0,0:0:0:0:
237,224,31909,5,0,0:0:0:0:
390,60,32051,1,0,0:0:0:0:
414,272,32194,2,0,P|369:313|308:312,1,125
272,131,32480,5,0,0:0:0:0:
184,336,32623,1,0,0:0:0:0:
28,186,32765,2,0,B|37:130|28:98|28:98|55:137,1,125
184,336,33051,5,0,0:0:0:0:
184,336,33194,1,0,0:0:0:0:
166,104,33336,2,0,B|139:101|117:80|117:80|96:106|63:124,1,125
239,154,33622,2,0,P|251:86|211:30,1,125
32,24,33908,5,0,0:0:0:0:
32,24,34050,1,0,0:0:0:0:
140,211,34193,5,0,0:0:0:0:
224,39,34336,1,0,0:0:0:0:
140,211,34479,2,0,B|122:235|118:255|118:255|90:275|90:275|88:296|64:328,1,125
308,312,34764,5,0,0:0:0:0:
68,324,34907,1,0,0:0:0:0:
312,304,35050,2,0,B|342:309|365:296|365:296|397:302|397:302|424:291|464:288,1,125
224,39,35335,5,0,0:0:0:0:
68,324,35478,1,0,0:0:0:0:
216,44,35621,2,0,B|175:43|146:51|146:51|120:40|72:36,1,125
344,176,35906,5,0,0:0:0:0:
188,365,36049,1,0,0:0:0:0:
222,162,36192,6,0,P|176:204|126:241,1,125
352,180,36477,1,0,0:0:0:0:
352,180,36549,1,0,0:0:0:0:
352,180,36620,1,0,0:0:0:0:
188,365,36763,6,0,B|198:306|240:243|240:243|247:200|228:157|228:157|184:200|125:242|125:242|151:257|192:266|192:266|254:260|291:290|291:290|310:282|330:281|330:281|322:175|310:127|310:127|325:158|346:178|346:178,1,787.5
100,126,45901,5,0,0:0:0:0:
408,340,46186,5,0,0:0:0:0:
344,176,46329,1,0,0:0:0:0:
236,316,46472,2,0,B|216:288|216:263|216:263|188:245|163:193,1,125
244,33,46757,5,0,0:0:0:0:
344,176,46900,1,0,0:0:0:0:
171,217,47043,6,0,B|140:184|109:173|109:173|111:138|88:104,1,125
344,176,47328,2,0,B|375:209|406:220|406:220|403:254|414:266,1,125
236,316,47614,5,0,0:0:0:0:
344,176,47757,1,0,0:0:0:0:
171,217,47900,1,0,0:0:0:0:
244,33,48042,5,0,0:0:0:0:
244,33,48114,1,0,0:0:0:0:
244,33,48185,1,0,0:0:0:0:
428,120,48471,5,0,0:0:0:0:
259,223,48613,1,0,0:0:0:0:
100,126,48756,2,0,B|117:86|114:55|114:55|144:53|188:10,1,125
259,223,49042,5,0,0:0:0:0:
109,329,49185,1,0,0:0:0:0:
226,104,49327,2,0,B|232:152|257:170|257:170|251:188|254:256,1,125
100,126,49613,6,0,B|141:118|163:100|163:100|189:108|228:102,1,125
355,46,49898,1,0,0:0:0:0:
392,280,50041,5,0,0:0:0:0:
392,280,50113,1,0,0:0:0:0:
392,280,50184,1,0,0:0:0:0:
223,313,50327,5,0,0:0:0:0:
223,313,50398,1,0,0:0:0:0:
223,313,50469,1,0,0:0:0:0:
226,104,50612,5,0,0:0:0:0:
75,254,50755,1,0,0:0:0:0:
287,254,50898,1,0,0:0:0:0:
136,103,51041,5,0,0:0:0:0:
136,314,51183,1,0,0:0:0:0:
286,163,51326,1,0,0:0:0:0:
73,163,51469,1,0,0:0:0:0:
223,313,51612,5,0,0:0:0:0:
240,328,51683,1,0,0:0:0:0:
264,336,51754,1,0,0:0:0:0:
288,336,51826,1,0,0:0:0:0:
312,332,51897,5,0,0:0:0:0:
348,320,51969,1,0,0:0:0:0:
384,312,52040,1,0,0:0:0:0:
420,308,52111,1,0,0:0:0:0:
456,316,52183,5,0,0:0:0:0:
428,272,52254,1,0,0:0:0:0:
396,232,52326,1,0,0:0:0:0:
386,183,52397,1,0,0:0:0:0:
397,124,52468,5,0,0:0:0:0:
379,68,52539,1,0,0:0:0:0:
422,29,52610,1,0,0:0:0:0:
463,65,52682,1,0,0:0:0:0:
449,119,52754,2,0,B|361:128|294:202|294:202|160:186|246:66|356:100|295:201|295:201|271:250|233:268|233:268|148:220|150:163|159:137,1,687.5,0|0,2:0|2:0,2:0:0:0:
354,61,54467,2,0,P|240:39|175:85,1,187.5
128,96,55038,5,0,0:0:0:0:
256,352,55181,1,0,0:0:0:0:
256,32,55324,1,0,0:0:0:0:
128,288,55467,1,0,0:0:0:0:
448,192,55609,5,0,0:0:0:0:
256,192,55752,1,0,0:0:0:0:
444,348,55895,1,0,0:0:0:0:
352,120,56038,1,0,0:0:0:0:
256,344,56181,5,0,0:0:0:0:
352,100,56323,1,0,0:0:0:0:
444,360,56466,1,0,0:0:0:0:
352,88,56609,1,0,0:0:0:0:
160,380,56752,5,0,0:0:0:0:
24,192,56894,1,0,0:0:0:0:
256,192,57037,1,0,0:0:0:0:
120,8,57180,1,0,0:0:0:0:
256,208,57323,5,0,0:0:0:0:
28,214,57465,1,0,0:0:0:0:
131,17,57608,1,0,0:0:0:0:
247,224,57751,1,0,0:0:0:0:
400,8,57894,5,0,0:0:0:0:
408,272,58037,1,0,0:0:0:0:
256,56,58179,1,0,0:0:0:0:
504,152,58322,1,0,0:0:0:0:
236,221,58465,5,0,0:0:0:0:
391,0,58608,1,0,0:0:0:0:
255,45,58750,1,0,0:0:0:0:
512,161,58893,1,0,0:0:0:0:
288,384,59036,5,0,0:0:0:0:
360,135,59179,1,0,0:0:0:0:
136,144,59322,1,0,0:0:0:0:
384,128,59464,1,0,0:0:0:0:
120,128,59607,5,0,0:0:0:0:
408,272,59750,1,0,0:0:0:0:
125,298,59893,1,0,0:0:0:0:
255,45,60035,1,0,0:0:0:0:
288,384,60178,5,0,0:0:0:0:
512,161,60321,1,0,0:0:0:0:
223,129,60464,1,0,0:0:0:0:
469,352,60607,1,0,0:0:0:0:
223,129,60749,5,0,0:0:0:0:
184,352,60892,1,0,0:0:0:0:
331,221,61035,1,0,0:0:0:0:
84,247,61178,1,0,0:0:0:0:
469,352,61320,5,0,0:0:0:0:
457,80,61463,1,0,0:0:0:0:
463,354,61606,1,0,0:0:0:0:
464,80,61749,1,0,0:0:0:0:
208,242,61892,5,0,0:0:0:0:
442,266,62034,1,0,0:0:0:0:
377,52,62177,1,0,0:0:0:0:
237,219,62320,1,0,0:0:0:0:
423,247,62463,5,0,0:0:0:0:
371,81,62605,1,0,0:0:0:0:
265,201,62748,1,0,0:0:0:0:
404,229,62891,1,0,0:0:0:0:
361,114,63034,5,0,0:0:0:0:
293,182,63177,1,0,0:0:0:0:
386,210,63319,1,0,0:0:0:0:
349,171,63462,1,0,0:0:0:0:
208,344,63605,6,0,B|277:342|325:297|325:297|317:341|285:366,1,187.5
44,291,64176,5,0,0:0:0:0:
349,171,64319,1,0,0:0:0:0:
81,119,64462,1,0,0:0:0:0:
208,344,64604,1,0,0:0:0:0:
232,61,64747,5,0,0:0:0:0:
416,328,64890,1,0,0:0:0:0:
81,119,65033,1,0,0:0:0:0:
384,24,65175,1,0,0:0:0:0:
8,200,65318,6,0,B|63:191|139:230|139:230|215:238|244:170,1,262.499991989136
81,119,65604,6,0,P|127:224|241:172,1,262.499991989136
384,24,65889,1,0,0:0:0:0:
416,328,66032,1,0,0:0:0:0:
508,76,66175,1,0,0:0:0:0:
160,148,66318,1,0,0:0:0:0:
384,24,66460,5,0,0:0:0:0:
332,352,66603,1,0,0:0:0:0:
232,61,66746,1,0,0:0:0:0:
208,344,66889,1,0,0:0:0:0:
439,147,67031,5,0,0:0:0:0:
81,119,67174,1,0,0:0:0:0:
332,352,67317,1,0,0:0:0:0:
384,24,67460,1,0,0:0:0:0:
296,220,67603,6,0,P|213:188|289:235,1,262.499991989136
132,212,67888,2,0,P|263:284|295:204,1,262.499991989136
384,24,68174,5,0,0:0:0:0:
464,352,68316,1,0,0:0:0:0:
292,106,68459,1,0,0:0:0:0:
344,320,68602,1,0,0:0:0:0:
496,16,68745,5,0,0:0:0:0:
288,112,68888,1,0,0:0:0:0:
488,264,69030,1,0,0:0:0:0:
384,24,69173,1,0,0:0:0:0:
280,232,69316,5,0,0:0:0:0:
152,42,69459,1,0,0:0:0:0:
401,183,69601,1,0,0:0:0:0:
189,323,69744,1,0,0:0:0:0:
145,46,69887,6,0,B|155:80|140:108|140:108|168:129|199:145|199:145|200:170|222:207|222:207|257:215|280:232,1,262.499991989136
390,185,70173,2,0,B|361:223|334:234|334:234|327:265|290:321|290:321|297:242|245:155,1,262.499991989136
273,11,70458,5,0,0:0:0:0:
408,328,70601,1,0,0:0:0:0:
272,16,70744,1,0,0:0:0:0:
488,264,70886,1,0,0:0:0:0:
189,323,71029,5,0,0:0:0:0:
333,82,71172,1,0,0:0:0:0:
53,91,71315,1,0,0:0:0:0:
192,336,71458,1,0,0:0:0:0:
48,80,71600,5,0,0:0:0:0:
72,304,71743,1,0,0:0:0:0:
216,192,71886,2,0,B|273:156|293:117|293:117|289:168|301:213,1,174.999994659424
200,40,72171,5,0,0:0:0:0:
216,200,72314,1,0,0:0:0:0:
320,16,72457,6,0,P|344:12|368:13,2,43.749998664856
360,232,72600,1,0,0:0:0:0:
492,41,72742,2,0,B|465:29|448:3|448:3|450:47|471:77|471:77|463:106|468:185,1,218.75
344,240,73314,6,0,B|332:201|314:176|314:176|319:146|315:106|315:106|272:82|233:28,1,224.999993133545
232,248,73885,2,0,B|244:281|222:326|222:326|266:266|348:240,1,224.999993133545
250,50,74456,6,0,B|202:72|174:96|174:96|124:100|124:100|95:126|40:146,1,224.999993133545
52,254,75027,6,0,P|60:182|48:102,1,112.499996566773
232,248,75312,2,0,P|223:301|229:360,1,112.499996566773
341,161,75598,6,0,P|361:85|361:173,1,224.999993133545
251,153,76169,2,0,P|280:48|396:11,1,224.999993133545
250,158,76740,6,0,B|272:184|308:189|308:189|270:217|252:280,1,174.999994659424
131,277,77311,2,0,P|203:265|267:289,1,125
256,192,77882,12,0,79167,0:0:0:0:
360,272,79310,6,0,B|356:246|349:229|349:229|365:192|365:192|356:170|352:132,2,125
256,192,80167,12,0,82380,0:0:0:0:
278,89,82451,6,0,P|211:100|161:146,1,137.500004196167
92,336,82737,6,0,P|158:325|209:279,1,137.500004196167
161,145,83022,5,0,0:0:0:0:
209,279,83165,1,0,0:0:0:0:
161,145,83308,5,0,0:0:0:0:
214,282,83451,1,0,0:0:0:0:
278,89,83593,6,0,B|355:107|355:107|414:102,1,137.500004196167
512,256,83879,2,0,B|435:238|435:238|375:242,1,137.500004196167
413,102,84165,5,0,0:0:0:0:
376,242,84307,1,0,0:0:0:0:
384,248,84450,5,0,0:0:0:0:
413,102,84593,1,0,0:0:0:0:
214,282,84736,6,0,B|203:242|177:224|177:224|180:191|159:150,1,137.500004196167
36,40,85021,1,0,0:0:0:0:
25,253,85164,1,0,0:0:0:0:
163,158,85307,6,0,B|205:143|239:142|239:142|256:116|296:94,1,137.500004196167
384,248,85592,1,0,0:0:0:0:
357,27,85735,1,0,0:0:0:0:
214,282,85878,6,0,B|166:297|132:290|132:290|100:324|101:381,1,137.500004196167
56,152,86163,1,0,0:0:0:0:
20,364,86306,1,0,0:0:0:0:
212,280,86449,6,0,L|262:249,4,34.3750010490418
380,224,86734,6,0,L|344:256,4,34.3750010490418
204,272,87020,6,0,B|232:244|259:237|259:237|270:203|270:203|285:195|309:173,1,137.500004196167
394,92,87306,6,0,B|380:105|364:112|364:112|353:146|353:146|326:153|298:181,1,137.500004196167
348,25,87591,2,0,P|440:25|472:85,1,137.500004196167
476,232,87877,5,0,0:0:0:0:
468,56,88019,1,0,0:0:0:0:
476,232,88162,6,0,B|453:274|415:293|415:293|419:317|400:352,1,137.500004196167
281,300,88448,2,0,B|322:316|356:306|356:306|377:335|429:348,1,137.500004196167
328,140,88733,5,0,0:0:0:0:
405,340,88876,5,0,0:0:0:0:
405,340,89019,1,0,0:0:0:0:
334,137,89162,5,0,0:0:0:0:
281,300,89304,2,0,B|259:331|259:331|265:270|250:220,1,137.500004196167
120,72,89590,2,0,B|119:111|129:142|129:142|119:171|116:208,1,137.500004196167
334,137,89876,6,0,P|410:114|502:133,1,137.500004196167
488,304,90161,1,0,0:0:0:0:
466,119,90304,1,0,0:0:0:0:
488,304,90447,6,0,P|452:275|488:296,1,137.500004196167
363,344,90732,2,0,P|358:279|399:212,1,137.500004196167
280,354,91018,6,0,P|275:280|300:210,1,150,0|0,0:0|2:0,0:0:0:0:
121,159,91303,5,0,0:0:0:0:
121,159,91375,1,0,0:0:0:0:
121,159,91446,1,0,0:0:0:0:
312,180,91589,6,0,P|332:102|306:24,1,149.999995422363
120,16,91875,1,0,0:0:0:0:
312,28,92017,1,0,0:0:0:0:
120,16,92160,6,0,P|101:87|121:159,1,149.999995422363
280,304,92446,5,0,0:0:0:0:
280,304,92589,1,0,0:0:0:0:
121,159,92732,1,0,0:0:0:0:
302,188,92874,1,0,0:0:0:0:
59,289,93017,6,0,B|77:248|75:214|75:214|106:188|123:154,1,149.999995422363
363,56,93303,6,0,B|343:93|345:134|345:134|311:170|301:188,1,149.999995422363
160,272,93588,2,0,P|203:259|163:264,1,149.999995422363
104,112,93874,6,0,P|174:148|120:136,1,299.999990844727
40,180,94302,1,0,0:0:0:0:
261,9,94445,2,0,P|290:99|260:181,1,149.999995422363
184,336,94730,5,0,0:0:0:0:
184,336,94873,1,0,0:0:0:0:
284,152,95016,2,0,B|324:117|346:62|346:62|338:116,1,149.999995422363
382,243,95302,2,0,P|288:179|303:95,1,149.999995422363
261,9,95587,5,0,0:0:0:0:
261,9,95659,1,0,0:0:0:0:
261,9,95730,1,0,0:0:0:0:
220,250,95873,5,0,0:0:0:0:
429,103,96015,1,0,0:0:0:0:
220,250,96158,2,0,B|161:277|133:330|133:330|121:297|114:290,1,149.999995422363
283,151,96444,5,0,0:0:0:0:
121,302,96587,1,0,0:0:0:0:
100,124,96729,2,0,B|109:68|92:20|92:20|127:75,1,149.999995422363
222,348,97015,5,0,0:0:0:0:
222,348,97158,1,0,0:0:0:0:
104,132,97300,2,0,B|137:114|163:91|163:91|193:111|239:114,1,149.999995422363
257,244,97586,2,0,B|255:198|277:167|277:167|245:151|232:101,1,149.999995422363
88,0,97872,5,0,0:0:0:0:
88,0,98014,1,0,0:0:0:0:
140,211,98157,5,0,0:0:0:0:
280,28,98300,1,0,0:0:0:0:
176,287,98443,2,0,B|200:307|220:312|220:312|240:342|240:342|262:346|294:372,1,149.999995422363
288,148,98728,5,0,0:0:0:0:
294,373,98871,1,0,0:0:0:0:
288,148,99014,2,0,B|294:117|282:92|282:92|290:59|290:59|280:31|279:-10,1,149.999995422363
17,203,99299,5,0,0:0:0:0:
294,373,99442,1,0,0:0:0:0:
17,203,99585,2,0,B|13:244|20:275|20:275|7:301|1:350,1,149.999995422363
69,125,99870,5,0,0:0:0:0:
401,168,100013,1,0,0:0:0:0:
216,224,100155,2,0,B|238:164|252:151|252:151|254:123|261:91|261:91|275:106,1,149.999995422363
77,131,100441,5,0,0:0:0:0:
77,131,100513,1,0,0:0:0:0:
77,131,100584,1,0,0:0:0:0:
401,168,100726,6,0,B|360:139|346:108|346:108|305:107|305:107|280:82|262:42|262:42|264:100|245:165|213:230|213:230|216:122|202:62|152:43|152:43|119:89|135:155|135:155|99:130|73:131|73:131,1,787.5
64,124,109864,5,0,0:0:0:0:
164,384,110149,5,0,0:0:0:0:
212,224,110292,1,0,0:0:0:0:
316,344,110435,2,0,B|274:308|274:308|266:269|266:269|199:216,1,162.499992561341
248,48,110720,5,0,0:0:0:0:
58,118,110863,1,0,0:0:0:0:
197,215,111006,2,0,B|146:168|146:168|107:167|107:167|65:131,1,162.499992561341
248,48,111292,2,0,B|298:94|298:94|337:95|337:95|379:131,1,162.499992561341
164,384,111577,5,0,0:0:0:0:
379,131,111720,1,0,0:0:0:0:
197,215,111863,1,0,0:0:0:0:
248,48,112005,5,0,0:0:0:0:
248,48,112077,1,0,0:0:0:0:
248,48,112148,1,0,0:0:0:0:
360,264,112434,5,0,0:0:0:0:
420,52,112576,1,0,0:0:0:0:
197,215,112720,2,0,B|152:232|101:233|101:233|78:257|13:279,1,162.499992561341
360,264,113005,5,0,0:0:0:0:
224,96,113148,1,0,0:0:0:0:
420,52,113291,2,0,B|425:111|447:135|447:135|434:169|436:216,1,162.499992561341
224,96,113576,2,0,B|234:105|264:116|264:116|192:111|96:133,1,162.499992561341
435,207,113861,1,0,0:0:0:0:
292,24,114004,5,0,0:0:0:0:
292,24,114076,1,0,0:0:0:0:
292,24,114147,1,0,0:0:0:0:
364,272,114290,5,0,0:0:0:0:
364,272,114361,1,0,0:0:0:0:
364,272,114432,1,0,0:0:0:0:
226,104,114575,5,0,0:0:0:0:
64,212,114718,1,0,0:0:0:0:
240,296,114861,1,0,0:0:0:0:
221,77,115004,5,0,0:0:0:0:
35,229,115147,1,0,0:0:0:0:
261,310,115290,1,0,0:0:0:0:
207,62,115432,1,0,0:0:0:0:
413,222,115575,5,0,0:0:0:0:
401,206,115646,1,0,0:0:0:0:
388,194,115717,1,0,0:0:0:0:
372,184,115789,1,0,0:0:0:0:
360,180,115860,5,0,0:0:0:0:
376,161,115931,1,0,0:0:0:0:
397,149,116003,1,0,0:0:0:0:
420,141,116074,1,0,0:0:0:0:
440,128,116146,5,0,2:0:0:0:
411,110,116217,1,0,2:0:0:0:
376,97,116288,1,0,2:0:0:0:
342,93,116360,1,0,2:0:0:0:
304,96,116431,5,0,0:0:0:0:
328,67,116502,1,0,0:0:0:0:
363,45,116573,1,0,0:0:0:0:
397,29,116645,1,0,0:0:0:0:
353,69,118430,6,0,B|296:67|251:48|251:48|222:82|174:93,1,187.5
152,272,119002,5,0,0:0:0:0:
208,192,119145,1,0,0:0:0:0:
152,300,119287,5,0,0:0:0:0:
196,172,119430,1,0,0:0:0:0:
172,332,119573,5,0,0:0:0:0:
176,148,119716,1,0,0:0:0:0:
248,372,119858,5,0,0:0:0:0:
248,372,120001,1,0,0:0:0:0:
120,88,120144,6,0,P|143:54|123:88,1,125
320,336,120430,5,0,0:0:0:0:
40,156,120572,1,0,0:0:0:0:
344,244,120715,6,0,B|390:251|390:251|412:248|412:248|432:260|432:260|484:272,1,125
319,119,121001,6,0,B|287:111|287:111|267:99|267:99|245:103|245:103|199:95,1,125
40,156,121286,5,0,0:0:0:0:
163,345,121429,1,0,0:0:0:0:
200,96,121572,2,0,B|258:47|286:-9|286:-9|269:66,1,187.500007152558
163,345,121857,5,0,0:0:0:0:
366,235,122000,1,0,0:0:0:0:
200,96,122143,2,0,B|163:60|147:31|147:31|103:42|103:42|79:7|43:-15,1,187.500007152558
171,349,122428,5,0,0:0:0:0:
368,229,122571,1,0,0:0:0:0:
195,99,122714,2,0,B|156:65|138:36|138:36|95:50|95:50|69:16|32:-3,1,187.500007152558
188,357,122999,5,0,0:0:0:0:
371,217,123142,1,0,0:0:0:0:
185,105,123285,2,0,B|143:77|123:50|123:50|81:67|81:67|52:37|13:20,1,187.500007152558
374,201,123571,5,0,0:0:0:0:
175,356,123713,1,0,0:0:0:0:
372,184,123856,2,0,B|423:153|423:153|446:110|446:110|513:62,1,187.500007152558
160,352,124142,5,0,0:0:0:0:
416,384,124284,1,0,0:0:0:0:
372,184,124427,2,0,B|331:127|299:108|299:108|296:55|280:13,1,187.500007152558
177,361,124713,5,0,0:0:0:0:
435,367,124855,1,0,0:0:0:0:
370,171,124998,2,0,B|329:113|289:103|289:103|296:49|261:11,1,187.500007152558
195,368,125284,5,0,0:0:0:0:
452,349,125426,1,0,0:0:0:0:
367,160,125569,2,0,B|332:100|280:100|280:100|286:45|250:25,1,187.500007152558
68,256,125855,5,0,0:0:0:0:
47,60,125998,1,0,0:0:0:0:
67,247,126141,1,0,0:0:0:0:
47,69,126283,1,0,0:0:0:0:
174,117,126426,5,0,0:0:0:0:
197,267,126568,1,0,0:0:0:0:
173,107,126711,1,0,0:0:0:0:
200,276,126854,1,0,0:0:0:0:
348,232,126997,5,0,0:0:0:0:
277,131,127139,1,0,0:0:0:0:
353,241,127282,1,0,0:0:0:0:
272,125,127425,1,0,0:0:0:0:
384,140,127568,6,0,B|421:111|447:102|447:102|448:60|448:60|489:49|516:24,1,187.5
435,308,128139,5,0,0:0:0:0:
300,48,128282,1,0,0:0:0:0:
264,356,128425,1,0,0:0:0:0:
388,4,128568,1,0,0:0:0:0:
338,295,128711,5,0,0:0:0:0:
208,16,128853,1,0,0:0:0:0:
348,276,128996,1,0,0:0:0:0:
182,24,129139,1,0,0:0:0:0:
361,264,129282,5,0,0:0:0:0:
162,40,129424,1,0,0:0:0:0:
379,257,129567,5,0,0:0:0:0:
151,66,129710,1,0,0:0:0:0:
340,32,129853,5,0,0:0:0:0:
152,240,129995,1,0,0:0:0:0:
424,172,130138,1,0,0:0:0:0:
151,66,130281,1,0,0:0:0:0:
379,257,130424,5,0,0:0:0:0:
328,24,130567,1,0,0:0:0:0:
248,300,130709,1,0,0:0:0:0:
140,56,130852,1,0,0:0:0:0:
276,272,130995,5,0,0:0:0:0:
36,144,131138,1,0,0:0:0:0:
316,196,131280,1,0,0:0:0:0:
36,328,131423,1,0,0:0:0:0:
140,56,131566,5,0,0:0:0:0:
180,376,131709,1,0,0:0:0:0:
245,35,131852,1,0,0:0:0:0:
152,360,131994,1,0,0:0:0:0:
345,48,132137,5,0,0:0:0:0:
44,168,132280,1,0,0:0:0:0:
384,328,132423,1,0,0:0:0:0:
245,35,132565,1,0,0:0:0:0:
132,344,132708,5,0,0:0:0:0:
413,130,132851,1,0,0:0:0:0:
112,316,132994,5,0,0:0:0:0:
440,240,133137,1,0,0:0:0:0:
100,292,133279,5,0,0:0:0:0:
345,48,133422,1,0,0:0:0:0:
276,332,133565,1,0,0:0:0:0:
136,88,133708,1,0,0:0:0:0:
413,130,133850,5,0,0:0:0:0:
120,104,133993,1,0,0:0:0:0:
431,109,134136,1,0,0:0:0:0:
272,320,134279,1,0,0:0:0:0:
248,32,134422,5,0,0:0:0:0:
184,312,134564,1,0,0:0:0:0:
328,64,134707,1,0,0:0:0:0:
112,256,134850,1,0,0:0:0:0:
376,140,134993,6,0,B|351:168|346:212|346:212|321:225|321:225|316:263|280:318,1,187.500007152558
186,304,135278,2,0,B|205:290|229:258|229:258|248:225|255:178|255:178|229:188,1,162.499992561341
248,32,135564,6,0,B|224:81|185:124|185:124|210:117|234:117,1,137.500004196167
64,148,135849,2,0,B|90:102|125:75|125:75|105:78,1,112.499996566773
256,28,136135,5,0,0:0:0:0:
176,312,136278,1,0,0:0:0:0:
388,132,136420,5,0,0:0:0:0:
388,132,136492,1,0,0:0:0:0:
388,132,136563,1,0,0:0:0:0:
369,344,136706,6,0,P|386:282|381:332,1,262.499991989136
380,132,137277,5,0,0:0:0:0:
228,152,137420,1,0,0:0:0:0:
408,144,137563,5,0,0:0:0:0:
208,172,137705,1,0,0:0:0:0:
428,160,137848,6,0,B|446:212|472:240|472:240|474:277|489:313,1,149.999995422363
188,192,138134,5,0,0:0:0:0:
316,48,138276,1,0,0:0:0:0:
164,208,138419,6,0,B|108:205|64:218|64:218|52:188|-16:148,1,149.999995422363
336,40,138705,2,0,B|385:64|431:71|431:71|429:102|476:168,1,149.999995422363
456,356,138990,6,0,P|464:304|468:352,1,149.999995422363
445,131,139276,5,0,0:0:0:0:
232,304,139419,1,0,0:0:0:0:
438,123,139561,2,0,B|422:107|424:76|424:76|378:69|328:44,1,149.999995422363
224,288,139847,5,0,0:0:0:0:
144,52,139990,1,0,0:0:0:0:
232,304,140133,6,0,B|286:295|316:316|316:316|341:295|400:288,1,149.999995422363
152,56,140418,5,0,0:0:0:0:
72,264,140561,1,0,0:0:0:0:
295,131,140704,2,0,B|347:131|372:107|372:107|419:120|447:123,1,149.999995422363
152,56,140989,6,0,B|105:55|65:77|65:77|38:68|-16:64,1,149.999995422363
292,148,141275,5,0,0:0:0:0:
160,40,141418,1,0,0:0:0:0:
229,205,141560,5,0,0:0:0:0:
228,0,141703,1,0,0:0:0:0:
224,216,141846,6,0,B|236:244|228:280|228:280|248:296|248:296|244:328|254:363,1,149.999995422363
465,260,142131,2,0,B|452:231|461:196|461:196|441:180|441:180|445:148|435:113,1,149.999995422363
386,292,142417,6,0,P|466:344|541:291,1,149.999995422363
436,112,142703,5,0,0:0:0:0:
248,368,142845,1,0,0:0:0:0:
224,216,142988,2,0,B|168:208|146:189|146:189|105:200|60:184,1,149.999995422363
292,85,143274,2,0,B|348:93|370:112|370:112|411:101|456:117,1,149.999995422363
212,120,143559,6,0,P|223:31|286:-1,1,149.999995422363
332,220,143845,5,0,0:0:0:0:
332,220,143987,1,0,0:0:0:0:
387,24,144130,5,0,0:0:0:0:
476,276,144273,1,0,0:0:0:0:
387,24,144416,2,0,B|330:25|303:35|303:35|275:22|224:28,1,149.999995422363
28,105,144701,6,0,P|85:105|40:140,1,149.999995422363
80,296,144987,1,0,0:0:0:0:
192,128,145130,1,0,0:0:0:0:
76,221,145272,6,0,L|79:295,3,74.9999977111817
198,202,145558,6,0,L|191:127,3,74.9999977111817
322,64,145844,6,0,B|325:100|318:126|318:126|328:178|328:178|310:219|310:219|310:251|304:284,1,224.999993133545
317,292,146415,6,0,B|323:259|323:227|323:227|341:186|341:186|331:134|331:134|338:108|335:72,1,224.999993133545
320,48,146986,5,0,0:0:0:0:
452,188,147129,1,0,0:0:0:0:
312,32,147271,2,0,B|257:28|227:14|227:14|194:28|130:29,1,149.999995422363
181,191,147557,5,0,0:0:0:0:
32,31,147700,1,0,0:0:0:0:
8,209,147842,2,0,B|30:237|24:264|24:264|59:289|59:289|64:328|90:360,1,149.999995422363
248,343,148128,5,0,0:0:0:0:
181,191,148271,1,0,0:0:0:0:
253,344,148414,5,0,0:0:0:0:
181,191,148556,1,0,0:0:0:0:
369,193,148699,6,0,P|417:200|370:191,1,149.999995422363
456,288,148985,5,0,0:0:0:0:
452,120,149127,1,0,0:0:0:0:
288,216,149270,6,0,P|306:140|376:106,1,149.999995422363
456,288,149556,2,0,P|363:303|308:254,1,149.999995422363
452,120,149841,2,0,P|491:179|483:267,1,149.999995422363
376,192,150127,6,0,P|416:222|371:198,1,149.999995422363
404,32,150412,5,0,0:0:0:0:
266,49,150555,1,0,0:0:0:0:
403,21,150698,5,0,0:0:0:0:
262,28,150841,1,0,0:0:0:0:
128,90,150983,6,0,B|92:134|64:148|64:148|50:188|31:217,1,149.999995422363
66,346,151269,2,0,B|101:301|130:288|130:288|143:247|163:219,1,149.999995422363
135,70,151555,5,0,0:0:0:0:
161,215,151697,1,0,0:0:0:0:
267,322,151840,6,0,B|321:329|344:352|344:352|370:329|408:324,1,149.999995422363
161,215,152126,6,0,B|220:216|244:200|244:200|263:228|305:237,1,149.999995422363
128,68,152411,6,0,P|72:68|128:60,1,149.999995422363
263,87,152697,5,0,0:0:0:0:
157,213,152840,1,0,0:0:0:0:
263,87,152982,5,0,0:0:0:0:
157,213,153125,1,0,0:0:0:0:
352,96,153268,6,0,P|452:127|348:108,1,299.999990844727
284,192,154125,1,0,0:0:0:0:
268,176,154410,6,0,L|261:88,1,74.9999977111817
204,288,154696,2,0,L|206:313,4,18.7499994277954
128,68,154981,6,0,B|125:115|104:156|104:156|107:187|125:208|125:208|108:234|109:264|109:264|116:297|113:334,1,262.499991989136
256,192,155552,12,0,158979,0:0:0:0:
