osu file format v14

[General]
AudioFilename: audio.mp3
AudioLeadIn: 0
PreviewTime: 71715
Countdown: 0
SampleSet: Normal
StackLeniency: 0.4
Mode: 0
LetterboxInBreaks: 0
WidescreenStoryboard: 0

[Editor]
Bookmarks: 23997,71997,95997
DistanceSpacing: 1
BeatDivisor: 6
GridSize: 4
TimelineZoom: 1.7

[Metadata]
Title:Dying Out West
TitleUnicode:Dying Out West
Artist:Lil Peep & Lil Tracy
ArtistUnicode:Lil Peep & Lil Tracy
Creator:LowAccuracySS
Version:no more pain
Source:
Tags:
BeatmapID:1849382
BeatmapSetID:884815

[Difficulty]
HPDrainRate:6
CircleSize:4
OverallDifficulty:9
ApproachRate:9.2
SliderMultiplier:1.4
SliderTickRate:1

[Events]
//Background and Video events
0,0,"cropped-1920-1080-971890.jpg",0,0
//Break Periods
2,33197,35427
2,68072,71414
//Storyboard Layer 0 (Background)
//Storyboard Layer 1 (Fail)
//Storyboard Layer 2 (Pass)
//Storyboard Layer 3 (Foreground)
//Storyboard Layer 4 (Overlay)
//Storyboard Sound Samples

[TimingPoints]
12372,375,4,1,0,50,1,0
23528,-100,4,1,0,5,0,0
23622,-100,4,1,0,50,0,0
23903,-100,4,1,0,5,0,0
23997,-66.6666666666667,4,1,0,50,0,0
41997,-50,4,1,0,50,0,0
42372,-66.6666666666667,4,1,0,50,0,0
50997,-100,4,1,0,50,0,0
59997,-66.6666666666667,4,1,0,50,0,0
71984,375,4,1,0,50,1,0
71984,-200,4,1,0,50,0,0
77984,-66.6666666666667,4,1,0,50,0,0
83234,-50,4,1,0,50,0,0
83796,-66.6666666666667,4,1,0,50,0,0

[Colours]
Combo1 : 223,159,159
Combo2 : 165,165,218
Combo3 : 191,149,234
Combo4 : 223,159,191

[HitObjects]
85,227,23247,6,0,P|82:183|54:122,1,105,0|0,0:0|0:0,0:0:0:0:
186,30,23622,2,0,P|164:77|160:130,1,105,0|0,0:0|0:0,0:0:0:0:
433,165,23997,2,0,B|321:176|362:91|238:111,1,210.000008010865,0|0,0:0|0:0,0:0:0:0:
412,83,24559,1,0,0:0:0:0:
500,219,24747,2,0,P|519:174|502:111,1,105.000004005432,0|0,0:0|0:0,0:0:0:0:
265,188,25122,2,0,P|235:226|235:291,1,105.000004005432,0|0,0:0|0:0,0:0:0:0:
484,324,25497,6,0,B|338:301|338:301|292:342,1,210.000008010865,0|0,0:0|0:0,0:0:0:0:
364,384,26059,1,0,0:0:0:0:
224,288,26247,2,0,P|177:291|130:358,1,105.000004005432,0|0,0:0|0:0,0:0:0:0:
337,277,26622,2,0,P|357:234|338:157,1,105.000004005432,0|0,0:0|0:0,0:0:0:0:
254,62,26997,6,0,P|311:142|437:99,1,210.000008010865,0|0,0:0|0:0,0:0:0:0:
330,31,27559,1,0,0:0:0:0:
183,17,27747,2,0,P|131:41|106:108,1,105.000004005432,0|0,0:0|0:0,0:0:0:0:
276,174,28122,2,0,P|281:116|235:61,1,105.000004005432,0|0,0:0|0:0,0:0:0:0:
93,87,28497,5,0,0:0:0:0:
93,176,28684,2,0,P|139:209|210:197,1,105.000004005432,0|0,0:0|0:0,0:0:0:0:
246,75,29059,1,0,0:0:0:0:
189,200,29247,1,0,0:0:0:0:
246,289,29434,2,0,L|409:301,1,157.500006008148,0|0,0:0|0:0,0:0:0:0:
496,217,29809,2,0,L|443:220,1,52.5000020027161,0|0,0:0|0:0,0:0:0:0:
408,307,29997,6,0,L|521:314,1,105.000004005432,0|0,0:0|0:0,0:0:0:0:
455,140,30372,1,0,0:0:0:0:
439,119,30465,1,0,0:0:0:0:
417,105,30559,1,0,0:0:0:0:
391,99,30653,1,0,0:0:0:0:
365,103,30747,2,0,P|353:151|355:216,1,105.000004005432,0|0,0:0|0:0,0:0:0:0:
290,31,31122,6,0,B|171:21|224:102|97:85,1,210.000008010865,0|0,0:0|0:0,0:0:0:0:
265,117,31684,1,0,0:0:0:0:
45,22,31872,2,0,P|18:59|27:119,1,105.000004005432,0|0,0:0|0:0,0:0:0:0:
125,7,32247,1,0,0:0:0:0:
88,170,32434,2,0,P|144:173|221:143,1,105.000004005432,0|0,0:0|0:0,0:0:0:0:
14,206,32809,1,0,0:0:0:0:
59,304,32997,5,0,0:0:0:0:
359,335,35997,6,0,B|379:237|307:290|335:155,1,157.500006008148,0|0,0:0|0:0,0:0:0:0:
460,120,36372,1,0,0:0:0:0:
461,146,36465,1,0,0:0:0:0:
455,171,36559,1,0,0:0:0:0:
442,194,36653,1,0,0:0:0:0:
422,211,36747,2,0,P|449:173|514:145,1,105.000004005432,0|0,0:0|0:0,0:0:0:0:
460,284,37122,1,0,0:0:0:0:
191,125,37309,6,0,B|242:86|242:86|387:99,1,210.000008010865,0|0,0:0|0:0,0:0:0:0:
181,206,37872,2,0,L|177:240,3,35.0000013351441,0|0|0|0,0:0|0:0|0:0|0:0,0:0:0:0:
116,157,38153,1,0,0:0:0:0:
116,157,38247,1,0,0:0:0:0:
48,353,38434,2,0,L|29:109,1,210.000008010865,0|0,0:0|0:0,0:0:0:0:
200,9,38997,6,0,L|190:130,1,105.000004005432,0|0,0:0|0:0,0:0:0:0:
258,170,39372,1,0,0:0:0:0:
384,118,39559,2,0,L|378:167,2,35.0000013351441,0|0|0,0:0|0:0|0:0,0:0:0:0:
387,99,39747,2,0,P|341:77|279:94,1,105.000004005432,0|0,0:0|0:0,0:0:0:0:
452,197,40122,1,0,0:0:0:0:
511,125,40309,6,0,B|546:50|495:0|495:0|439:11|431:57,1,210.000008010865,0|0,0:0|0:0,0:0:0:0:
374,237,40872,2,0,P|389:259|406:269,3,35.0000013351441,0|0|0|0,0:0|0:0|0:0|0:0,0:0:0:0:
482,278,41153,1,0,0:0:0:0:
482,278,41247,1,0,0:0:0:0:
298,215,41434,2,0,L|136:230,1,157.500006008148,0|0,0:0|0:0,0:0:0:0:
35,290,41809,2,0,L|87:294,1,52.5000020027161,0|0,0:0|0:0,0:0:0:0:
179,130,41997,6,0,P|124:118|145:229,1,210.000008010865,0|0,0:0|0:0,0:0:0:0:
190,137,42372,1,0,0:0:0:0:
180,85,42465,1,0,0:0:0:0:
146,46,42559,1,0,0:0:0:0:
97,30,42653,1,0,0:0:0:0:
48,42,42747,2,0,P|96:47|152:27,1,105.000004005432,0|0,0:0|0:0,0:0:0:0:
9,112,43122,1,0,0:0:0:0:
142,229,43309,6,0,B|258:255|214:163|339:195,1,210.000008010865,0|0,0:0|0:0,0:0:0:0:
365,288,43872,2,0,L|358:353,3,35.0000013351441,0|0|0|0,0:0|0:0|0:0|0:0,0:0:0:0:
451,261,44153,1,0,0:0:0:0:
451,261,44246,1,0,0:0:0:0:
355,118,44434,2,0,L|512:103,1,157.500006008148,0|0,0:0|0:0,0:0:0:0:
273,61,44809,2,0,L|220:55,1,52.5000020027161,0|0,0:0|0:0,0:0:0:0:
70,167,44997,6,0,L|174:156,1,105.000004005432,0|0,0:0|0:0,0:0:0:0:
87,86,45372,1,0,0:0:0:0:
54,248,45559,2,0,L|45:281,2,35.0000013351441,0|0|0,0:0|0:0|0:0,0:0:0:0:
42,300,45747,2,0,L|157:288,1,105.000004005432,0|0,0:0|0:0,0:0:0:0:
428,330,46122,1,0,0:0:0:0:
316,247,46309,6,0,P|264:233|201:235,1,105.000004005432,0|0,0:0|0:0,0:0:0:0:
342,330,46684,1,0,0:0:0:0:
385,196,46872,2,0,P|385:178|382:161,3,35.0000013351441,0|0|0|0,0:0|0:0|0:0|0:0,0:0:0:0:
327,102,47153,1,0,0:0:0:0:
327,102,47247,1,0,0:0:0:0:
472,165,47434,1,0,0:0:0:0:
323,254,47622,1,0,0:0:0:0:
255,45,47809,1,0,0:0:0:0:
488,77,47997,5,0,0:0:0:0:
256,168,48747,1,0,0:0:0:0:
164,132,49122,1,0,0:0:0:0:
456,248,50247,5,0,0:0:0:0:
254,315,50997,2,0,B|138:326|178:257|55:272,1,210.000008010865,0|0,0:0|0:0,0:0:0:0:
87,356,51747,1,0,0:0:0:0:
479,209,52122,2,0,B|285:177|285:177|222:236,1,280,0|0,0:0|0:0,0:0:0:0:
415,357,53247,1,0,0:0:0:0:
486,313,53434,2,0,B|478:208,1,105,0|0,0:0|0:0,0:0:0:0:
406,125,53809,2,0,L|401:161,1,35,0|0,0:0|0:0,0:0:0:0:
466,63,53997,5,0,0:0:0:0:
206,145,54747,1,0,0:0:0:0:
333,221,55122,1,0,0:0:0:0:
237,65,55872,5,0,0:0:0:0:
56,89,56247,2,0,L|1:82,1,35,0|0,0:0|0:0,0:0:0:0:
122,177,56434,2,0,L|-11:162,1,105,0|0,0:0|0:0,0:0:0:0:
178,252,56809,2,0,L|213:248,1,35,0|0,0:0|0:0,0:0:0:0:
18,353,56997,6,0,L|251:323,1,210,0|0,0:0|0:0,0:0:0:0:
57,262,57747,1,0,0:0:0:0:
307,311,58122,1,0,0:0:0:0:
416,193,58872,5,0,0:0:0:0:
363,29,59247,1,0,0:0:0:0:
324,174,59434,2,0,L|344:103,1,70,0|0,0:0|0:0,0:0:0:0:
194,218,59809,1,0,0:0:0:0:
175,33,59997,6,0,L|186:143,1,105.000004005432,0|0,0:0|0:0,0:0:0:0:
48,246,60372,1,0,0:0:0:0:
45,194,60465,1,0,0:0:0:0:
71,149,60559,1,0,0:0:0:0:
117,126,60653,1,0,0:0:0:0:
169,132,60747,5,0,0:0:0:0:
291,258,60934,1,0,0:0:0:0:
143,368,61122,2,0,B|114:397|114:397|128:264,1,157.500006008148,0|0,0:0|0:0,0:0:0:0:
210,309,61497,5,0,0:0:0:0:
345,372,61684,1,0,0:0:0:0:
367,159,61872,2,0,L|370:202,3,35.0000013351441,0|0|0|0,0:0|0:0|0:0|0:0,0:0:0:0:
377,278,62153,1,0,0:0:0:0:
377,278,62247,6,0,L|435:291,1,52.5000020027161,0|0,0:0|0:0,0:0:0:0:
502,174,62434,2,0,L|450:162,1,52.5000020027161,0|0,0:0|0:0,0:0:0:0:
441,317,62622,2,0,L|499:304,1,52.5000020027161,0|0,0:0|0:0,0:0:0:0:
438,135,62809,2,0,L|380:148,1,52.5000020027161,0|0,0:0|0:0,0:0:0:0:
295,237,62997,6,0,P|260:139|224:62,1,157.500006008148,0|0,0:0|0:0,0:0:0:0:
166,39,63372,1,0,0:0:0:0:
353,60,63559,1,0,0:0:0:0:
320,74,63621,1,0,0:0:0:0:
286,80,63684,1,0,0:0:0:0:
251,78,63746,5,0,0:0:0:0:
431,50,63934,1,0,0:0:0:0:
268,159,64122,2,0,P|319:167|368:186,1,105.000004005432,0|0,0:0|0:0,0:0:0:0:
179,247,64497,5,0,0:0:0:0:
163,162,64684,1,0,0:0:0:0:
44,62,64872,2,0,L|35:108,3,35.0000013351441,0|0|0|0,0:0|0:0|0:0|0:0,0:0:0:0:
27,174,65153,1,0,0:0:0:0:
27,174,65247,6,0,L|79:166,1,52.5000020027161,0|0,0:0|0:0,0:0:0:0:
202,90,65434,2,0,P|177:82|151:83,1,52.5000020027161,0|0,0:0|0:0,0:0:0:0:
266,242,65622,2,0,P|293:242|318:226,1,52.5000020027161,0|0,0:0|0:0,0:0:0:0:
429,149,65809,2,0,P|415:129|390:130,1,52.5000020027161,0|0,0:0|0:0,0:0:0:0:
466,326,65997,6,0,P|479:258|498:215,1,105.000004005432,0|0,0:0|0:0,0:0:0:0:
440,40,66372,1,0,0:0:0:0:
405,27,66465,1,0,0:0:0:0:
369,28,66559,1,0,0:0:0:0:
334,41,66653,1,0,0:0:0:0:
307,65,66747,5,0,0:0:0:0:
394,215,66934,1,0,0:0:0:0:
482,136,67122,2,0,B|421:139|377:115|377:115|332:137|357:165,1,157.500006008148,0|0,0:0|0:0,0:0:0:0:
473,151,67497,5,0,0:0:0:0:
259,171,67684,5,0,0:0:0:0:
45,191,67872,5,0,0:0:0:0:
71,329,71984,6,0,P|85:272|87:256,1,70
46,150,72546,2,0,P|52:166|53:188,1,35
183,220,72921,2,0,P|137:200|128:172,1,70,0|0,0:0|0:0,0:0:0:0:
192,128,73484,6,0,P|206:137|188:145,2,35
258,227,74046,2,0,P|268:195|265:182,1,35
313,108,74421,2,0,P|280:115|269:124,1,35
341,182,74796,1,0,0:0:0:0:
412,126,74984,6,0,P|412:79|393:46,1,70
424,148,75546,2,0,P|461:147|502:145,1,70
506,67,76109,1,0,0:0:0:0:
438,126,76296,1,0,0:0:0:0:
512,216,76484,6,0,P|510:194|506:169,2,35
457,259,77046,5,0,0:0:0:0:
475,294,77421,5,0,0:0:0:0:
57,360,77984,6,0,L|68:244,1,105.000004005432
252,143,78359,1,0,0:0:0:0:
237,115,78452,1,0,0:0:0:0:
190,97,78546,1,0,0:0:0:0:
132,123,78640,1,0,0:0:0:0:
129,188,78734,5,0,0:0:0:0:
328,126,78921,1,0,0:0:0:0:
201,20,79109,2,0,L|93:6,1,105.000004005432
211,219,79484,5,0,0:0:0:0:
52,96,79671,1,0,0:0:0:0:
280,38,79859,2,0,L|320:33,3,35.0000013351441
399,22,80140,1,0,0:0:0:0:
399,22,80234,6,0,P|397:52|388:106,1,52.5000020027161
429,212,80421,2,0,P|446:148|512:64,1,157.500006008148
356,145,80796,2,0,P|298:170|267:178,1,52.5000020027161
377,296,80984,6,0,P|334:267|283:253,1,105.000004005432
147,352,81359,1,0,0:0:0:0:
226,157,81546,2,0,L|227:192,2,35.0000013351441
135,209,81734,6,0,P|145:157|159:107,1,105.000004005432
214,307,82109,1,0,0:0:0:0:
60,234,82296,1,0,0:0:0:0:
229,147,82484,6,0,P|255:146|292:137,1,52.5000020027161
338,42,82671,2,0,P|366:41|403:56,1,52.5000020027161
502,173,82859,6,0,P|478:180|460:179,1,35.0000013351441
364,152,82984,2,0,P|357:135|356:118,1,35.0000013351441
429,191,83109,2,0,P|413:183|399:172,1,35.0000013351441
488,49,83234,6,0,P|456:91|452:147,1,70
431,329,83421,2,0,P|390:272|236:229,1,210
175,241,83796,2,0,L|179:195,2,35.0000013351441
172,264,83984,5,0,0:0:0:0:
