osu file format v14

[General]
AudioFilename: audio.mp3
AudioLeadIn: 0
PreviewTime: 98738
Countdown: 0
SampleSet: Soft
StackLeniency: 0.7
Mode: 3
LetterboxInBreaks: 0
SpecialStyle: 0
WidescreenStoryboard: 0

[Editor]
DistanceSpacing: 1.2
BeatDivisor: 4
GridSize: 32
TimelineZoom: 1.7

[Metadata]
Title:Old Town Road (Remix)
TitleUnicode:Old Town Road (Remix)
Artist:Lil Nas X, Billy Ray Cyrus
ArtistUnicode:Lil Nas X, Billy Ray Cyrus
Creator:Booze
Version:spent a lot of retries on my brand new top score
Source:
Tags:country hip hop idk got the horses in the back gonna take my horse to the old town road gonna ride till i cant no more red dead redemption 2
BeatmapID:2036104
BeatmapSetID:972470

[Difficulty]
HPDrainRate:6
CircleSize:4
OverallDifficulty:8.5
ApproachRate:5
SliderMultiplier:1.4
SliderTickRate:1

[Events]
//Background and Video events
0,0,"Konachan.com - 175613 animal blonde_hair boots brown_hair building flowers grass gun horse long_hair original petals rope short_hair skirt vanipo weapon.png",0,0
//Break Periods
//Storyboard Layer 0 (Background)
//Storyboard Layer 1 (Fail)
//Storyboard Layer 2 (Pass)
//Storyboard Layer 3 (Foreground)
//Storyboard Sound Samples

[TimingPoints]
-30,441.176470588235,4,2,0,60,1,0

[HitObjects]
448,192,12764,5,0,0:0:0:0:
320,192,12874,1,0,0:0:0:0:
192,192,12984,1,0,0:0:0:0:
64,192,13094,1,0,0:0:0:0:
192,192,13205,1,0,0:0:0:0:
320,192,13315,1,0,0:0:0:0:
448,192,13425,1,0,0:0:0:0:
320,192,13536,1,0,0:0:0:0:
64,192,13646,1,0,0:0:0:0:
192,192,13646,1,0,0:0:0:0:
448,192,13646,1,0,0:0:0:0:
64,192,13867,1,0,0:0:0:0:
320,192,13867,1,0,0:0:0:0:
192,192,14087,1,0,0:0:0:0:
320,192,14087,1,0,0:0:0:0:
448,192,14087,1,0,0:0:0:0:
64,192,14528,1,0,0:0:0:0:
192,192,14528,1,0,0:0:0:0:
320,192,14528,1,0,0:0:0:0:
192,192,14969,1,0,0:0:0:0:
64,192,14969,1,0,0:0:0:0:
448,192,14969,1,0,0:0:0:0:
64,192,15411,1,0,0:0:0:0:
320,192,15411,1,0,0:0:0:0:
448,192,15411,1,0,0:0:0:0:
448,192,15631,1,0,0:0:0:0:
320,192,15631,1,0,0:0:0:0:
192,192,15852,1,0,0:0:0:0:
64,192,15852,1,0,0:0:0:0:
448,192,15852,1,0,0:0:0:0:
64,192,16072,1,0,0:0:0:0:
192,192,16072,1,0,0:0:0:0:
192,192,16514,1,0,0:0:0:0:
320,192,16624,1,0,0:0:0:0:
192,192,16734,1,0,0:0:0:0:
64,192,16734,1,0,0:0:0:0:
448,192,16734,1,0,0:0:0:0:
320,192,16955,1,0,0:0:0:0:
320,192,17175,1,0,0:0:0:0:
320,192,17396,1,0,0:0:0:0:
64,192,17617,1,0,0:0:0:0:
192,192,17617,1,0,0:0:0:0:
64,192,18058,1,0,0:0:0:0:
192,192,18168,1,0,0:0:0:0:
320,192,18278,1,0,0:0:0:0:
448,192,18389,1,0,0:0:0:0:
320,192,18499,1,0,0:0:0:0:
192,192,18609,1,0,0:0:0:0:
64,192,18719,1,0,0:0:0:0:
192,192,18830,1,0,0:0:0:0:
320,192,18940,1,0,0:0:0:0:
448,192,18940,1,0,0:0:0:0:
64,192,18940,1,0,0:0:0:0:
192,192,19161,1,0,0:0:0:0:
320,192,19161,1,0,0:0:0:0:
192,192,19381,1,0,0:0:0:0:
64,192,19381,1,0,0:0:0:0:
448,192,19381,1,0,0:0:0:0:
64,192,19822,1,0,0:0:0:0:
192,192,19822,1,0,0:0:0:0:
320,192,19822,1,0,0:0:0:0:
64,192,20264,1,0,0:0:0:0:
192,192,20264,1,0,0:0:0:0:
320,192,20264,1,0,0:0:0:0:
448,192,20705,1,0,0:0:0:0:
320,192,20705,1,0,0:0:0:0:
192,192,20705,1,0,0:0:0:0:
64,192,20925,1,0,0:0:0:0:
192,192,20925,1,0,0:0:0:0:
320,192,21146,1,0,0:0:0:0:
64,192,21146,1,0,0:0:0:0:
448,192,21146,1,0,0:0:0:0:
320,192,21587,1,0,0:0:0:0:
192,192,21587,1,0,0:0:0:0:
64,192,21587,1,0,0:0:0:0:
64,192,22028,1,0,0:0:0:0:
192,192,22028,1,0,0:0:0:0:
448,192,22028,1,0,0:0:0:0:
448,192,22469,1,0,0:0:0:0:
320,192,22469,1,0,0:0:0:0:
192,192,22469,1,0,0:0:0:0:
320,192,22690,1,0,0:0:0:0:
448,192,22690,1,0,0:0:0:0:
64,192,22911,1,0,0:0:0:0:
192,192,22911,1,0,0:0:0:0:
320,192,22911,1,0,0:0:0:0:
448,192,23131,1,0,0:0:0:0:
192,192,23131,1,0,0:0:0:0:
64,192,23572,1,0,0:0:0:0:
320,192,23572,1,0,0:0:0:0:
448,192,23572,1,0,0:0:0:0:
64,192,24014,1,0,0:0:0:0:
320,192,24014,1,0,0:0:0:0:
192,192,24234,1,0,0:0:0:0:
320,192,24234,1,0,0:0:0:0:
448,192,24234,1,0,0:0:0:0:
192,192,24455,1,0,0:0:0:0:
320,192,24455,1,0,0:0:0:0:
448,192,24455,1,0,0:0:0:0:
64,192,24675,128,0,25558:0:0:0:0:
448,192,25117,1,0,0:0:0:0:
320,192,25227,1,0,0:0:0:0:
192,192,25337,1,0,0:0:0:0:
320,192,25447,1,0,0:0:0:0:
448,192,25558,128,0,26440:0:0:0:0:
192,192,25558,1,0,0:0:0:0:
320,192,25668,1,0,0:0:0:0:
192,192,25778,1,0,0:0:0:0:
64,192,25889,1,0,0:0:0:0:
192,192,25999,1,0,0:0:0:0:
320,192,25999,1,0,0:0:0:0:
64,192,26219,1,0,0:0:0:0:
64,192,26440,1,0,0:0:0:0:
192,192,26440,1,0,0:0:0:0:
320,192,26440,1,0,0:0:0:0:
448,192,26881,1,0,0:0:0:0:
192,192,26881,1,0,0:0:0:0:
64,192,26881,1,0,0:0:0:0:
192,192,27322,1,0,0:0:0:0:
64,192,27322,1,0,0:0:0:0:
320,192,27322,1,0,0:0:0:0:
448,192,27543,1,0,0:0:0:0:
448,192,27764,1,0,0:0:0:0:
448,192,27984,1,0,0:0:0:0:
448,192,28205,1,0,0:0:0:0:
192,192,28315,1,0,0:0:0:0:
320,192,28425,1,0,0:0:0:0:
448,192,28536,1,0,0:0:0:0:
64,192,28646,1,0,0:0:0:0:
192,192,28646,1,0,0:0:0:0:
320,192,28756,1,0,0:0:0:0:
448,192,28867,1,0,0:0:0:0:
64,192,28977,1,0,0:0:0:0:
320,192,29087,1,0,0:0:0:0:
192,192,29087,1,0,0:0:0:0:
448,192,29087,1,0,0:0:0:0:
64,192,29528,1,0,0:0:0:0:
192,192,29528,1,0,0:0:0:0:
320,192,29528,1,0,0:0:0:0:
320,192,29969,1,0,0:0:0:0:
192,192,30080,1,0,0:0:0:0:
64,192,30190,1,0,0:0:0:0:
448,192,30300,1,0,0:0:0:0:
64,192,30411,1,0,0:0:0:0:
192,192,30411,1,0,0:0:0:0:
320,192,30521,1,0,0:0:0:0:
192,192,30631,1,0,0:0:0:0:
64,192,30742,1,0,0:0:0:0:
192,192,30852,1,0,0:0:0:0:
320,192,30852,1,0,0:0:0:0:
448,192,30852,1,0,0:0:0:0:
192,192,31293,1,0,0:0:0:0:
64,192,31293,1,0,0:0:0:0:
448,192,31293,1,0,0:0:0:0:
448,192,31734,1,0,0:0:0:0:
320,192,31844,1,0,0:0:0:0:
64,192,31955,1,0,0:0:0:0:
192,192,32065,1,0,0:0:0:0:
320,192,32175,1,0,0:0:0:0:
448,192,32175,1,0,0:0:0:0:
64,192,32286,1,0,0:0:0:0:
192,192,32396,1,0,0:0:0:0:
320,192,32506,1,0,0:0:0:0:
192,192,32617,1,0,0:0:0:0:
64,192,32617,1,0,0:0:0:0:
448,192,32617,1,0,0:0:0:0:
320,192,32727,1,0,0:0:0:0:
192,192,32837,1,0,0:0:0:0:
64,192,32947,1,0,0:0:0:0:
192,192,33058,1,0,0:0:0:0:
320,192,33058,1,0,0:0:0:0:
448,192,33168,1,0,0:0:0:0:
320,192,33278,1,0,0:0:0:0:
192,192,33389,1,0,0:0:0:0:
64,192,33499,1,0,0:0:0:0:
448,192,33499,1,0,0:0:0:0:
320,192,33499,1,0,0:0:0:0:
192,192,33609,1,0,0:0:0:0:
320,192,33719,1,0,0:0:0:0:
448,192,33830,1,0,0:0:0:0:
320,192,33940,1,0,0:0:0:0:
192,192,33940,1,0,0:0:0:0:
64,192,34050,1,0,0:0:0:0:
192,192,34161,1,0,0:0:0:0:
320,192,34271,1,0,0:0:0:0:
192,192,34381,1,0,0:0:0:0:
64,192,34381,1,0,0:0:0:0:
448,192,34381,1,0,0:0:0:0:
64,192,34602,1,0,0:0:0:0:
320,192,34602,1,0,0:0:0:0:
448,192,34602,1,0,0:0:0:0:
448,192,34822,1,0,0:0:0:0:
320,192,34822,1,0,0:0:0:0:
192,192,34822,1,0,0:0:0:0:
64,192,35043,1,0,0:0:0:0:
320,192,35043,1,0,0:0:0:0:
448,192,35043,1,0,0:0:0:0:
192,192,35264,1,0,0:0:0:0:
64,192,35264,1,0,0:0:0:0:
448,192,35264,1,0,0:0:0:0:
320,192,35374,1,0,0:0:0:0:
192,192,35484,1,0,0:0:0:0:
64,192,35594,1,0,0:0:0:0:
448,192,35705,1,0,0:0:0:0:
320,192,35705,1,0,0:0:0:0:
64,192,35815,1,0,0:0:0:0:
192,192,35925,1,0,0:0:0:0:
320,192,36036,1,0,0:0:0:0:
192,192,36146,1,0,0:0:0:0:
64,192,36146,1,0,0:0:0:0:
448,192,36146,1,0,0:0:0:0:
64,192,36587,1,0,0:0:0:0:
192,192,36587,1,0,0:0:0:0:
320,192,36587,1,0,0:0:0:0:
448,192,36587,1,0,0:0:0:0:
448,192,37028,1,0,0:0:0:0:
192,192,37139,1,0,0:0:0:0:
320,192,37249,1,0,0:0:0:0:
64,192,37359,1,0,0:0:0:0:
192,192,37469,1,0,0:0:0:0:
320,192,37469,1,0,0:0:0:0:
448,192,37580,1,0,0:0:0:0:
64,192,37690,1,0,0:0:0:0:
192,192,37800,1,0,0:0:0:0:
320,192,37911,1,0,0:0:0:0:
448,192,37911,1,0,0:0:0:0:
64,192,37911,1,0,0:0:0:0:
320,192,38352,1,0,0:0:0:0:
192,192,38793,1,0,0:0:0:0:
320,192,38903,1,0,0:0:0:0:
192,192,39014,1,0,0:0:0:0:
448,192,39124,1,0,0:0:0:0:
64,192,39234,1,0,0:0:0:0:
320,192,39234,1,0,0:0:0:0:
192,192,39344,1,0,0:0:0:0:
64,192,39455,1,0,0:0:0:0:
448,192,39565,1,0,0:0:0:0:
320,192,39675,1,0,0:0:0:0:
192,192,39675,1,0,0:0:0:0:
64,192,39675,1,0,0:0:0:0:
448,192,39786,1,0,0:0:0:0:
192,192,39896,1,0,0:0:0:0:
320,192,40006,1,0,0:0:0:0:
192,192,40117,1,0,0:0:0:0:
448,192,40117,1,0,0:0:0:0:
64,192,40227,1,0,0:0:0:0:
320,192,40337,1,0,0:0:0:0:
64,192,40447,1,0,0:0:0:0:
192,192,40558,1,0,0:0:0:0:
320,192,40558,1,0,0:0:0:0:
448,192,40558,1,0,0:0:0:0:
64,192,40668,1,0,0:0:0:0:
192,192,40778,1,0,0:0:0:0:
320,192,40889,1,0,0:0:0:0:
192,192,40999,1,0,0:0:0:0:
64,192,40999,1,0,0:0:0:0:
448,192,41109,1,0,0:0:0:0:
64,192,41219,1,0,0:0:0:0:
192,192,41330,1,0,0:0:0:0:
320,192,41440,1,0,0:0:0:0:
448,192,41440,1,0,0:0:0:0:
64,192,41440,1,0,0:0:0:0:
192,192,41550,1,0,0:0:0:0:
320,192,41661,1,0,0:0:0:0:
448,192,41771,1,0,0:0:0:0:
320,192,41881,1,0,0:0:0:0:
192,192,41881,1,0,0:0:0:0:
64,192,41992,1,0,0:0:0:0:
192,192,42102,1,0,0:0:0:0:
320,192,42212,1,0,0:0:0:0:
448,192,42322,1,0,0:0:0:0:
192,192,42322,1,0,0:0:0:0:
64,192,42322,1,0,0:0:0:0:
320,192,42433,1,0,0:0:0:0:
192,192,42543,1,0,0:0:0:0:
64,192,42653,1,0,0:0:0:0:
192,192,42764,1,0,0:0:0:0:
320,192,42764,1,0,0:0:0:0:
448,192,42874,1,0,0:0:0:0:
320,192,42984,1,0,0:0:0:0:
192,192,43094,1,0,0:0:0:0:
320,192,43205,1,0,0:0:0:0:
448,192,43205,1,0,0:0:0:0:
64,192,43315,1,0,0:0:0:0:
192,192,43425,1,0,0:0:0:0:
320,192,43536,1,0,0:0:0:0:
192,192,43646,1,0,0:0:0:0:
64,192,43646,1,0,0:0:0:0:
320,192,43756,1,0,0:0:0:0:
192,192,43867,1,0,0:0:0:0:
64,192,43977,1,0,0:0:0:0:
448,192,44087,1,0,0:0:0:0:
320,192,44197,1,0,0:0:0:0:
192,192,44308,1,0,0:0:0:0:
64,192,44418,1,0,0:0:0:0:
448,192,44528,1,0,0:0:0:0:
320,192,44639,1,0,0:0:0:0:
192,192,44749,1,0,0:0:0:0:
64,192,44859,1,0,0:0:0:0:
448,192,44969,1,0,0:0:0:0:
320,192,45080,1,0,0:0:0:0:
192,192,45190,1,0,0:0:0:0:
64,192,45300,1,0,0:0:0:0:
448,192,45411,1,0,0:0:0:0:
320,192,45521,1,0,0:0:0:0:
192,192,45631,1,0,0:0:0:0:
64,192,45742,1,0,0:0:0:0:
192,192,45852,1,0,0:0:0:0:
320,192,45852,1,0,0:0:0:0:
448,192,45852,1,0,0:0:0:0:
320,192,46072,1,0,0:0:0:0:
448,192,46183,1,0,0:0:0:0:
192,192,46293,1,0,0:0:0:0:
64,192,46293,1,0,0:0:0:0:
320,192,46403,1,0,0:0:0:0:
192,192,46514,1,0,0:0:0:0:
64,192,46624,1,0,0:0:0:0:
320,192,46734,1,0,0:0:0:0:
448,192,46734,1,0,0:0:0:0:
192,192,46844,1,0,0:0:0:0:
64,192,46955,1,0,0:0:0:0:
448,192,47065,1,0,0:0:0:0:
320,192,47175,1,0,0:0:0:0:
192,192,47175,1,0,0:0:0:0:
64,192,47286,1,0,0:0:0:0:
448,192,47396,1,0,0:0:0:0:
320,192,47506,1,0,0:0:0:0:
64,192,47617,1,0,0:0:0:0:
192,192,47727,1,0,0:0:0:0:
320,192,47837,1,0,0:0:0:0:
448,192,47947,1,0,0:0:0:0:
64,192,48058,1,0,0:0:0:0:
192,192,48168,1,0,0:0:0:0:
320,192,48278,1,0,0:0:0:0:
448,192,48389,1,0,0:0:0:0:
64,192,48499,1,0,0:0:0:0:
192,192,48609,1,0,0:0:0:0:
320,192,48719,1,0,0:0:0:0:
448,192,48830,1,0,0:0:0:0:
64,192,48940,1,0,0:0:0:0:
192,192,49050,1,0,0:0:0:0:
320,192,49161,1,0,0:0:0:0:
448,192,49271,1,0,0:0:0:0:
64,192,49381,1,0,0:0:0:0:
192,192,49381,1,0,0:0:0:0:
320,192,49381,1,0,0:0:0:0:
448,192,49492,1,0,0:0:0:0:
320,192,49602,1,0,0:0:0:0:
192,192,49712,1,0,0:0:0:0:
64,192,49822,1,0,0:0:0:0:
320,192,49822,1,0,0:0:0:0:
448,192,49933,1,0,0:0:0:0:
320,192,50043,1,0,0:0:0:0:
192,192,50153,1,0,0:0:0:0:
320,192,50264,1,0,0:0:0:0:
448,192,50264,1,0,0:0:0:0:
64,192,50374,1,0,0:0:0:0:
192,192,50484,1,0,0:0:0:0:
320,192,50594,1,0,0:0:0:0:
192,192,50705,1,0,0:0:0:0:
448,192,50705,1,0,0:0:0:0:
64,192,50815,1,0,0:0:0:0:
192,192,50925,1,0,0:0:0:0:
320,192,51036,1,0,0:0:0:0:
448,192,51146,1,0,0:0:0:0:
320,192,51256,1,0,0:0:0:0:
192,192,51367,1,0,0:0:0:0:
64,192,51477,1,0,0:0:0:0:
448,192,51587,1,0,0:0:0:0:
320,192,51697,1,0,0:0:0:0:
192,192,51808,1,0,0:0:0:0:
64,192,51918,1,0,0:0:0:0:
448,192,52028,1,0,0:0:0:0:
320,192,52139,1,0,0:0:0:0:
192,192,52249,1,0,0:0:0:0:
64,192,52359,1,0,0:0:0:0:
448,192,52469,1,0,0:0:0:0:
320,192,52580,1,0,0:0:0:0:
192,192,52690,1,0,0:0:0:0:
64,192,52800,1,0,0:0:0:0:
192,192,52911,1,0,0:0:0:0:
320,192,52911,1,0,0:0:0:0:
448,192,52911,1,0,0:0:0:0:
64,192,53021,1,0,0:0:0:0:
448,192,53131,1,0,0:0:0:0:
320,192,53242,1,0,0:0:0:0:
192,192,53352,1,0,0:0:0:0:
64,192,53352,1,0,0:0:0:0:
320,192,53462,1,0,0:0:0:0:
64,192,53572,1,0,0:0:0:0:
448,192,53683,1,0,0:0:0:0:
192,192,53793,1,0,0:0:0:0:
320,192,53793,1,0,0:0:0:0:
448,192,53903,1,0,0:0:0:0:
192,192,54014,1,0,0:0:0:0:
64,192,54124,1,0,0:0:0:0:
320,192,54234,1,0,0:0:0:0:
448,192,54234,1,0,0:0:0:0:
192,192,54344,1,0,0:0:0:0:
320,192,54455,1,0,0:0:0:0:
448,192,54565,1,0,0:0:0:0:
64,192,54675,1,0,0:0:0:0:
192,192,54786,1,0,0:0:0:0:
320,192,54896,1,0,0:0:0:0:
448,192,55006,1,0,0:0:0:0:
64,192,55117,1,0,0:0:0:0:
192,192,55227,1,0,0:0:0:0:
320,192,55337,1,0,0:0:0:0:
448,192,55447,1,0,0:0:0:0:
64,192,55558,1,0,0:0:0:0:
192,192,55668,1,0,0:0:0:0:
320,192,55778,1,0,0:0:0:0:
448,192,55889,1,0,0:0:0:0:
64,192,55999,1,0,0:0:0:0:
192,192,56109,1,0,0:0:0:0:
320,192,56219,1,0,0:0:0:0:
448,192,56330,1,0,0:0:0:0:
64,192,56440,1,0,0:0:0:0:
192,192,56440,1,0,0:0:0:0:
320,192,56440,1,0,0:0:0:0:
448,192,56550,1,0,0:0:0:0:
64,192,56661,1,0,0:0:0:0:
192,192,56771,1,0,0:0:0:0:
320,192,56881,1,0,0:0:0:0:
448,192,56881,1,0,0:0:0:0:
192,192,56992,1,0,0:0:0:0:
64,192,57102,1,0,0:0:0:0:
320,192,57212,1,0,0:0:0:0:
192,192,57322,1,0,0:0:0:0:
64,192,57322,1,0,0:0:0:0:
448,192,57322,1,0,0:0:0:0:
320,192,57433,1,0,0:0:0:0:
448,192,57543,1,0,0:0:0:0:
192,192,57653,1,0,0:0:0:0:
64,192,57764,1,0,0:0:0:0:
320,192,57764,1,0,0:0:0:0:
192,192,57874,1,0,0:0:0:0:
320,192,57984,1,0,0:0:0:0:
64,192,58094,1,0,0:0:0:0:
320,192,58205,1,0,0:0:0:0:
192,192,58205,1,0,0:0:0:0:
448,192,58205,1,0,0:0:0:0:
64,192,58315,1,0,0:0:0:0:
448,192,58425,1,0,0:0:0:0:
320,192,58536,1,0,0:0:0:0:
192,192,58646,1,0,0:0:0:0:
448,192,58646,1,0,0:0:0:0:
320,192,58756,1,0,0:0:0:0:
64,192,58867,1,0,0:0:0:0:
192,192,58977,1,0,0:0:0:0:
64,192,59087,1,0,0:0:0:0:
320,192,59087,1,0,0:0:0:0:
448,192,59087,1,0,0:0:0:0:
192,192,59197,1,0,0:0:0:0:
320,192,59308,1,0,0:0:0:0:
448,192,59418,1,0,0:0:0:0:
320,192,59528,1,0,0:0:0:0:
192,192,59528,1,0,0:0:0:0:
64,192,59639,1,0,0:0:0:0:
192,192,59749,1,0,0:0:0:0:
320,192,59859,1,0,0:0:0:0:
192,192,59969,1,0,0:0:0:0:
64,192,59969,1,0,0:0:0:0:
448,192,59969,1,0,0:0:0:0:
320,192,60080,1,0,0:0:0:0:
192,192,60190,1,0,0:0:0:0:
448,192,60300,1,0,0:0:0:0:
64,192,60411,1,0,0:0:0:0:
192,192,60411,1,0,0:0:0:0:
320,192,60521,1,0,0:0:0:0:
448,192,60631,1,0,0:0:0:0:
64,192,60742,1,0,0:0:0:0:
448,192,60852,1,0,0:0:0:0:
320,192,60852,1,0,0:0:0:0:
192,192,60852,1,0,0:0:0:0:
64,192,60962,1,0,0:0:0:0:
320,192,61072,1,0,0:0:0:0:
448,192,61183,1,0,0:0:0:0:
64,192,61293,1,0,0:0:0:0:
192,192,61293,1,0,0:0:0:0:
320,192,61293,1,0,0:0:0:0:
448,192,61403,1,0,0:0:0:0:
320,192,61514,1,0,0:0:0:0:
192,192,61624,1,0,0:0:0:0:
320,192,61734,1,0,0:0:0:0:
448,192,61734,1,0,0:0:0:0:
192,192,61844,1,0,0:0:0:0:
64,192,61955,1,0,0:0:0:0:
320,192,62065,1,0,0:0:0:0:
192,192,62175,1,0,0:0:0:0:
64,192,62175,1,0,0:0:0:0:
320,192,62286,1,0,0:0:0:0:
192,192,62396,1,0,0:0:0:0:
64,192,62396,1,0,0:0:0:0:
448,192,62506,1,0,0:0:0:0:
320,192,62617,1,0,0:0:0:0:
192,192,62617,1,0,0:0:0:0:
64,192,62727,1,0,0:0:0:0:
320,192,62837,1,0,0:0:0:0:
448,192,62837,1,0,0:0:0:0:
64,192,62947,1,0,0:0:0:0:
192,192,63058,1,0,0:0:0:0:
320,192,63058,1,0,0:0:0:0:
448,192,63168,1,0,0:0:0:0:
192,192,63278,1,0,0:0:0:0:
64,192,63278,1,0,0:0:0:0:
320,192,63389,1,0,0:0:0:0:
192,192,63499,1,0,0:0:0:0:
64,192,63499,1,0,0:0:0:0:
448,192,63499,1,0,0:0:0:0:
320,192,63609,1,0,0:0:0:0:
192,192,63719,1,0,0:0:0:0:
64,192,63830,1,0,0:0:0:0:
320,192,63940,1,0,0:0:0:0:
448,192,63940,1,0,0:0:0:0:
192,192,64050,1,0,0:0:0:0:
64,192,64161,1,0,0:0:0:0:
448,192,64271,1,0,0:0:0:0:
320,192,64381,1,0,0:0:0:0:
192,192,64381,1,0,0:0:0:0:
64,192,64381,1,0,0:0:0:0:
448,192,64492,1,0,0:0:0:0:
192,192,64602,1,0,0:0:0:0:
64,192,64712,1,0,0:0:0:0:
192,192,64822,1,0,0:0:0:0:
320,192,64822,1,0,0:0:0:0:
448,192,64933,1,0,0:0:0:0:
64,192,65043,1,0,0:0:0:0:
192,192,65153,1,0,0:0:0:0:
64,192,65264,1,0,0:0:0:0:
448,192,65264,1,0,0:0:0:0:
320,192,65264,1,0,0:0:0:0:
192,192,65374,1,0,0:0:0:0:
448,192,65484,1,0,0:0:0:0:
64,192,65594,1,0,0:0:0:0:
192,192,65705,1,0,0:0:0:0:
320,192,65705,1,0,0:0:0:0:
64,192,65815,1,0,0:0:0:0:
192,192,65925,1,0,0:0:0:0:
320,192,66036,1,0,0:0:0:0:
192,192,66146,1,0,0:0:0:0:
448,192,66146,1,0,0:0:0:0:
64,192,66146,1,0,0:0:0:0:
320,192,66256,1,0,0:0:0:0:
192,192,66367,1,0,0:0:0:0:
448,192,66477,1,0,0:0:0:0:
192,192,66587,1,0,0:0:0:0:
64,192,66587,1,0,0:0:0:0:
320,192,66697,1,0,0:0:0:0:
448,192,66808,1,0,0:0:0:0:
64,192,66918,1,0,0:0:0:0:
192,192,67028,1,0,0:0:0:0:
320,192,67028,1,0,0:0:0:0:
448,192,67028,1,0,0:0:0:0:
64,192,67139,1,0,0:0:0:0:
192,192,67249,1,0,0:0:0:0:
320,192,67359,1,0,0:0:0:0:
192,192,67469,1,0,0:0:0:0:
64,192,67469,1,0,0:0:0:0:
448,192,67469,1,0,0:0:0:0:
320,192,67580,1,0,0:0:0:0:
64,192,67690,1,0,0:0:0:0:
192,192,67800,1,0,0:0:0:0:
64,192,67911,1,0,0:0:0:0:
320,192,67911,1,0,0:0:0:0:
448,192,67911,1,0,0:0:0:0:
192,192,68021,1,0,0:0:0:0:
448,192,68131,1,0,0:0:0:0:
192,192,68242,1,0,0:0:0:0:
64,192,68352,1,0,0:0:0:0:
320,192,68352,1,0,0:0:0:0:
448,192,68352,1,0,0:0:0:0:
192,192,68462,1,0,0:0:0:0:
64,192,68572,1,0,0:0:0:0:
448,192,68683,1,0,0:0:0:0:
320,192,68793,1,0,0:0:0:0:
192,192,68793,1,0,0:0:0:0:
64,192,68903,1,0,0:0:0:0:
192,192,69014,1,0,0:0:0:0:
320,192,69014,1,0,0:0:0:0:
448,192,69124,1,0,0:0:0:0:
320,192,69234,1,0,0:0:0:0:
192,192,69234,1,0,0:0:0:0:
64,192,69344,1,0,0:0:0:0:
192,192,69455,1,0,0:0:0:0:
320,192,69455,1,0,0:0:0:0:
448,192,69565,1,0,0:0:0:0:
192,192,69675,1,0,0:0:0:0:
64,192,69675,1,0,0:0:0:0:
320,192,69786,1,0,0:0:0:0:
192,192,69896,1,0,0:0:0:0:
448,192,69896,1,0,0:0:0:0:
64,192,70006,1,0,0:0:0:0:
320,192,70117,1,0,0:0:0:0:
448,192,70117,1,0,0:0:0:0:
192,192,70227,1,0,0:0:0:0:
64,192,70337,1,0,0:0:0:0:
320,192,70337,1,0,0:0:0:0:
448,192,70447,1,0,0:0:0:0:
64,192,70558,1,0,0:0:0:0:
192,192,70558,1,0,0:0:0:0:
320,192,70558,1,0,0:0:0:0:
448,192,70668,1,0,0:0:0:0:
320,192,70778,1,0,0:0:0:0:
192,192,70889,1,0,0:0:0:0:
320,192,70999,1,0,0:0:0:0:
448,192,70999,1,0,0:0:0:0:
64,192,71109,1,0,0:0:0:0:
192,192,71219,5,0,0:0:0:0:
320,192,71330,1,0,0:0:0:0:
192,192,71440,1,0,0:0:0:0:
64,192,71440,1,0,0:0:0:0:
448,192,71550,1,0,0:0:0:0:
64,192,71661,1,0,0:0:0:0:
448,192,71771,1,0,0:0:0:0:
320,192,71881,1,0,0:0:0:0:
192,192,71881,1,0,0:0:0:0:
64,192,71992,1,0,0:0:0:0:
192,192,72102,1,0,0:0:0:0:
320,192,72212,1,0,0:0:0:0:
448,192,72322,5,0,0:0:0:0:
320,192,72433,1,0,0:0:0:0:
192,192,72543,1,0,0:0:0:0:
64,192,72653,1,0,0:0:0:0:
448,192,72764,1,0,0:0:0:0:
320,192,72874,1,0,0:0:0:0:
192,192,72984,1,0,0:0:0:0:
64,192,73094,1,0,0:0:0:0:
448,192,73205,1,0,0:0:0:0:
320,192,73315,1,0,0:0:0:0:
192,192,73425,1,0,0:0:0:0:
64,192,73536,1,0,0:0:0:0:
448,192,73646,1,0,0:0:0:0:
320,192,73756,1,0,0:0:0:0:
192,192,73867,1,0,0:0:0:0:
64,192,73977,1,0,0:0:0:0:
192,192,74087,1,0,0:0:0:0:
320,192,74087,1,0,0:0:0:0:
448,192,74087,1,0,0:0:0:0:
64,192,74308,1,0,0:0:0:0:
192,192,74418,1,0,0:0:0:0:
320,192,74528,1,0,0:0:0:0:
448,192,74528,1,0,0:0:0:0:
192,192,74639,1,0,0:0:0:0:
64,192,74749,1,0,0:0:0:0:
448,192,74859,1,0,0:0:0:0:
192,192,74969,1,0,0:0:0:0:
320,192,74969,1,0,0:0:0:0:
64,192,75080,1,0,0:0:0:0:
448,192,75190,1,0,0:0:0:0:
320,192,75300,1,0,0:0:0:0:
192,192,75411,1,0,0:0:0:0:
64,192,75411,1,0,0:0:0:0:
320,192,75521,1,0,0:0:0:0:
448,192,75631,1,0,0:0:0:0:
192,192,75742,1,0,0:0:0:0:
64,192,75852,1,0,0:0:0:0:
192,192,75962,1,0,0:0:0:0:
320,192,76072,1,0,0:0:0:0:
448,192,76183,1,0,0:0:0:0:
64,192,76293,1,0,0:0:0:0:
192,192,76403,1,0,0:0:0:0:
320,192,76514,1,0,0:0:0:0:
448,192,76624,1,0,0:0:0:0:
64,192,76734,1,0,0:0:0:0:
192,192,76844,1,0,0:0:0:0:
320,192,76955,1,0,0:0:0:0:
448,192,77065,1,0,0:0:0:0:
64,192,77175,1,0,0:0:0:0:
192,192,77286,1,0,0:0:0:0:
320,192,77396,1,0,0:0:0:0:
448,192,77506,1,0,0:0:0:0:
64,192,77617,1,0,0:0:0:0:
192,192,77617,1,0,0:0:0:0:
320,192,77617,1,0,0:0:0:0:
448,192,77837,1,0,0:0:0:0:
64,192,77947,1,0,0:0:0:0:
192,192,78058,1,0,0:0:0:0:
320,192,78058,1,0,0:0:0:0:
448,192,78168,1,0,0:0:0:0:
320,192,78278,1,0,0:0:0:0:
192,192,78389,1,0,0:0:0:0:
320,192,78499,1,0,0:0:0:0:
448,192,78499,1,0,0:0:0:0:
192,192,78609,1,0,0:0:0:0:
320,192,78719,1,0,0:0:0:0:
448,192,78830,1,0,0:0:0:0:
192,192,78940,1,0,0:0:0:0:
64,192,78940,1,0,0:0:0:0:
320,192,79050,1,0,0:0:0:0:
192,192,79161,1,0,0:0:0:0:
320,192,79271,1,0,0:0:0:0:
448,192,79381,1,0,0:0:0:0:
320,192,79492,1,0,0:0:0:0:
192,192,79602,1,0,0:0:0:0:
64,192,79712,1,0,0:0:0:0:
448,192,79822,1,0,0:0:0:0:
320,192,79933,1,0,0:0:0:0:
192,192,80043,1,0,0:0:0:0:
64,192,80153,1,0,0:0:0:0:
448,192,80264,1,0,0:0:0:0:
320,192,80374,1,0,0:0:0:0:
192,192,80484,1,0,0:0:0:0:
64,192,80594,1,0,0:0:0:0:
448,192,80705,1,0,0:0:0:0:
320,192,80815,1,0,0:0:0:0:
192,192,80925,1,0,0:0:0:0:
64,192,81036,1,0,0:0:0:0:
320,192,81146,1,0,0:0:0:0:
448,192,81146,1,0,0:0:0:0:
192,192,81146,1,0,0:0:0:0:
64,192,81367,1,0,0:0:0:0:
192,192,81477,1,0,0:0:0:0:
320,192,81587,1,0,0:0:0:0:
448,192,81587,1,0,0:0:0:0:
192,192,81697,1,0,0:0:0:0:
64,192,81808,1,0,0:0:0:0:
448,192,81918,1,0,0:0:0:0:
192,192,82028,1,0,0:0:0:0:
64,192,82028,1,0,0:0:0:0:
320,192,82139,1,0,0:0:0:0:
448,192,82249,1,0,0:0:0:0:
64,192,82359,1,0,0:0:0:0:
192,192,82469,1,0,0:0:0:0:
320,192,82469,1,0,0:0:0:0:
448,192,82580,1,0,0:0:0:0:
320,192,82690,1,0,0:0:0:0:
192,192,82800,1,0,0:0:0:0:
64,192,82911,1,0,0:0:0:0:
192,192,83021,1,0,0:0:0:0:
320,192,83131,1,0,0:0:0:0:
448,192,83242,1,0,0:0:0:0:
64,192,83352,1,0,0:0:0:0:
192,192,83462,1,0,0:0:0:0:
320,192,83572,1,0,0:0:0:0:
448,192,83683,1,0,0:0:0:0:
64,192,83793,1,0,0:0:0:0:
192,192,83903,1,0,0:0:0:0:
320,192,84014,1,0,0:0:0:0:
448,192,84124,1,0,0:0:0:0:
64,192,84234,1,0,0:0:0:0:
192,192,84344,1,0,0:0:0:0:
320,192,84455,1,0,0:0:0:0:
448,192,84565,1,0,0:0:0:0:
192,192,84675,1,0,0:0:0:0:
320,192,84786,1,0,0:0:0:0:
64,192,84896,1,0,0:0:0:0:
448,192,85006,1,0,0:0:0:0:
192,192,85117,1,0,0:0:0:0:
320,192,85117,1,0,0:0:0:0:
64,192,85117,1,0,0:0:0:0:
448,192,85227,1,0,0:0:0:0:
320,192,85337,1,0,0:0:0:0:
192,192,85447,1,0,0:0:0:0:
64,192,85558,1,0,0:0:0:0:
320,192,85558,1,0,0:0:0:0:
448,192,85558,1,0,0:0:0:0:
192,192,85668,1,0,0:0:0:0:
448,192,85778,1,0,0:0:0:0:
320,192,85889,1,0,0:0:0:0:
192,192,85999,1,0,0:0:0:0:
64,192,85999,1,0,0:0:0:0:
448,192,85999,1,0,0:0:0:0:
320,192,86109,1,0,0:0:0:0:
192,192,86219,1,0,0:0:0:0:
448,192,86330,1,0,0:0:0:0:
64,192,86440,1,0,0:0:0:0:
192,192,86440,1,0,0:0:0:0:
320,192,86440,1,0,0:0:0:0:
448,192,86550,1,0,0:0:0:0:
320,192,86661,1,0,0:0:0:0:
192,192,86661,1,0,0:0:0:0:
64,192,86771,1,0,0:0:0:0:
192,192,86881,1,0,0:0:0:0:
320,192,86881,1,0,0:0:0:0:
448,192,86881,1,0,0:0:0:0:
64,192,86992,1,0,0:0:0:0:
320,192,87102,1,0,0:0:0:0:
448,192,87102,1,0,0:0:0:0:
192,192,87212,1,0,0:0:0:0:
320,192,87322,1,0,0:0:0:0:
64,192,87322,1,0,0:0:0:0:
448,192,87322,1,0,0:0:0:0:
192,192,87433,1,0,0:0:0:0:
320,192,87543,1,0,0:0:0:0:
448,192,87543,1,0,0:0:0:0:
192,192,87653,1,0,0:0:0:0:
64,192,87764,1,0,0:0:0:0:
192,192,87874,1,0,0:0:0:0:
320,192,87984,1,0,0:0:0:0:
448,192,88094,1,0,0:0:0:0:
320,192,88205,1,0,0:0:0:0:
192,192,88205,1,0,0:0:0:0:
64,192,88205,1,0,0:0:0:0:
64,192,88646,1,0,0:0:0:0:
192,192,88646,1,0,0:0:0:0:
448,192,88756,1,0,0:0:0:0:
64,192,88867,1,0,0:0:0:0:
192,192,88867,1,0,0:0:0:0:
320,192,88977,1,0,0:0:0:0:
64,192,89087,1,0,0:0:0:0:
192,192,89087,1,0,0:0:0:0:
448,192,89197,1,0,0:0:0:0:
192,192,89308,1,0,0:0:0:0:
64,192,89308,1,0,0:0:0:0:
320,192,89418,1,0,0:0:0:0:
448,192,89528,1,0,0:0:0:0:
192,192,89639,1,0,0:0:0:0:
320,192,89749,1,0,0:0:0:0:
64,192,89859,1,0,0:0:0:0:
192,192,89969,1,0,0:0:0:0:
320,192,89969,1,0,0:0:0:0:
448,192,89969,1,0,0:0:0:0:
192,192,90190,1,0,0:0:0:0:
320,192,90190,1,0,0:0:0:0:
320,192,90411,1,0,0:0:0:0:
192,192,90411,1,0,0:0:0:0:
64,192,90411,1,0,0:0:0:0:
192,192,90631,1,0,0:0:0:0:
320,192,90631,1,0,0:0:0:0:
192,192,90852,1,0,0:0:0:0:
320,192,90852,1,0,0:0:0:0:
448,192,90852,1,0,0:0:0:0:
192,192,91072,1,0,0:0:0:0:
320,192,91072,1,0,0:0:0:0:
64,192,91072,1,0,0:0:0:0:
192,192,91293,1,0,0:0:0:0:
320,192,91293,1,0,0:0:0:0:
192,192,91514,1,0,0:0:0:0:
320,192,91514,1,0,0:0:0:0:
448,192,91514,1,0,0:0:0:0:
64,192,91734,1,0,0:0:0:0:
192,192,91844,1,0,0:0:0:0:
320,192,91955,1,0,0:0:0:0:
192,192,92065,1,0,0:0:0:0:
64,192,92175,1,0,0:0:0:0:
320,192,92175,1,0,0:0:0:0:
448,192,92175,1,0,0:0:0:0:
192,192,92286,1,0,0:0:0:0:
320,192,92396,1,0,0:0:0:0:
448,192,92506,1,0,0:0:0:0:
320,192,92617,1,0,0:0:0:0:
192,192,92617,1,0,0:0:0:0:
64,192,92617,1,0,0:0:0:0:
448,192,92727,1,0,0:0:0:0:
192,192,92837,1,0,0:0:0:0:
64,192,92947,1,0,0:0:0:0:
192,192,93058,1,0,0:0:0:0:
320,192,93058,1,0,0:0:0:0:
448,192,93058,1,0,0:0:0:0:
64,192,93168,1,0,0:0:0:0:
448,192,93278,1,0,0:0:0:0:
320,192,93389,1,0,0:0:0:0:
192,192,93499,1,0,0:0:0:0:
64,192,93499,1,0,0:0:0:0:
448,192,93499,1,0,0:0:0:0:
320,192,93609,1,0,0:0:0:0:
192,192,93719,1,0,0:0:0:0:
64,192,93719,1,0,0:0:0:0:
448,192,93830,1,0,0:0:0:0:
320,192,93940,1,0,0:0:0:0:
192,192,93940,1,0,0:0:0:0:
64,192,93940,1,0,0:0:0:0:
448,192,94050,1,0,0:0:0:0:
320,192,94161,1,0,0:0:0:0:
192,192,94161,1,0,0:0:0:0:
64,192,94271,1,0,0:0:0:0:
192,192,94381,1,0,0:0:0:0:
320,192,94381,1,0,0:0:0:0:
448,192,94381,1,0,0:0:0:0:
64,192,94492,1,0,0:0:0:0:
192,192,94602,1,0,0:0:0:0:
320,192,94712,1,0,0:0:0:0:
448,192,94822,1,0,0:0:0:0:
320,192,94933,1,0,0:0:0:0:
192,192,95043,1,0,0:0:0:0:
64,192,95153,1,0,0:0:0:0:
192,192,95264,1,0,0:0:0:0:
320,192,95264,1,0,0:0:0:0:
448,192,95264,1,0,0:0:0:0:
320,192,95705,1,0,0:0:0:0:
448,192,95705,1,0,0:0:0:0:
192,192,95815,1,0,0:0:0:0:
320,192,95925,1,0,0:0:0:0:
448,192,95925,1,0,0:0:0:0:
64,192,96036,1,0,0:0:0:0:
320,192,96146,1,0,0:0:0:0:
448,192,96146,1,0,0:0:0:0:
192,192,96256,1,0,0:0:0:0:
320,192,96367,1,0,0:0:0:0:
448,192,96367,1,0,0:0:0:0:
64,192,96587,1,0,0:0:0:0:
192,192,96587,1,0,0:0:0:0:
320,192,96587,1,0,0:0:0:0:
64,192,96808,1,0,0:0:0:0:
448,192,96808,1,0,0:0:0:0:
448,192,97028,1,0,0:0:0:0:
320,192,97028,1,0,0:0:0:0:
192,192,97028,1,0,0:0:0:0:
320,192,97249,1,0,0:0:0:0:
64,192,97249,1,0,0:0:0:0:
192,192,97469,1,0,0:0:0:0:
64,192,97469,1,0,0:0:0:0:
448,192,97469,1,0,0:0:0:0:
320,192,97690,1,0,0:0:0:0:
448,192,97690,1,0,0:0:0:0:
64,192,97911,1,0,0:0:0:0:
192,192,97911,1,0,0:0:0:0:
320,192,97911,1,0,0:0:0:0:
192,192,98131,1,0,0:0:0:0:
320,192,98131,1,0,0:0:0:0:
64,192,98352,1,0,0:0:0:0:
192,192,98352,1,0,0:0:0:0:
448,192,98352,1,0,0:0:0:0:
64,192,98793,1,0,0:0:0:0:
192,192,98903,1,0,0:0:0:0:
320,192,99014,1,0,0:0:0:0:
448,192,99124,1,0,0:0:0:0:
64,192,99234,1,0,0:0:0:0:
192,192,99344,1,0,0:0:0:0:
320,192,99455,1,0,0:0:0:0:
448,192,99565,1,0,0:0:0:0:
320,192,99675,1,0,0:0:0:0:
192,192,99786,1,0,0:0:0:0:
64,192,99896,1,0,0:0:0:0:
448,192,100006,1,0,0:0:0:0:
320,192,100117,1,0,0:0:0:0:
192,192,100227,1,0,0:0:0:0:
64,192,100337,1,0,0:0:0:0:
448,192,100447,1,0,0:0:0:0:
192,192,100558,1,0,0:0:0:0:
320,192,100558,1,0,0:0:0:0:
64,192,100668,1,0,0:0:0:0:
192,192,100778,1,0,0:0:0:0:
320,192,100889,1,0,0:0:0:0:
448,192,100999,1,0,0:0:0:0:
64,192,100999,1,0,0:0:0:0:
192,192,100999,1,0,0:0:0:0:
320,192,101109,1,0,0:0:0:0:
192,192,101219,1,0,0:0:0:0:
64,192,101330,1,0,0:0:0:0:
320,192,101440,1,0,0:0:0:0:
448,192,101440,1,0,0:0:0:0:
192,192,101550,1,0,0:0:0:0:
64,192,101661,1,0,0:0:0:0:
448,192,101771,1,0,0:0:0:0:
64,192,101881,1,0,0:0:0:0:
192,192,101881,1,0,0:0:0:0:
320,192,101881,1,0,0:0:0:0:
448,192,101992,1,0,0:0:0:0:
64,192,102102,1,0,0:0:0:0:
192,192,102212,1,0,0:0:0:0:
320,192,102322,1,0,0:0:0:0:
448,192,102322,1,0,0:0:0:0:
192,192,102433,1,0,0:0:0:0:
64,192,102543,1,0,0:0:0:0:
448,192,102653,1,0,0:0:0:0:
320,192,102764,1,0,0:0:0:0:
192,192,102764,1,0,0:0:0:0:
64,192,102764,1,0,0:0:0:0:
448,192,102874,1,0,0:0:0:0:
64,192,102984,1,0,0:0:0:0:
192,192,103094,1,0,0:0:0:0:
320,192,103205,1,0,0:0:0:0:
448,192,103205,1,0,0:0:0:0:
64,192,103315,1,0,0:0:0:0:
192,192,103425,1,0,0:0:0:0:
320,192,103536,1,0,0:0:0:0:
192,192,103646,1,0,0:0:0:0:
64,192,103646,1,0,0:0:0:0:
448,192,103646,1,0,0:0:0:0:
320,192,103756,1,0,0:0:0:0:
192,192,103867,1,0,0:0:0:0:
64,192,103977,1,0,0:0:0:0:
192,192,104087,1,0,0:0:0:0:
320,192,104087,1,0,0:0:0:0:
448,192,104087,1,0,0:0:0:0:
64,192,104197,1,0,0:0:0:0:
192,192,104308,1,0,0:0:0:0:
64,192,104418,1,0,0:0:0:0:
192,192,104528,1,0,0:0:0:0:
320,192,104528,1,0,0:0:0:0:
448,192,104528,1,0,0:0:0:0:
64,192,104639,1,0,0:0:0:0:
320,192,104749,1,0,0:0:0:0:
64,192,104859,1,0,0:0:0:0:
192,192,104969,1,0,0:0:0:0:
320,192,104969,1,0,0:0:0:0:
448,192,104969,1,0,0:0:0:0:
64,192,105080,1,0,0:0:0:0:
448,192,105190,1,0,0:0:0:0:
64,192,105300,1,0,0:0:0:0:
192,192,105411,1,0,0:0:0:0:
320,192,105411,1,0,0:0:0:0:
448,192,105411,1,0,0:0:0:0:
64,192,105521,1,0,0:0:0:0:
192,192,105631,1,0,0:0:0:0:
320,192,105742,1,0,0:0:0:0:
448,192,105852,1,0,0:0:0:0:
64,192,105852,1,0,0:0:0:0:
320,192,105962,1,0,0:0:0:0:
192,192,106072,1,0,0:0:0:0:
64,192,106072,1,0,0:0:0:0:
320,192,106183,1,0,0:0:0:0:
448,192,106293,1,0,0:0:0:0:
192,192,106293,1,0,0:0:0:0:
64,192,106403,1,0,0:0:0:0:
320,192,106514,1,0,0:0:0:0:
448,192,106514,1,0,0:0:0:0:
192,192,106624,1,0,0:0:0:0:
64,192,106734,1,0,0:0:0:0:
320,192,106734,1,0,0:0:0:0:
448,192,106844,1,0,0:0:0:0:
320,192,106955,1,0,0:0:0:0:
192,192,106955,1,0,0:0:0:0:
64,192,107065,1,0,0:0:0:0:
192,192,107175,1,0,0:0:0:0:
320,192,107175,1,0,0:0:0:0:
448,192,107286,1,0,0:0:0:0:
192,192,107396,1,0,0:0:0:0:
64,192,107396,1,0,0:0:0:0:
448,192,107506,1,0,0:0:0:0:
320,192,107617,1,0,0:0:0:0:
192,192,107617,1,0,0:0:0:0:
64,192,107727,1,0,0:0:0:0:
320,192,107837,1,0,0:0:0:0:
448,192,107837,1,0,0:0:0:0:
192,192,107947,1,0,0:0:0:0:
64,192,108058,1,0,0:0:0:0:
320,192,108058,1,0,0:0:0:0:
192,192,108168,1,0,0:0:0:0:
320,192,108278,1,0,0:0:0:0:
448,192,108278,1,0,0:0:0:0:
64,192,108389,1,0,0:0:0:0:
192,192,108499,1,0,0:0:0:0:
448,192,108499,1,0,0:0:0:0:
320,192,108499,1,0,0:0:0:0:
64,192,108609,1,0,0:0:0:0:
192,192,108719,1,0,0:0:0:0:
320,192,108719,1,0,0:0:0:0:
448,192,108830,1,0,0:0:0:0:
320,192,108940,1,0,0:0:0:0:
192,192,108940,1,0,0:0:0:0:
64,192,108940,1,0,0:0:0:0:
448,192,109050,1,0,0:0:0:0:
320,192,109161,1,0,0:0:0:0:
192,192,109271,1,0,0:0:0:0:
64,192,109381,1,0,0:0:0:0:
320,192,109381,1,0,0:0:0:0:
448,192,109381,1,0,0:0:0:0:
192,192,109492,1,0,0:0:0:0:
320,192,109602,1,0,0:0:0:0:
448,192,109602,1,0,0:0:0:0:
64,192,109712,1,0,0:0:0:0:
192,192,109822,1,0,0:0:0:0:
320,192,109822,1,0,0:0:0:0:
448,192,109822,1,0,0:0:0:0:
64,192,109933,1,0,0:0:0:0:
192,192,110043,1,0,0:0:0:0:
320,192,110043,1,0,0:0:0:0:
448,192,110153,1,0,0:0:0:0:
320,192,110264,1,0,0:0:0:0:
192,192,110264,1,0,0:0:0:0:
64,192,110264,1,0,0:0:0:0:
448,192,110374,1,0,0:0:0:0:
320,192,110484,1,0,0:0:0:0:
192,192,110484,1,0,0:0:0:0:
64,192,110594,1,0,0:0:0:0:
192,192,110705,1,0,0:0:0:0:
320,192,110705,1,0,0:0:0:0:
448,192,110705,1,0,0:0:0:0:
64,192,110815,1,0,0:0:0:0:
320,192,110925,1,0,0:0:0:0:
448,192,110925,1,0,0:0:0:0:
192,192,111036,1,0,0:0:0:0:
448,192,111146,1,0,0:0:0:0:
320,192,111201,1,0,0:0:0:0:
64,192,111256,1,0,0:0:0:0:
192,192,111311,1,0,0:0:0:0:
320,192,111367,1,0,0:0:0:0:
448,192,111422,1,0,0:0:0:0:
192,192,111477,1,0,0:0:0:0:
64,192,111532,1,0,0:0:0:0:
192,192,111587,1,0,0:0:0:0:
448,192,111642,1,0,0:0:0:0:
320,192,111697,1,0,0:0:0:0:
192,192,111753,1,0,0:0:0:0:
64,192,111808,1,0,0:0:0:0:
320,192,111863,1,0,0:0:0:0:
448,192,111918,1,0,0:0:0:0:
320,192,111973,1,0,0:0:0:0:
192,192,112028,1,0,0:0:0:0:
320,192,112083,1,0,0:0:0:0:
448,192,112139,1,0,0:0:0:0:
192,192,112194,1,0,0:0:0:0:
320,192,112249,1,0,0:0:0:0:
64,192,112304,1,0,0:0:0:0:
192,192,112359,1,0,0:0:0:0:
448,192,112414,1,0,0:0:0:0:
320,192,112469,1,0,0:0:0:0:
64,192,112525,1,0,0:0:0:0:
192,192,112580,1,0,0:0:0:0:
448,192,112635,1,0,0:0:0:0:
320,192,112690,1,0,0:0:0:0:
192,192,112745,1,0,0:0:0:0:
64,192,112800,1,0,0:0:0:0:
448,192,112911,1,0,0:0:0:0:
320,192,113021,1,0,0:0:0:0:
192,192,113131,1,0,0:0:0:0:
64,192,113131,1,0,0:0:0:0:
320,192,113242,1,0,0:0:0:0:
192,192,113352,1,0,0:0:0:0:
64,192,113352,1,0,0:0:0:0:
448,192,113462,1,0,0:0:0:0:
320,192,113572,1,0,0:0:0:0:
192,192,113572,1,0,0:0:0:0:
64,192,113683,1,0,0:0:0:0:
320,192,113793,1,0,0:0:0:0:
448,192,113793,1,0,0:0:0:0:
192,192,113903,1,0,0:0:0:0:
320,192,114014,1,0,0:0:0:0:
448,192,114014,1,0,0:0:0:0:
64,192,114124,1,0,0:0:0:0:
192,192,114234,1,0,0:0:0:0:
320,192,114234,1,0,0:0:0:0:
448,192,114344,1,0,0:0:0:0:
320,192,114455,1,0,0:0:0:0:
192,192,114455,1,0,0:0:0:0:
64,192,114455,1,0,0:0:0:0:
64,192,114675,1,0,0:0:0:0:
192,192,114675,1,0,0:0:0:0:
320,192,114896,1,0,0:0:0:0:
448,192,114896,1,0,0:0:0:0:
64,192,114896,1,0,0:0:0:0:
448,192,115117,1,0,0:0:0:0:
192,192,115117,1,0,0:0:0:0:
192,192,115337,1,0,0:0:0:0:
64,192,115337,1,0,0:0:0:0:
448,192,115337,1,0,0:0:0:0:
64,192,115558,1,0,0:0:0:0:
192,192,115668,1,0,0:0:0:0:
320,192,115778,1,0,0:0:0:0:
448,192,115889,1,0,0:0:0:0:
320,192,115999,1,0,0:0:0:0:
192,192,115999,1,0,0:0:0:0:
64,192,116109,1,0,0:0:0:0:
320,192,116219,1,0,0:0:0:0:
448,192,116219,1,0,0:0:0:0:
192,192,116330,1,0,0:0:0:0:
64,192,116440,1,0,0:0:0:0:
320,192,116440,1,0,0:0:0:0:
448,192,116440,1,0,0:0:0:0:
192,192,116550,1,0,0:0:0:0:
64,192,116661,1,0,0:0:0:0:
448,192,116771,1,0,0:0:0:0:
320,192,116881,1,0,0:0:0:0:
192,192,116881,1,0,0:0:0:0:
64,192,116881,1,0,0:0:0:0:
448,192,116992,1,0,0:0:0:0:
64,192,117102,1,0,0:0:0:0:
192,192,117212,1,0,0:0:0:0:
320,192,117322,1,0,0:0:0:0:
448,192,117322,1,0,0:0:0:0:
64,192,117322,1,0,0:0:0:0:
192,192,117433,1,0,0:0:0:0:
320,192,117543,1,0,0:0:0:0:
448,192,117543,1,0,0:0:0:0:
64,192,117653,1,0,0:0:0:0:
192,192,117764,1,0,0:0:0:0:
320,192,117764,1,0,0:0:0:0:
448,192,117874,1,0,0:0:0:0:
320,192,117984,1,0,0:0:0:0:
192,192,117984,1,0,0:0:0:0:
64,192,117984,1,0,0:0:0:0:
448,192,118094,1,0,0:0:0:0:
192,192,118205,1,0,0:0:0:0:
64,192,118315,1,0,0:0:0:0:
192,192,118425,1,0,0:0:0:0:
320,192,118425,1,0,0:0:0:0:
448,192,118425,1,0,0:0:0:0:
64,192,118536,1,0,0:0:0:0:
448,192,118646,1,0,0:0:0:0:
320,192,118756,1,0,0:0:0:0:
64,192,118867,1,0,0:0:0:0:
192,192,118867,1,0,0:0:0:0:
448,192,118867,1,0,0:0:0:0:
320,192,118977,1,0,0:0:0:0:
64,192,119087,1,0,0:0:0:0:
448,192,119197,1,0,0:0:0:0:
320,192,119308,1,0,0:0:0:0:
192,192,119418,1,0,0:0:0:0:
320,192,119528,1,0,0:0:0:0:
448,192,119528,1,0,0:0:0:0:
192,192,119639,1,0,0:0:0:0:
64,192,119749,1,0,0:0:0:0:
192,192,119859,1,0,0:0:0:0:
320,192,119969,1,0,0:0:0:0:
448,192,119969,1,0,0:0:0:0:
64,192,119969,1,0,0:0:0:0:
192,192,120080,1,0,0:0:0:0:
320,192,120190,1,0,0:0:0:0:
448,192,120300,1,0,0:0:0:0:
320,192,120411,1,0,0:0:0:0:
192,192,120411,1,0,0:0:0:0:
64,192,120521,1,0,0:0:0:0:
448,192,120631,1,0,0:0:0:0:
192,192,120742,1,0,0:0:0:0:
64,192,120852,1,0,0:0:0:0:
320,192,120852,1,0,0:0:0:0:
448,192,120852,1,0,0:0:0:0:
192,192,120962,1,0,0:0:0:0:
320,192,121072,1,0,0:0:0:0:
448,192,121072,1,0,0:0:0:0:
64,192,121183,1,0,0:0:0:0:
192,192,121293,1,0,0:0:0:0:
320,192,121293,1,0,0:0:0:0:
448,192,121293,1,0,0:0:0:0:
64,192,121403,1,0,0:0:0:0:
192,192,121514,1,0,0:0:0:0:
320,192,121514,1,0,0:0:0:0:
448,192,121624,1,0,0:0:0:0:
320,192,121734,1,0,0:0:0:0:
192,192,121734,1,0,0:0:0:0:
64,192,121734,1,0,0:0:0:0:
448,192,121844,1,0,0:0:0:0:
192,192,121955,1,0,0:0:0:0:
64,192,121955,1,0,0:0:0:0:
320,192,122065,1,0,0:0:0:0:
192,192,122175,1,0,0:0:0:0:
64,192,122175,1,0,0:0:0:0:
448,192,122175,1,0,0:0:0:0:
320,192,122286,1,0,0:0:0:0:
192,192,122396,1,0,0:0:0:0:
64,192,122506,1,0,0:0:0:0:
448,192,122617,1,0,0:0:0:0:
320,192,122617,1,0,0:0:0:0:
64,192,122837,1,0,0:0:0:0:
192,192,122837,1,0,0:0:0:0:
448,192,122837,1,0,0:0:0:0:
448,192,123058,1,0,0:0:0:0:
320,192,123058,1,0,0:0:0:0:
64,192,123058,1,0,0:0:0:0:
192,192,123278,1,0,0:0:0:0:
320,192,123278,1,0,0:0:0:0:
448,192,123278,1,0,0:0:0:0:
64,192,123499,1,0,0:0:0:0:
192,192,123499,1,0,0:0:0:0:
320,192,123499,1,0,0:0:0:0:
448,192,123940,1,0,0:0:0:0:
320,192,124050,1,0,0:0:0:0:
192,192,124161,1,0,0:0:0:0:
64,192,124271,1,0,0:0:0:0:
448,192,124381,1,0,0:0:0:0:
320,192,124455,1,0,0:0:0:0:
192,192,124528,1,0,0:0:0:0:
64,192,124602,1,0,0:0:0:0:
448,192,124675,1,0,0:0:0:0:
320,192,124749,1,0,0:0:0:0:
192,192,124822,1,0,0:0:0:0:
64,192,124822,1,0,0:0:0:0:
320,192,124933,1,0,0:0:0:0:
448,192,125043,1,0,0:0:0:0:
192,192,125043,1,0,0:0:0:0:
64,192,125153,1,0,0:0:0:0:
320,192,125264,1,0,0:0:0:0:
448,192,125264,1,0,0:0:0:0:
192,192,125374,1,0,0:0:0:0:
64,192,125484,1,0,0:0:0:0:
320,192,125484,1,0,0:0:0:0:
448,192,125594,1,0,0:0:0:0:
320,192,125705,1,0,0:0:0:0:
192,192,125705,1,0,0:0:0:0:
64,192,125815,1,0,0:0:0:0:
320,192,125925,1,0,0:0:0:0:
448,192,125925,1,0,0:0:0:0:
192,192,126036,1,0,0:0:0:0:
64,192,126146,1,0,0:0:0:0:
320,192,126146,1,0,0:0:0:0:
448,192,126146,1,0,0:0:0:0:
192,192,126256,1,0,0:0:0:0:
64,192,126367,1,0,0:0:0:0:
448,192,126477,1,0,0:0:0:0:
320,192,126587,1,0,0:0:0:0:
192,192,126697,1,0,0:0:0:0:
64,192,126808,1,0,0:0:0:0:
448,192,126918,1,0,0:0:0:0:
320,192,127028,1,0,0:0:0:0:
192,192,127139,1,0,0:0:0:0:
448,192,127249,1,0,0:0:0:0:
64,192,127359,1,0,0:0:0:0:
320,192,127469,1,0,0:0:0:0:
192,192,127469,1,0,0:0:0:0:
448,192,127469,1,0,0:0:0:0:
64,192,127580,1,0,0:0:0:0:
192,192,127690,1,0,0:0:0:0:
320,192,127800,1,0,0:0:0:0:
448,192,127911,1,0,0:0:0:0:
192,192,127911,1,0,0:0:0:0:
64,192,127911,1,0,0:0:0:0:
320,192,128021,1,0,0:0:0:0:
64,192,128131,1,0,0:0:0:0:
192,192,128242,1,0,0:0:0:0:
320,192,128352,1,0,0:0:0:0:
448,192,128352,1,0,0:0:0:0:
64,192,128352,1,0,0:0:0:0:
192,192,128462,1,0,0:0:0:0:
320,192,128572,1,0,0:0:0:0:
64,192,128683,1,0,0:0:0:0:
448,192,128793,1,0,0:0:0:0:
320,192,128793,1,0,0:0:0:0:
192,192,128793,1,0,0:0:0:0:
64,192,128903,1,0,0:0:0:0:
192,192,129014,1,0,0:0:0:0:
320,192,129014,1,0,0:0:0:0:
448,192,129124,1,0,0:0:0:0:
320,192,129234,1,0,0:0:0:0:
192,192,129234,1,0,0:0:0:0:
64,192,129234,1,0,0:0:0:0:
448,192,129344,1,0,0:0:0:0:
192,192,129455,1,0,0:0:0:0:
64,192,129455,1,0,0:0:0:0:
320,192,129565,1,0,0:0:0:0:
192,192,129675,1,0,0:0:0:0:
448,192,129675,1,0,0:0:0:0:
64,192,129675,1,0,0:0:0:0:
320,192,129786,1,0,0:0:0:0:
192,192,129896,1,0,0:0:0:0:
64,192,129896,1,0,0:0:0:0:
320,192,130006,1,0,0:0:0:0:
448,192,130117,1,0,0:0:0:0:
320,192,130227,1,0,0:0:0:0:
192,192,130337,1,0,0:0:0:0:
64,192,130447,1,0,0:0:0:0:
192,192,130558,1,0,0:0:0:0:
320,192,130558,1,0,0:0:0:0:
448,192,130558,1,0,0:0:0:0:
448,192,130999,1,0,0:0:0:0:
320,192,130999,1,0,0:0:0:0:
64,192,131109,1,0,0:0:0:0:
448,192,131219,1,0,0:0:0:0:
320,192,131219,1,0,0:0:0:0:
192,192,131330,1,0,0:0:0:0:
448,192,131440,1,0,0:0:0:0:
320,192,131440,1,0,0:0:0:0:
64,192,131550,1,0,0:0:0:0:
320,192,131661,1,0,0:0:0:0:
448,192,131661,1,0,0:0:0:0:
192,192,131771,1,0,0:0:0:0:
64,192,131881,1,0,0:0:0:0:
320,192,131992,1,0,0:0:0:0:
192,192,132102,1,0,0:0:0:0:
448,192,132212,1,0,0:0:0:0:
320,192,132322,1,0,0:0:0:0:
192,192,132322,1,0,0:0:0:0:
64,192,132322,1,0,0:0:0:0:
320,192,132543,1,0,0:0:0:0:
192,192,132543,1,0,0:0:0:0:
192,192,132764,1,0,0:0:0:0:
320,192,132764,1,0,0:0:0:0:
448,192,132764,1,0,0:0:0:0:
320,192,132984,1,0,0:0:0:0:
192,192,132984,1,0,0:0:0:0:
320,192,133205,1,0,0:0:0:0:
192,192,133205,1,0,0:0:0:0:
64,192,133205,1,0,0:0:0:0:
320,192,133425,1,0,0:0:0:0:
192,192,133425,1,0,0:0:0:0:
448,192,133425,1,0,0:0:0:0:
320,192,133646,1,0,0:0:0:0:
192,192,133646,1,0,0:0:0:0:
320,192,133867,1,0,0:0:0:0:
192,192,133867,1,0,0:0:0:0:
64,192,133867,1,0,0:0:0:0:
448,192,134087,1,0,0:0:0:0:
320,192,134197,1,0,0:0:0:0:
192,192,134308,1,0,0:0:0:0:
320,192,134418,1,0,0:0:0:0:
448,192,134528,1,0,0:0:0:0:
192,192,134528,1,0,0:0:0:0:
64,192,134528,1,0,0:0:0:0:
320,192,134639,1,0,0:0:0:0:
192,192,134749,1,0,0:0:0:0:
64,192,134859,1,0,0:0:0:0:
192,192,134969,1,0,0:0:0:0:
320,192,134969,1,0,0:0:0:0:
448,192,134969,1,0,0:0:0:0:
64,192,135080,1,0,0:0:0:0:
320,192,135190,1,0,0:0:0:0:
448,192,135300,1,0,0:0:0:0:
320,192,135411,1,0,0:0:0:0:
192,192,135411,1,0,0:0:0:0:
64,192,135411,1,0,0:0:0:0:
448,192,135521,1,0,0:0:0:0:
64,192,135631,1,0,0:0:0:0:
192,192,135742,1,0,0:0:0:0:
320,192,135852,1,0,0:0:0:0:
448,192,135852,1,0,0:0:0:0:
64,192,135852,1,0,0:0:0:0:
192,192,135962,1,0,0:0:0:0:
320,192,136072,1,0,0:0:0:0:
448,192,136072,1,0,0:0:0:0:
64,192,136183,1,0,0:0:0:0:
192,192,136293,1,0,0:0:0:0:
320,192,136293,1,0,0:0:0:0:
448,192,136293,1,0,0:0:0:0:
64,192,136403,1,0,0:0:0:0:
192,192,136514,1,0,0:0:0:0:
320,192,136514,1,0,0:0:0:0:
448,192,136624,1,0,0:0:0:0:
320,192,136734,1,0,0:0:0:0:
192,192,136734,1,0,0:0:0:0:
64,192,136734,1,0,0:0:0:0:
448,192,136844,1,0,0:0:0:0:
320,192,136955,1,0,0:0:0:0:
192,192,137065,1,0,0:0:0:0:
64,192,137175,1,0,0:0:0:0:
192,192,137286,1,0,0:0:0:0:
320,192,137396,1,0,0:0:0:0:
448,192,137506,1,0,0:0:0:0:
320,192,137617,1,0,0:0:0:0:
192,192,137617,1,0,0:0:0:0:
64,192,137617,1,0,0:0:0:0:
192,192,138058,1,0,0:0:0:0:
64,192,138058,1,0,0:0:0:0:
320,192,138168,1,0,0:0:0:0:
192,192,138278,1,0,0:0:0:0:
64,192,138278,1,0,0:0:0:0:
448,192,138389,1,0,0:0:0:0:
192,192,138499,1,0,0:0:0:0:
64,192,138499,1,0,0:0:0:0:
320,192,138609,1,0,0:0:0:0:
192,192,138719,1,0,0:0:0:0:
64,192,138719,1,0,0:0:0:0:
448,192,138940,1,0,0:0:0:0:
320,192,138940,1,0,0:0:0:0:
192,192,138940,1,0,0:0:0:0:
448,192,139161,1,0,0:0:0:0:
64,192,139161,1,0,0:0:0:0:
64,192,139381,1,0,0:0:0:0:
192,192,139381,1,0,0:0:0:0:
320,192,139381,1,0,0:0:0:0:
192,192,139602,1,0,0:0:0:0:
448,192,139602,1,0,0:0:0:0:
320,192,139822,1,0,0:0:0:0:
448,192,139822,1,0,0:0:0:0:
64,192,139822,1,0,0:0:0:0:
192,192,140043,1,0,0:0:0:0:
64,192,140043,1,0,0:0:0:0:
448,192,140264,1,0,0:0:0:0:
320,192,140264,1,0,0:0:0:0:
192,192,140264,1,0,0:0:0:0:
320,192,140484,1,0,0:0:0:0:
192,192,140484,1,0,0:0:0:0:
448,192,140705,1,0,0:0:0:0:
320,192,140705,1,0,0:0:0:0:
64,192,140705,1,0,0:0:0:0:
