osu file format v14

[General]
AudioFilename: audio.mp3
AudioLeadIn: 0
PreviewTime: 95740
Countdown: 0
SampleSet: Soft
StackLeniency: 0.7
Mode: 0
LetterboxInBreaks: 0
WidescreenStoryboard: 1

[Editor]
DistanceSpacing: 0.9
BeatDivisor: 4
GridSize: 4
TimelineZoom: 1.5

[Metadata]
Title:THATS WHAT I WANT
TitleUnicode:THATS WHAT I WANT
Artist:Lil Nas X
ArtistUnicode:Lil Nas X
Creator:KaedeharaKazuha
Version:NORMAL
Source:
Tags:pop english montero lamar hill kaedehara kazuha Addy2607 -_ascended_- -ascended- ascended kittyadventure gokugohan12468 Dariano KBeaZy Blake Slatkin Omer Fedi Ryan Tedder THAT'S THAT IS
BeatmapID:3334497
BeatmapSetID:1632817

[Difficulty]
HPDrainRate:3
CircleSize:3
OverallDifficulty:4
ApproachRate:5
SliderMultiplier:1.2
SliderTickRate:1

[Events]
//Background and Video events
0,0,"E_d5zIjVcAIG3sO.jpg",0,0
//Break Periods
2,119646,128332
//Storyboard Layer 0 (Background)
//Storyboard Layer 1 (Fail)
//Storyboard Layer 2 (Pass)
//Storyboard Layer 3 (Foreground)
//Storyboard Layer 4 (Overlay)
//Storyboard Sound Samples

[TimingPoints]
1010,340.909090909091,4,2,1,60,1,0
1010,-111.111111111111,4,2,1,60,0,0
6464,-105.263157894737,4,2,1,70,0,0
17373,-100,4,2,1,70,0,0
28282,-100,4,2,1,70,0,0
36464,-105.263157894737,4,2,1,60,0,0
38169,-105.263157894737,4,2,1,70,0,0
38510,-100,4,2,1,80,0,0
38850,-100,4,2,1,90,0,0
39191,-95.2380952380952,4,2,1,85,0,1
59646,-95.2380952380952,4,2,1,85,0,1
60669,-95.2380952380952,4,2,1,85,0,0
61010,-111.111111111111,4,2,1,50,0,0
62373,-111.111111111111,4,2,1,60,0,0
63737,-100,4,2,1,70,0,0
74646,-100,4,2,1,70,0,0
84191,-100,4,2,1,70,0,0
85555,-100,4,2,1,70,0,0
93737,-105.263157894737,4,2,1,60,0,0
95441,-105.263157894737,4,2,1,70,0,0
95782,-100,4,2,1,80,0,0
96123,-100,4,2,1,90,0,0
96464,-95.2380952380952,4,2,1,85,0,1
116919,-95.2380952380952,4,2,1,85,0,1
117941,-105.263157894737,4,2,1,85,0,0
118964,-105.263157894737,4,2,1,65,0,0
119646,-105.263157894737,4,2,1,50,0,0
129532,-100,4,2,1,70,0,0
129873,-100,4,2,1,70,0,0
130214,-100,4,2,1,70,0,0
130555,-95.2380952380952,4,2,1,95,0,1
140100,-95.2380952380952,4,2,1,95,0,1
141123,-100,4,2,1,95,0,0
141464,-100,4,2,1,95,0,0

[Colours]
Combo1 : 0,255,130
Combo2 : 0,130,255
Combo3 : 130,255,255
Combo4 : 190,190,190

[HitObjects]
256,192,1010,12,0,4419,0:0:0:0:
249,160,5100,5,2,0:0:0:0:
151,163,5441,1,2,0:0:0:0:
101,79,5782,1,2,0:0:0:0:
199,76,6123,1,2,0:0:0:0:
284,21,6464,6,0,B|334:-8|334:-8|390:29,1,113.999996955872,2|10,1:2|0:0,0:0:0:0:
424,60,6975,1,2,1:2:0:0:
424,60,7146,2,0,L|419:183,1,113.999996955872,2|10,0:0|0:0,0:0:0:0:
498,239,7828,2,0,P|526:290|484:341,1,113.999996955872,2|10,0:0|0:0,0:0:0:0:
462,367,8339,1,2,0:0:0:0:
462,367,8510,2,0,L|380:364,1,56.9999984779358,2|0,0:0|1:0,0:0:0:0:
353,362,8850,1,10,0:0:0:0:
278,291,9191,6,0,B|231:260|231:260|181:289,1,113.999996955872,2|10,1:2|0:0,0:0:0:0:
141,321,9703,1,2,1:2:0:0:
141,321,9873,2,0,B|94:351|94:351|44:322,1,113.999996955872,2|10,0:0|0:0,0:0:0:0:
4,228,10555,2,0,L|5:103,1,113.999996955872,2|10,0:0|0:0,0:0:0:0:
15,67,11066,1,2,0:0:0:0:
15,67,11237,2,0,L|77:67,1,56.9999984779358,2|0,0:0|1:0,0:0:0:0:
123,70,11578,1,10,0:0:0:0:
207,11,11919,6,0,P|233:64|209:122,1,113.999996955872,2|10,1:2|0:0,0:0:0:0:
190,159,12430,1,2,1:2:0:0:
190,159,12600,2,0,P|164:212|188:270,1,113.999996955872,2|10,0:0|0:0,0:0:0:0:
249,337,13282,2,0,L|377:337,1,113.999996955872,2|10,0:0|0:0,0:0:0:0:
418,341,13794,1,2,0:0:0:0:
418,341,13964,2,0,L|483:341,2,56.9999984779358,2|0|10,0:0|1:0|0:0,0:0:0:0:
366,252,14646,6,0,P|336:200|381:159,1,113.999996955872,2|10,1:2|0:0,0:0:0:0:
407,133,15157,2,0,P|437:81|392:40,1,113.999996955872,2|0,1:2|1:0,0:0:0:0:
359,24,15669,1,10,0:0:0:0:
275,83,16010,2,0,P|223:111|172:75,1,113.999996955872,2|10,0:0|0:0,0:0:0:0:
143,49,16521,2,0,P|91:21|40:57,1,113.999996955872,2|0,1:2|1:0,0:0:0:0:
14,85,17032,1,8,0:0:0:0:
71,176,17373,6,0,B|107:223|107:223|65:288,1,120,6|10,1:2|0:0,0:0:0:0:
42,319,17885,1,2,1:2:0:0:
42,319,18055,2,0,L|181:318,1,120,2|10,0:0|0:0,0:0:0:0:
267,322,18737,2,0,P|318:349|373:317,1,120,2|10,0:0|0:0,0:0:0:0:
412,289,19248,1,2,0:0:0:0:
412,289,19419,1,2,0:0:0:0:
408,181,19760,1,10,0:0:0:0:
368,80,20100,6,0,P|317:53|262:85,1,120,2|10,1:2|0:0,0:0:0:0:
234,124,20612,1,2,1:2:0:0:
234,124,20782,2,0,L|238:263,1,120,2|10,0:0|0:0,0:0:0:0:
177,333,21464,2,0,B|126:368|126:368|60:326,1,120,2|10,0:0|0:0,0:0:0:0:
37,308,21975,1,2,0:0:0:0:
37,308,22146,1,2,0:0:0:0:
37,199,22487,1,10,0:0:0:0:
37,90,22828,6,0,L|169:91,1,120,2|10,1:2|0:0,0:0:0:0:
207,67,23339,1,2,1:2:0:0:
207,67,23510,2,0,L|272:67,1,60,2|0,0:0|1:0,0:0:0:0:
320,70,23850,1,10,0:0:0:0:
407,6,24191,2,0,P|438:60|420:117,1,120,2|10,0:0|0:0,0:0:0:0:
394,159,24703,1,2,0:0:0:0:
394,159,24873,2,0,P|363:213|381:270,1,120,2|10,0:0|0:0,0:0:0:0:
444,350,25555,6,0,L|305:351,1,120,2|10,1:2|0:0,0:0:0:0:
269,349,26066,2,0,L|130:350,1,120,2|0,1:2|1:0,0:0:0:0:
94,350,26578,1,10,0:0:0:0:
49,251,26919,2,0,L|188:250,1,120,2|10,0:0|0:0,0:0:0:0:
224,252,27430,2,0,L|363:251,1,120,2|0,1:2|1:0,0:0:0:0:
399,251,27942,1,10,0:0:0:0:
484,186,28282,6,0,P|510:133|466:80,1,120,6|10,1:2|0:0,0:0:0:0:
380,43,28964,2,0,B|331:37|331:37|311:47|311:47|251:41,1,120,2|10,0:0|0:0,0:0:0:0:
155,27,29646,2,0,P|123:81|151:125,1,120,2|10,0:0|0:0,0:0:0:0:
193,166,30157,1,2,0:0:0:0:
193,166,30328,2,0,L|321:160,1,120,2|10,0:0|0:0,0:0:0:0:
412,203,31010,6,0,P|444:257|416:301,1,120,2|10,1:2|0:0,0:0:0:0:
320,349,31691,2,0,B|271:343|271:343|251:353|251:353|191:347,1,120,2|10,0:0|0:0,0:0:0:0:
97,373,32373,2,0,P|65:330|96:273,1,120,2|10,0:0|0:0,0:0:0:0:
138,246,32885,1,2,0:0:0:0:
138,246,33055,2,0,L|134:114,1,120,2|10,0:0|0:0,0:0:0:0:
77,33,33737,6,0,B|130:1|130:1|190:32,1,120,2|10,1:2|0:0,0:0:0:0:
267,93,34419,2,0,B|320:125|320:125|380:94,1,120,2|10,0:0|0:0,0:0:0:0:
456,31,35100,2,0,L|452:178,1,120,2|10,0:0|0:0,0:0:0:0:
456,209,35612,1,2,0:0:0:0:
456,209,35782,1,2,0:0:0:0:
511,301,36123,1,10,0:0:0:0:
427,360,36464,6,0,B|386:400|323:352|344:336|281:261|221:321,1,227.999993911743,2|0,1:2|0:0,0:0:0:0:
154,383,37487,1,10,0:0:0:0:
79,312,37828,2,0,L|79:196,1,113.999996955872,2|10,0:0|0:0,0:0:0:0:
6,117,38510,1,8,0:0:0:0:
77,36,38850,1,10,0:0:0:0:
169,101,39191,6,0,B|221:136|221:136|284:94,1,125.999996154785,4|8,1:0|0:0,0:0:0:0:
321,69,39703,2,0,B|373:34|373:34|436:76,1,125.999996154785,0|2,1:0|1:2,0:0:0:0:
465,109,40214,1,10,0:0:0:0:
461,222,40555,2,0,P|507:278|465:337,1,125.999996154785,2|8,0:0|0:0,0:0:0:0:
442,353,41066,1,0,0:0:0:0:
442,353,41237,2,0,L|361:349,1,62.9999980773926,2|2,0:0|1:2,0:0:0:0:
322,347,41578,2,0,L|241:343,1,62.9999980773926,10|2,0:0|0:0,0:0:0:0:
202,338,41919,6,0,P|173:282|211:234,1,125.999996154785,4|8,1:0|0:0,0:0:0:0:
250,199,42430,2,0,P|279:143|241:95,1,125.999996154785,0|0,1:0|1:0,0:0:0:0:
198,65,42941,1,10,0:0:0:0:
84,67,43282,2,0,L|82:-4,2,62.9999980773926,2|0|8,0:0|1:0|0:0,0:0:0:0:
54,117,43794,1,0,0:0:0:0:
54,117,43964,2,0,L|56:188,1,62.9999980773926,2|0,0:0|1:0,0:0:0:0:
60,236,44305,1,10,0:0:0:0:
10,338,44646,6,0,P|58:363|119:334,1,125.999996154785,4|8,1:0|0:0,0:0:0:0:
154,289,45157,2,0,P|202:264|263:293,1,125.999996154785,0|2,1:0|1:2,0:0:0:0:
296,339,45669,1,10,0:0:0:0:
400,294,46010,2,0,L|401:154,1,125.999996154785,2|8,0:0|0:0,0:0:0:0:
374,124,46521,1,0,0:0:0:0:
374,124,46691,2,0,L|311:123,1,62.9999980773926,2|2,0:0|1:2,0:0:0:0:
254,122,47032,2,0,L|191:121,1,62.9999980773926,10|2,0:0|0:0,0:0:0:0:
140,95,47373,6,0,P|84:75|27:118,1,125.999996154785,4|8,1:0|0:0,0:0:0:0:
12,162,47885,2,0,L|18:303,1,125.999996154785,0|0,1:0|1:0,0:0:0:0:
23,344,48396,1,10,0:0:0:0:
123,292,48737,2,0,L|120:221,2,62.9999980773926,2|0|8,0:0|1:0|0:0,0:0:0:0:
179,317,49248,1,0,1:0:0:0:
179,317,49419,2,0,B|225:311|225:311|253:324|253:324|310:316,1,125.999996154785,8|10,0:0|0:0,0:0:0:0:
357,308,49930,1,2,0:0:0:0:
357,308,50100,6,0,P|412:340|470:298,1,125.999996154785,4|10,1:0|0:0,0:0:0:0:
499,205,50782,2,0,L|496:77,1,125.999996154785,2|10,0:0|0:0,0:0:0:0:
461,40,51294,1,2,0:0:0:0:
461,40,51464,2,0,P|406:8|348:50,1,125.999996154785,2|10,0:0|0:0,0:0:0:0:
296,131,52146,2,0,L|299:259,1,125.999996154785,2|10,0:0|0:0,0:0:0:0:
184,259,52828,6,0,L|181:131,1,125.999996154785,6|10,1:2|0:0,0:0:0:0:
159,86,53339,1,0,1:0:0:0:
159,86,53510,2,0,B|106:52|106:52|39:93,1,125.999996154785,2|10,0:0|0:0,0:0:0:0:
4,186,54191,2,0,L|7:314,1,125.999996154785,2|8,0:0|0:0,0:0:0:0:
56,351,54703,1,2,0:0:0:0:
56,351,54873,2,0,L|119:349,1,62.9999980773926,2|0,0:0|1:0,0:0:0:0:
175,348,55214,1,10,0:0:0:0:
284,377,55555,6,0,P|309:325|266:261,1,125.999996154785,4|8,1:0|0:0,0:0:0:0:
227,244,56066,2,0,L|93:247,1,125.999996154785,0|2,1:0|1:2,0:0:0:0:
43,250,56578,1,10,0:0:0:0:
2,144,56919,2,0,L|136:141,1,125.999996154785,2|8,0:0|0:0,0:0:0:0:
188,142,57430,1,0,0:0:0:0:
188,142,57600,2,0,L|255:140,1,62.9999980773926,2|2,0:0|1:2,0:0:0:0:
307,139,57941,1,10,0:0:0:0:
412,96,58282,6,0,P|483:114|505:171,1,125.999996154785,4|8,1:0|0:0,0:0:0:0:
511,214,58794,2,0,P|493:285|436:307,1,125.999996154785,0|0,1:0|1:0,0:0:0:0:
392,306,59305,1,10,0:0:0:0:
278,307,59646,6,0,L|199:306,1,62.9999980773926,14|0,1:2|0:0,0:0:0:0:
158,306,59987,1,10,1:2:0:0:
122,198,60328,2,0,L|201:199,1,62.9999980773926,10|10,1:2|1:2,0:0:0:0:
242,199,60669,1,10,1:2:0:0:
256,192,61010,12,2,63055,0:0:0:0:
242,199,63737,6,0,B|294:229|294:229|348:196,1,120,6|10,1:2|0:0,0:0:0:0:
390,99,64419,2,0,L|457:92,2,60,2|0|10,0:0|1:0|0:0,0:0:0:0:
346,67,64930,2,0,B|294:37|294:37|240:70,1,120,2|2,0:0|1:2,0:0:0:0:
202,103,65441,1,10,0:0:0:0:
123,28,65782,1,2,0:0:0:0:
35,91,66123,2,0,L|40:160,1,60,10|0,0:0|0:0,0:0:0:0:
21,201,66464,6,0,L|29:322,1,120,2|10,1:2|0:0,0:0:0:0:
137,324,67146,2,0,L|142:393,2,60,2|0|10,0:0|1:0|0:0,0:0:0:0:
168,280,67657,2,0,P|221:249|276:283,1,120,2|0,0:0|1:0,0:0:0:0:
318,295,68169,1,10,0:0:0:0:
396,220,68510,2,0,L|396:144,1,60,2|0,0:0|1:0,0:0:0:0:
397,106,68850,1,10,0:0:0:0:
289,103,69191,6,0,L|164:103,1,120,2|10,1:2|0:0,0:0:0:0:
60,102,69873,2,0,L|60:26,2,60,2|0|10,0:0|1:0|0:0,0:0:0:0:
61,156,70385,2,0,L|61:280,1,120,2|2,0:0|1:2,0:0:0:0:
61,330,70896,1,10,0:0:0:0:
155,382,71237,1,2,0:0:0:0:
227,301,71578,2,0,L|227:232,1,60,10|2,0:0|0:0,0:0:0:0:
183,208,71919,6,0,P|151:149|182:111,1,120,2|10,1:2|0:0,0:0:0:0:
227,89,72430,2,0,L|357:89,1,120,2|0,1:2|1:0,0:0:0:0:
401,92,72941,1,10,0:0:0:0:
498,45,73282,2,0,L|498:175,1,120,2|10,0:0|0:0,0:0:0:0:
473,213,73794,2,0,B|511:265|511:265|478:327,1,120,2|0,1:2|1:0,0:0:0:0:
455,359,74305,1,8,0:0:0:0:
350,333,74646,6,0,B|304:329|304:329|283:344|283:344|216:338,1,120,6|10,1:2|0:0,0:0:0:0:
185,338,75157,1,2,1:2:0:0:
185,338,75328,1,2,0:0:0:0:
78,356,75669,2,0,P|50:327|54:293,1,60,10|2,0:0|0:0,0:0:0:0:
49,254,76010,2,0,L|49:128,1,120,2|10,0:0|0:0,0:0:0:0:
0,37,76691,2,0,L|126:37,1,120,2|10,0:0|0:0,0:0:0:0:
228,37,77373,6,0,B|263:86|263:86|235:144,1,120,2|10,1:2|0:0,0:0:0:0:
200,180,77885,1,2,1:2:0:0:
200,180,78055,1,2,0:0:0:0:
239,280,78396,2,0,L|309:280,1,60,10|2,0:0|0:0,0:0:0:0:
348,302,78737,2,0,B|401:336|401:336|458:301,1,120,2|10,0:0|0:0,0:0:0:0:
511,217,79419,2,0,L|511:79,1,120,2|10,0:0|0:0,0:0:0:0:
421,36,80100,6,0,P|367:7|310:34,1,120,2|10,1:2|0:0,0:0:0:0:
289,76,80612,1,2,1:2:0:0:
289,76,80782,2,0,L|289:156,1,60,2|0,0:0|1:0,0:0:0:0:
290,190,81123,1,10,0:0:0:0:
325,292,81464,2,0,L|241:293,1,60,2|0,0:0|1:0,0:0:0:0:
210,291,81805,2,0,L|126:292,1,60,10|2,0:0|0:0,0:0:0:0:
99,270,82146,2,0,P|74:209|110:161,1,120,2|10,0:0|0:0,0:0:0:0:
163,79,82828,6,0,L|163:-1,2,60,2|2|10,1:2|0:0|0:0,0:0:0:0:
203,115,83339,2,0,L|203:195,2,60,2|2|0,1:2|0:0|1:0,0:0:0:0:
243,79,83850,1,10,0:0:0:0:
339,29,84191,2,0,B|390:2|390:2|455:44,1,120,2|10,0:0|0:0,0:0:0:0:
482,72,84703,1,2,1:2:0:0:
482,72,84873,1,8,0:0:0:0:
481,180,85214,1,10,0:0:0:0:
478,287,85555,6,0,B|431:279|431:279|399:290|399:290|334:281,1,120,6|10,1:2|0:0,0:0:0:0:
274,350,86237,2,0,B|222:382|222:382|169:349,1,120,2|10,0:0|0:0,0:0:0:0:
91,278,86919,2,0,L|92:146,1,120,2|10,0:0|0:0,0:0:0:0:
67,116,87430,1,2,0:0:0:0:
67,116,87600,2,0,P|37:56|73:11,1,120,2|10,0:0|0:0,0:0:0:0:
170,6,88282,6,0,L|315:6,1,120,2|10,1:2|0:0,0:0:0:0:
340,102,88964,2,0,L|195:102,1,120,2|10,0:0|0:0,0:0:0:0:
120,145,89646,2,0,P|88:200|114:249,1,120,2|10,0:0|0:0,0:0:0:0:
152,280,90157,1,2,0:0:0:0:
152,280,90328,2,0,B|199:277|199:277|218:288|218:288|282:285,1,120,2|10,0:0|0:0,0:0:0:0:
365,335,91010,6,0,B|415:368|415:368|474:329,1,120,2|10,1:2|0:0,0:0:0:0:
506,235,91691,2,0,L|507:91,1,120,2|10,0:0|0:0,0:0:0:0:
424,44,92373,2,0,P|378:16|308:48,1,120,2|10,0:0|0:0,0:0:0:0:
282,75,92885,1,2,0:0:0:0:
282,75,93055,1,2,0:0:0:0:
192,14,93396,1,10,0:0:0:0:
121,88,93737,6,0,B|130:170|130:170|80:220|80:220|87:304,1,227.999993911743,2|0,1:2|0:0,0:0:0:0:
161,364,94760,1,10,0:0:0:0:
241,300,95100,2,0,B|290:271|290:271|352:306,1,113.999996955872,2|10,0:0|0:0,0:0:0:0:
422,368,95782,1,8,0:0:0:0:
503,297,96123,1,10,0:0:0:0:
459,192,96464,6,0,L|462:65,1,125.999996154785,4|8,1:0|0:0,0:0:0:0:
417,31,96975,2,0,P|358:69|293:40,1,125.999996154785,0|2,1:0|1:2,0:0:0:0:
269,12,97487,1,10,0:0:0:0:
169,66,97828,2,0,B|138:121|138:121|180:184,1,125.999996154785,2|8,0:0|0:0,0:0:0:0:
226,205,98339,1,0,0:0:0:0:
226,205,98510,2,0,L|313:203,1,62.9999980773926,2|2,0:0|1:2,0:0:0:0:
345,201,98850,2,0,L|432:199,1,62.9999980773926,10|2,0:0|0:0,0:0:0:0:
459,224,99191,6,0,B|490:279|490:279|448:342,1,125.999996154785,4|8,1:0|0:0,0:0:0:0:
399,345,99703,2,0,L|258:348,1,125.999996154785,0|0,1:0|1:0,0:0:0:0:
216,348,100214,1,10,0:0:0:0:
114,297,100555,2,0,L|43:298,2,62.9999980773926,2|0|8,0:0|1:0|0:0,0:0:0:0:
153,256,101066,1,0,0:0:0:0:
153,256,101237,2,0,L|151:185,1,62.9999980773926,2|0,0:0|1:0,0:0:0:0:
149,136,101578,1,10,0:0:0:0:
86,41,101919,6,0,L|227:37,1,125.999996154785,4|8,1:0|0:0,0:0:0:0:
268,37,102430,2,0,L|409:33,1,125.999996154785,0|2,1:0|1:2,0:0:0:0:
450,32,102941,1,10,0:0:0:0:
504,131,103282,2,0,L|363:135,1,125.999996154785,2|8,0:0|0:0,0:0:0:0:
327,161,103794,1,0,0:0:0:0:
327,161,103964,2,0,B|296:175|296:175|263:162,1,62.9999980773926,2|2,0:0|1:2,0:0:0:0:
218,138,104305,2,0,B|187:124|187:124|154:137,1,62.9999980773926,10|2,0:0|0:0,0:0:0:0:
118,173,104646,6,0,L|124:318,1,125.999996154785,4|8,1:0|0:0,0:0:0:0:
162,339,105157,2,0,B|215:372|215:372|286:325,1,125.999996154785,0|0,1:0|1:0,0:0:0:0:
316,306,105669,1,10,0:0:0:0:
413,247,106010,2,0,L|481:247,2,62.9999980773926,2|0|8,0:0|1:0|0:0,0:0:0:0:
369,219,106521,1,0,1:0:0:0:
369,219,106691,2,0,P|336:158|365:99,1,125.999996154785,8|10,0:0|0:0,0:0:0:0:
393,66,107203,1,2,0:0:0:0:
393,66,107373,6,0,L|251:66,1,125.999996154785,4|10,1:0|0:0,0:0:0:0:
153,64,108055,2,0,B|98:31|98:31|37:71,1,125.999996154785,2|10,0:0|0:0,0:0:0:0:
14,112,108566,1,2,0:0:0:0:
14,112,108737,2,0,L|16:246,1,125.999996154785,2|10,0:0|0:0,0:0:0:0:
39,349,109419,2,0,B|94:382|94:382|155:342,1,125.999996154785,2|10,0:0|0:0,0:0:0:0:
239,284,110100,6,0,P|265:229|235:170,1,125.999996154785,6|10,1:2|0:0,0:0:0:0:
202,137,110612,1,0,1:0:0:0:
202,137,110782,2,0,P|176:82|206:23,1,125.999996154785,2|10,0:0|0:0,0:0:0:0:
315,20,111464,2,0,B|358:16|358:16|391:36|391:36|448:32,1,125.999996154785,2|8,0:0|0:0,0:0:0:0:
482,63,111975,1,2,0:0:0:0:
482,63,112146,2,0,L|475:151,1,62.9999980773926,2|0,0:0|1:0,0:0:0:0:
473,182,112487,1,10,0:0:0:0:
505,290,112828,6,0,P|451:322|388:281,1,125.999996154785,4|8,1:0|0:0,0:0:0:0:
357,258,113339,2,0,P|303:226|240:267,1,125.999996154785,0|2,1:0|1:2,0:0:0:0:
211,293,113850,1,10,0:0:0:0:
127,369,114191,2,0,L|121:224,1,125.999996154785,2|8,0:0|0:0,0:0:0:0:
82,210,114703,1,0,0:0:0:0:
82,210,114873,2,0,L|79:137,1,62.9999980773926,2|2,0:0|1:2,0:0:0:0:
76,90,115214,1,10,0:0:0:0:
172,30,115555,6,0,B|216:24|216:24|246:42|246:42|301:35,1,125.999996154785,4|8,1:0|0:0,0:0:0:0:
343,60,116066,2,0,B|400:29|400:29|462:68,1,125.999996154785,0|0,1:0|1:0,0:0:0:0:
495,98,116578,1,10,0:0:0:0:
489,211,116919,6,0,L|486:288,1,62.9999980773926,14|0,1:2|0:0,0:0:0:0:
484,330,117260,1,10,1:2:0:0:
376,365,117600,2,0,L|379:288,1,62.9999980773926,10|10,1:2|1:2,0:0:0:0:
381,246,117941,1,10,1:2:0:0:
200,326,129532,6,0,L|61:322,2,120,8|8|10,0:0|0:0|0:0,0:0:0:0:
313,333,130555,2,0,L|452:337,1,125.999996154785,4|10,1:0|0:0,0:0:0:0:
499,241,131237,2,0,L|360:237,1,125.999996154785,2|10,0:0|0:0,0:0:0:0:
331,207,131748,1,2,0:0:0:0:
331,207,131919,2,0,P|280:174|227:211,1,125.999996154785,2|10,0:0|0:0,0:0:0:0:
175,304,132600,2,0,P|124:337|71:300,1,125.999996154785,2|10,0:0|0:0,0:0:0:0:
43,257,133112,1,2,0:0:0:0:
43,257,133282,6,0,L|45:108,1,125.999996154785,6|10,1:2|0:0,0:0:0:0:
4,24,133964,2,0,L|153:26,1,125.999996154785,2|10,0:0|0:0,0:0:0:0:
223,90,134646,2,0,B|190:145|190:145|232:215,1,125.999996154785,2|8,0:0|0:0,0:0:0:0:
259,248,135157,1,2,0:0:0:0:
259,248,135328,2,0,L|261:322,1,62.9999980773926,2|0,0:0|1:0,0:0:0:0:
263,367,135669,1,10,0:0:0:0:
372,337,136010,6,0,L|368:207,1,125.999996154785,4|8,1:0|0:0,0:0:0:0:
400,163,136521,2,0,P|434:115|402:46,1,125.999996154785,0|2,1:0|1:2,0:0:0:0:
369,20,137032,1,10,0:0:0:0:
269,75,137373,2,0,B|219:69|219:69|192:87|192:87|131:81,1,125.999996154785,2|8,0:0|0:0,0:0:0:0:
99,110,137885,1,0,0:0:0:0:
99,110,138055,2,0,L|105:179,1,62.9999980773926,2|2,0:0|1:2,0:0:0:0:
78,223,138396,1,10,0:0:0:0:
129,324,138737,6,0,B|184:289|184:289|252:326,1,125.999996154785,4|8,1:0|0:0,0:0:0:0:
286,346,139248,2,0,B|341:381|341:381|409:344,1,125.999996154785,0|0,1:0|1:0,0:0:0:0:
443,321,139760,1,10,0:0:0:0:
439,208,140100,6,0,L|436:129,1,62.9999980773926,14|0,1:2|0:0,0:0:0:0:
435,88,140441,1,10,1:2:0:0:
325,57,140782,2,0,L|328:136,1,62.9999980773926,10|10,1:2|1:2,0:0:0:0:
329,177,141123,1,10,1:2:0:0:
