osu file format v14

[General]
AudioFilename: audio.mp3
AudioLeadIn: 0
PreviewTime: 95740
Countdown: 0
SampleSet: Soft
StackLeniency: 0.2
Mode: 0
LetterboxInBreaks: 0
WidescreenStoryboard: 0

[Editor]
DistanceSpacing: 2
BeatDivisor: 4
GridSize: 4
TimelineZoom: 1

[Metadata]
Title:THATS WHAT I WANT
TitleUnicode:THATS WHAT I WANT
Artist:Lil Nas X
ArtistUnicode:Lil Nas X
Creator:KaedeharaKazuha
Version:GOKUGOHAN12468'S INSANE
Source:
Tags:pop english montero lamar hill kaedehara kazuha Addy2607 -_ascended_- -ascended- ascended kittyadventure gokugohan12468 Dariano KBeaZy Blake Slatkin Omer Fedi Ryan Tedder THAT'S THAT IS
BeatmapID:3332932
BeatmapSetID:1632817

[Difficulty]
HPDrainRate:4.5
CircleSize:4
OverallDifficulty:7
ApproachRate:8.5
SliderMultiplier:1.76
SliderTickRate:1

[Events]
//Background and Video events
0,0,"E_d5zIjVcAIG3sO.jpg",0,0
//Break Periods
2,119646,128857
//Storyboard Layer 0 (Background)
//Storyboard Layer 1 (Fail)
//Storyboard Layer 2 (Pass)
//Storyboard Layer 3 (Foreground)
//Storyboard Layer 4 (Overlay)
//Storyboard Sound Samples

[TimingPoints]
1010,340.909090909091,4,2,1,60,1,0
1010,-133.333333333333,4,2,1,60,0,0
6464,-117.647058823529,4,2,1,70,0,0
36464,-133.333333333333,4,2,1,60,0,0
38169,-100,4,2,1,70,0,0
38510,-117.647058823529,4,2,1,80,0,0
38850,-142.857142857143,4,2,1,90,0,0
39191,-100,4,2,1,85,0,1
60669,-100,4,2,1,85,0,0
61010,-133.333333333333,4,2,1,50,0,0
62373,-133.333333333333,4,2,1,60,0,0
63737,-117.647058823529,4,2,1,70,0,0
74305,-80,4,2,1,70,0,0
74561,-80,4,2,1,5,0,0
74646,-100,4,2,1,70,0,1
74731,-100,4,2,1,70,0,0
84191,-133.333333333333,4,2,1,70,0,0
85555,-117.647058823529,4,2,1,70,0,0
93737,-133.333333333333,4,2,1,60,0,0
95441,-100,4,2,1,70,0,0
95782,-117.647058823529,4,2,1,80,0,0
96123,-142.857142857143,4,2,1,90,0,0
96464,-100,4,2,1,85,0,1
117941,-400,4,2,1,85,0,0
118964,-400,4,2,1,65,0,0
119646,-200,4,2,1,50,0,0
129532,-133.333333333333,4,2,1,70,0,0
130555,-90.9090909090909,4,2,1,95,0,1
141123,-400,4,2,1,95,0,0
141464,-400,4,2,1,5,0,0

[Colours]
Combo1 : 0,255,130
Combo2 : 0,130,255
Combo3 : 130,255,255
Combo4 : 190,190,190

[HitObjects]
45,115,1010,6,0,P|94:74|156:87,1,132.000005035401,2|2,0:0|0:0,0:0:0:0:
200,160,1521,2,0,P|249:200|311:187,1,132.000005035401,2|2,0:0|0:0,0:0:0:0:
370,125,2032,2,0,L|365:59,1,66.0000025177003,2|2,0:0|0:0,0:0:0:0:
505,285,2373,6,0,B|453:280|453:280|432:298|432:298|380:293,1,132.000005035401,2|2,0:0|0:0,0:0:0:0:
320,355,2885,1,2,0:0:0:0:
245,315,3055,6,0,B|183:338|183:338|131:296,1,132.000005035401,2|2,0:0|0:0,0:0:0:0:
50,280,3566,1,2,0:0:0:0:
90,150,3737,6,0,L|76:18,1,132.000005035401,2|2,0:0|0:0,0:0:0:0:
170,180,4248,2,0,L|183:48,1,132.000005035401,2|2,0:0|0:0,0:0:0:0:
270,80,4760,2,0,L|263:14,1,66.0000025177003,2|2,0:0|0:0,0:0:0:0:
500,190,5100,6,0,P|444:157|381:172,1,132.000005035401,2|2,0:0|0:0,0:0:0:0:
431,249,5612,1,2,0:0:0:0:
245,290,5782,6,0,P|300:322|363:307,1,132.000005035401,2|2,0:0|0:0,0:0:0:0:
239,192,6294,1,2,0:0:0:0:
382,172,6464,6,0,B|297:152|325:211|239:192,1,149.600002853394,2|10,1:2|0:0,0:0:0:0:
180,125,6975,1,2,1:2:0:0:
255,35,7146,2,0,P|261:71|267:108,1,74.8000014266968,2|0,0:0|1:0,0:0:0:0:
160,210,7487,1,10,0:0:0:0:
95,150,7657,1,2,0:0:0:0:
239,191,7828,5,2,0:0:0:0:
135,295,7998,1,2,1:2:0:0:
75,235,8169,1,10,0:0:0:0:
220,275,8339,1,2,0:0:0:0:
180,125,8510,2,0,P|174:87|167:51,1,74.8000014266968,2|0,0:0|1:0,0:0:0:0:
135,295,8850,1,10,0:0:0:0:
239,191,9191,6,0,P|311:191|355:248,1,149.600002853394,2|10,1:2|0:0,0:0:0:0:
425,305,9703,1,2,1:2:0:0:
295,380,9873,2,0,P|310:346|344:332,1,74.8000014266968,2|0,0:0|1:0,0:0:0:0:
495,360,10214,1,10,0:0:0:0:
425,305,10385,1,2,0:0:0:0:
485,145,10555,6,0,B|454:101|454:101|481:9,1,149.600002853394,2|10,0:0|0:0,0:0:0:0:
370,110,11066,1,2,0:0:0:0:
300,60,11237,2,0,P|264:72|227:78,1,74.8000014266968,2|0,0:0|1:0,0:0:0:0:
120,10,11578,1,10,0:0:0:0:
5,195,11919,6,0,B|83:185|83:185|108:212|146:212,1,149.600002853394,2|10,1:2|0:0,0:0:0:0:
60,275,12430,1,2,1:2:0:0:
220,165,12600,2,0,P|230:200|226:237,1,74.8000014266968,2|0,0:0|1:0,0:0:0:0:
105,355,12941,1,10,0:0:0:0:
147,212,13112,1,2,0:0:0:0:
240,325,13282,5,2,0:0:0:0:
160,295,13453,1,2,1:2:0:0:
305,265,13623,1,10,0:0:0:0:
305,265,13794,1,2,0:0:0:0:
506,351,13964,2,0,P|470:340|433:334,1,74.8000014266968,2|0,0:0|1:0,0:0:0:0:
315,180,14305,5,10,0:0:0:0:
495,125,14475,1,2,0:0:0:0:
425,70,14646,5,2,1:2:0:0:
385,235,14816,1,2,0:0:0:0:
340,95,14987,1,10,0:0:0:0:
470,209,15157,2,0,P|421:263|433:334,1,149.600002853394,2|0,1:2|1:0,0:0:0:0:
510,365,15669,2,0,P|512:327|520:291,1,74.8000014266968,10|2,0:0|0:0,0:0:0:0:
495,125,16010,5,2,0:0:0:0:
315,180,16180,1,2,1:2:0:0:
245,125,16350,2,0,P|242:87|240:50,1,74.8000014266968,10|2,0:0|1:2,0:0:0:0:
305,265,16691,2,0,P|302:302|300:339,1,74.8000014266968,8|0,0:0|1:0,0:0:0:0:
165,155,17032,2,0,P|162:117|160:80,1,74.8000014266968,8|0,0:0|0:0,0:0:0:0:
20,230,17373,6,0,B|55:204|95:211|95:211|119:240|155:242,1,149.600002853394,6|10,1:2|0:0,0:0:0:0:
233,209,17885,1,2,1:2:0:0:
72,298,18055,2,0,L|64:372,1,74.8000014266968,2|0,0:0|1:0,0:0:0:0:
162,317,18396,2,0,L|154:242,1,74.8000014266968,10|2,0:0|0:0,0:0:0:0:
249,75,18737,6,0,P|269:145|233:208,1,149.600002853394,2|10,0:0|0:0,0:0:0:0:
165,155,19248,1,2,0:0:0:0:
355,130,19419,2,0,L|429:138,1,74.8000014266968,2|0,0:0|1:0,0:0:0:0:
345,215,19760,2,0,L|419:223,1,74.8000014266968,10|0,0:0|0:0,0:0:0:0:
505,345,20100,6,0,B|460:338|440:308|440:308|423:339|382:349,1,149.600002853394,2|10,1:2|0:0,0:0:0:0:
310,300,20612,1,2,1:2:0:0:
310,300,20782,2,0,P|305:337|298:373,1,74.8000014266968,2|0,0:0|1:0,0:0:0:0:
170,220,21123,1,10,0:0:0:0:
255,235,21294,1,2,0:0:0:0:
240,65,21464,5,2,0:0:0:0:
225,150,21635,1,0,1:0:0:0:
70,80,21805,1,10,0:0:0:0:
155,95,21976,1,2,0:0:0:0:
310,125,22146,2,0,P|346:131|383:139,1,74.8000014266968,2|0,0:0|1:0,0:0:0:0:
470,15,22487,2,0,P|461:51|455:88,1,74.8000014266968,10|0,0:0|0:0,0:0:0:0:
505,255,22828,6,0,P|443:215|373:234,1,149.600002853394,2|10,1:2|0:0,0:0:0:0:
430,305,23339,1,2,1:2:0:0:
285,220,23510,2,0,P|293:256|299:293,1,74.8000014266968,2|0,0:0|1:0,0:0:0:0:
230,150,23850,1,10,0:0:0:0:
200,230,24021,1,2,0:0:0:0:
315,140,24191,6,0,P|244:117|191:65,1,149.600002853394,2|10,0:0|0:0,0:0:0:0:
115,35,24703,1,2,0:0:0:0:
50,130,24873,2,0,P|85:119|122:117,1,74.8000014266968,2|0,0:0|1:0,0:0:0:0:
255,15,25214,1,10,0:0:0:0:
285,220,25385,1,2,0:0:0:0:
315,140,25555,5,2,1:2:0:0:
200,230,25725,1,2,0:0:0:0:
340,290,25896,1,10,0:0:0:0:
230,150,26066,2,0,P|157:152|113:210,1,149.600002853394,2|0,1:2|1:0,0:0:0:0:
370,210,26578,1,10,0:0:0:0:
455,195,26748,1,2,0:0:0:0:
255,300,26919,5,2,0:0:0:0:
270,380,27089,1,2,1:2:0:0:
190,360,27260,2,0,P|152:357|115:356,1,74.8000014266968,10|2,0:0|1:2,0:0:0:0:
340,290,27600,2,0,P|377:287|414:286,1,74.8000014266968,8|0,0:0|1:0,0:0:0:0:
200,230,27941,2,0,P|162:227|125:226,1,74.8000014266968,10|0,0:0|0:0,0:0:0:0:
25,205,28282,6,0,P|94:183|131:120,1,149.600002853394,6|10,1:2|0:0,0:0:0:0:
160,40,28794,1,2,1:2:0:0:
5,65,28964,2,0,P|41:59|78:53,1,74.8000014266968,2|0,0:0|1:0,0:0:0:0:
215,110,29305,2,0,P|251:116|288:121,1,74.8000014266968,10|2,0:0|0:0,0:0:0:0:
365,18,29646,2,0,P|373:54|365:90,1,74.8000014266968,2|2,0:0|1:2,0:0:0:0:
423,221,29987,2,0,P|433:185|425:150,1,74.8000014266968,10|2,0:0|0:0,0:0:0:0:
480,290,30328,2,0,P|408:267|334:260,2,149.600002853394,2|10|2,0:0|0:0|1:2,0:0:0:0:
265,310,31180,5,0,0:0:0:0:
200,250,31350,2,0,P|201:212|204:175,1,74.8000014266968,10|2,0:0|1:2,0:0:0:0:
368,165,31691,2,0,P|367:128|365:91,1,74.8000014266968,2|0,0:0|1:0,0:0:0:0:
155,100,32032,2,0,P|156:62|159:25,1,74.8000014266968,10|2,0:0|0:0,0:0:0:0:
64,125,32373,2,0,P|136:142|203:175,1,149.600002853394,2|10,0:0|0:0,0:0:0:0:
255,105,32885,1,2,0:0:0:0:
315,220,33055,2,0,P|334:188|330:152,1,74.8000014266968,2|0,0:0|1:0,0:0:0:0:
230,260,33396,2,0,P|303:271|377:282,1,149.600002853394,10|2,0:0|1:2,0:0:0:0:
200,340,33907,5,2,0:0:0:0:
125,300,34078,2,0,L|98:369,1,74.8000014266968,10|2,0:0|1:2,0:0:0:0:
20,315,34419,1,2,0:0:0:0:
5,225,34589,1,0,1:0:0:0:
70,160,34760,2,0,P|61:123|60:86,1,74.8000014266968,10|2,0:0|0:0,0:0:0:0:
230,65,35100,2,0,P|238:101|239:138,1,74.8000014266968,2|0,0:0|1:0,0:0:0:0:
152,148,35441,2,0,P|143:111|142:74,1,74.8000014266968,10|2,0:0|0:0,0:0:0:0:
300,10,35782,2,0,L|374:18,1,74.8000014266968,2|0,0:0|1:0,0:0:0:0:
505,100,36123,5,10,0:0:0:0:
345,140,36294,1,2,0:0:0:0:
420,90,36464,6,0,L|431:154,1,66.0000025177003,2|0,1:2|0:0,0:0:0:0:
460,240,36805,1,10,0:0:0:0:
365,290,36975,2,0,L|376:225,1,66.0000025177003,2|0,1:2|0:0,0:0:0:0:
450,330,37316,1,0,1:0:0:0:
380,380,37487,1,10,0:0:0:0:
295,355,37657,1,2,0:0:0:0:
270,270,37828,2,0,L|205:283,1,66.0000025177003,2|2,0:0|1:2,0:0:0:0:
40,140,38169,6,0,P|66:105|108:96,1,88,10|2,0:0|1:2,0:0:0:0:
235,180,38510,6,0,P|198:177|169:154,1,74.8000014266968,8|0,0:0|1:0,0:0:0:0:
175,15,38850,6,0,P|189:41|189:72,1,61.5999981201172,10|0,0:0|0:0,0:0:0:0:
73,226,39191,6,0,P|148:182|236:180,1,176,4|8,1:0|0:0,0:0:0:0:
365,45,39703,2,0,B|329:2|274:32|274:89|316:133,1,176,0|2,1:0|1:2,0:0:0:0:
390,185,40214,1,10,0:0:0:0:
450,20,40385,1,2,0:0:0:0:
390,185,40555,5,2,0:0:0:0:
500,145,40725,1,0,1:0:0:0:
425,315,40896,2,0,P|467:326|510:335,1,88,8|0,0:0|0:0,0:0:0:0:
350,270,41237,5,2,0:0:0:0:
315,345,41407,1,2,1:2:0:0:
180,360,41578,5,10,0:0:0:0:
194,215,41748,1,2,0:0:0:0:
70,340,41919,6,0,P|153:313|240:300,1,176,4|8,1:0|0:0,0:0:0:0:
210,60,42430,2,0,B|165:110|165:110|194:214,1,176,0|0,1:0|1:0,0:0:0:0:
350,150,42941,2,0,L|263:134,1,88,10|2,0:0|0:0,0:0:0:0:
400,10,43282,6,0,P|421:47|418:91,1,88,2|0,0:0|1:0,0:0:0:0:
280,220,43623,1,8,0:0:0:0:
295,55,43794,1,0,0:0:0:0:
410,220,43964,2,0,L|497:204,1,88,2|0,0:0|1:0,0:0:0:0:
263,134,44305,2,0,L|176:118,1,88,10|0,0:0|0:0,0:0:0:0:
107,251,44646,6,0,L|281:220,1,176,4|8,1:0|0:0,0:0:0:0:
200,40,45157,2,0,P|118:61|98:142,1,176,0|2,1:0|1:2,0:0:0:0:
107,251,45669,1,10,0:0:0:0:
263,134,45839,1,2,0:0:0:0:
177,118,46010,5,2,0:0:0:0:
210,290,46180,1,0,1:0:0:0:
177,118,46350,2,0,L|192:205,1,88,8|0,0:0|0:0,0:0:0:0:
275,230,46691,5,2,0:0:0:0:
350,165,46862,1,2,1:2:0:0:
177,118,47032,5,10,0:0:0:0:
244,6,47203,1,2,0:0:0:0:
120,55,47373,6,0,B|178:55|178:55|222:103|285:77,1,176,4|8,1:0|0:0,0:0:0:0:
491,137,47885,2,0,B|448:93|391:115|391:115|384:147|350:165,1,176,0|0,1:0|1:0,0:0:0:0:
445,290,48396,2,0,B|459:249|459:249|437:209,1,88,10|2,0:0|0:0,0:0:0:0:
280,220,48737,2,0,L|192:230,1,88,2|0,0:0|1:0,0:0:0:0:
135,295,49078,5,8,0:0:0:0:
75,235,49248,1,0,1:0:0:0:
211,39,49419,5,8,0:0:0:0:
196,120,49589,1,0,1:0:0:0:
223,30,49760,5,10,0:0:0:0:
193,230,49930,1,2,0:0:0:0:
38,89,50100,6,0,B|103:77|103:77|133:130|196:120,2,176,4|10|2,1:0|0:0|0:0,0:0:0:0:
75,170,50953,1,2,1:2:0:0:
265,175,51123,1,10,0:0:0:0:
85,255,51294,1,2,0:0:0:0:
196,120,51464,6,0,P|223:203|220:290,2,176,2|10|2,0:0|0:0|0:0,0:0:0:0:
140,60,52316,1,2,1:2:0:0:
325,95,52487,1,10,0:0:0:0:
350,15,52657,1,2,0:0:0:0:
410,80,52828,6,0,P|452:68|496:62,1,88,6|0,1:2|0:0,0:0:0:0:
400,245,53169,2,0,P|388:202|382:158,1,88,10|0,0:0|1:0,0:0:0:0:
350,15,53510,2,0,P|307:26|263:32,1,88,2|0,0:0|1:0,0:0:0:0:
115,140,53850,2,0,P|126:182|132:226,1,88,10|0,0:0|0:0,0:0:0:0:
65,270,54191,6,0,P|148:269|181:345,1,176,2|8,0:0|0:0,0:0:0:0:
105,335,54703,1,2,0:0:0:0:
210,200,54873,2,0,P|253:193|297:186,1,88,2|0,0:0|1:0,0:0:0:0:
355,120,55214,2,0,P|366:78|344:42,1,88,10|0,0:0|0:0,0:0:0:0:
500,270,55555,6,0,B|451:255|415:290|440:319|408:349|355:342,1,176,4|8,1:0|0:0,0:0:0:0:
355,120,56066,2,0,P|432:108|438:186,1,176,0|2,1:0|1:2,0:0:0:0:
355,260,56578,1,10,0:0:0:0:
163,187,56748,1,2,0:0:0:0:
120,260,56919,5,2,0:0:0:0:
285,205,57089,1,0,1:0:0:0:
120,260,57260,2,0,P|163:268|205:279,1,88,8|0,0:0|0:0,0:0:0:0:
330,140,57600,5,2,0:0:0:0:
315,60,57771,1,2,1:2:0:0:
250,120,57941,5,10,0:0:0:0:
395,80,58112,1,2,0:0:0:0:
235,40,58282,6,0,B|186:25|150:60|175:89|143:119|90:112,1,176,4|8,1:0|0:0,0:0:0:0:
330,140,58794,2,0,B|379:125|415:160|390:189|422:219|475:212,1,176,0|0,1:0|1:0,0:0:0:0:
475,130,59305,2,0,P|480:86|489:43,1,88,10|2,0:0|0:0,0:0:0:0:
250,120,59646,6,0,B|221:155|221:155|238:239,1,132,14|0,1:2|0:0,0:0:0:0:
375,350,59987,2,0,P|370:290|310:292,1,132,10|0,1:2|0:0,0:0:0:0:
180,310,60328,2,0,L|137:298,1,44,10|0,1:2|0:0,0:0:0:0:
35,250,60498,2,0,L|78:238,1,44,10|0,1:2|0:0,0:0:0:0:
140,180,60669,2,0,B|128:105|100:139|88:62,1,132,10|0,1:2|0:0,0:0:0:0:
175,55,61010,5,2,0:0:0:0:
256,192,61095,12,2,63055,0:0:0:0:
175,55,63225,5,8,0:0:0:0:
246,184,63396,1,10,0:0:0:0:
390,200,63566,1,8,0:0:0:0:
455,150,63737,6,0,P|465:114|451:80,1,74.8000014266968,6|2,1:2|0:0,0:0:0:0:
380,40,64078,1,10,0:0:0:0:
315,90,64248,1,2,1:2:0:0:
175,55,64419,2,0,L|100:46,1,74.8000014266968,2|0,0:0|1:0,0:0:0:0:
35,95,64760,1,10,0:0:0:0:
70,170,64930,1,2,0:0:0:0:
40,335,65100,5,2,0:0:0:0:
105,285,65271,1,2,1:2:0:0:
145,355,65441,2,0,L|219:346,1,74.8000014266968,10|2,0:0|0:0,0:0:0:0:
300,375,65782,1,2,0:0:0:0:
321,237,65953,1,0,1:0:0:0:
380,295,66123,2,0,L|454:304,1,74.8000014266968,10|0,0:0|0:0,0:0:0:0:
496,374,66464,1,2,1:2:0:0:
510,145,66635,5,2,0:0:0:0:
430,170,66805,1,10,0:0:0:0:
363,127,66975,1,2,1:2:0:0:
360,45,67146,2,0,P|380:14|415:3,1,74.8000014266968,2|0,0:0|1:0,0:0:0:0:
285,90,67487,2,0,P|256:66|251:30,1,74.8000014266968,10|2,0:0|0:0,0:0:0:0:
363,127,67828,6,0,P|289:138|223:173,1,149.600002853394,2|10,0:0|0:0,0:0:0:0:
190,250,68339,1,2,0:0:0:0:
105,230,68510,2,0,P|72:212|56:179,1,74.8000014266968,2|0,0:0|1:0,0:0:0:0:
100,110,68850,2,0,P|95:73|109:38,1,74.8000014266968,10|0,0:0|0:0,0:0:0:0:
195,55,69191,6,0,P|258:19|330:34,1,149.600002853394,2|10,1:2|0:0,0:0:0:0:
415,25,69703,1,2,1:2:0:0:
379,100,69873,2,0,P|365:134|371:170,1,74.8000014266968,2|0,0:0|1:0,0:0:0:0:
325,245,70214,2,0,L|251:238,1,74.8000014266968,10|2,0:0|0:0,0:0:0:0:
370,320,70555,6,0,L|221:334,1,149.600002853394,2|10,0:0|0:0,0:0:0:0:
145,370,71066,1,2,0:0:0:0:
65,330,71237,2,0,P|46:298|52:261,1,74.8000014266968,2|0,0:0|1:0,0:0:0:0:
125,210,71578,1,10,0:0:0:0:
120,120,71748,1,2,0:0:0:0:
70,25,71919,6,0,P|128:69|201:67,1,149.600002853394,2|10,1:2|0:0,0:0:0:0:
300,40,72430,2,0,P|283:73|285:110,1,74.8000014266968,2|0,1:2|0:0,0:0:0:0:
335,185,72771,1,0,1:0:0:0:
415,145,72941,2,0,L|489:154,1,74.8000014266968,10|2,0:0|0:0,0:0:0:0:
295,265,73282,6,0,L|304:339,1,74.8000014266968,2|2,0:0|1:2,0:0:0:0:
45,275,73623,5,10,0:0:0:0:
55,190,73793,1,2,1:2:0:0:
220,210,73964,5,8,0:0:0:0:
210,295,74134,1,0,1:0:0:0:
120,320,74305,6,0,L|141:156,1,165,8|0,0:0|0:0,0:0:0:0:
135,145,74646,5,6,1:2:0:0:
90,75,74816,1,2,0:0:0:0:
150,20,74987,2,0,L|237:31,1,88,10|2,0:0|1:2,0:0:0:0:
450,45,75328,6,0,P|410:28|367:37,1,88,2|0,0:0|1:0,0:0:0:0:
300,100,75669,1,10,0:0:0:0:
310,185,75839,1,2,0:0:0:0:
290,105,76010,5,2,0:0:0:0:
395,210,76180,1,2,1:2:0:0:
460,155,76350,2,0,P|487:142|457:147,1,88,10|2,0:0|0:0,0:0:0:0:
250,250,76691,2,0,L|162:244,1,88,2|0,0:0|1:0,0:0:0:0:
105,315,77032,5,10,0:0:0:0:
115,165,77203,1,2,0:0:0:0:
200,155,77373,5,2,1:2:0:0:
190,335,77544,1,2,0:0:0:0:
200,155,77714,2,0,L|288:149,1,88,10|2,0:0|1:2,0:0:0:0:
355,90,78055,2,0,P|365:48|346:9,1,88,2|0,0:0|1:0,0:0:0:0:
500,190,78396,1,10,0:0:0:0:
420,210,78566,1,2,0:0:0:0:
400,295,78737,6,0,P|443:300|486:308,1,88,2|0,0:0|1:0,0:0:0:0:
245,245,79078,2,0,P|288:236|331:231,1,88,10|2,0:0|0:0,0:0:0:0:
430,40,79419,2,0,P|435:83|443:126,1,88,2|0,0:0|1:0,0:0:0:0:
259,23,79760,2,0,P|302:17|345:9,1,88,10|0,0:0|0:0,0:0:0:0:
123,205,80100,5,2,1:2:0:0:
169,141,80270,1,2,0:0:0:0:
245,166,80441,1,10,0:0:0:0:
245,245,80611,1,2,1:2:0:0:
169,270,80782,1,2,0:0:0:0:
169,349,80953,1,0,1:0:0:0:
245,374,81123,1,10,0:0:0:0:
291,310,81294,1,2,0:0:0:0:
245,245,81464,5,2,0:0:0:0:
95,310,81635,1,0,1:0:0:0:
169,349,81805,1,10,0:0:0:0:
123,205,81975,1,2,0:0:0:0:
45,225,82146,2,0,P|42:181|35:137,1,88,2|0,0:0|1:0,0:0:0:0:
70,65,82486,1,10,0:0:0:0:
73,57,82657,1,2,0:0:0:0:
380,140,82828,5,2,1:2:0:0:
391,59,82998,1,2,0:0:0:0:
315,29,83168,1,10,0:0:0:0:
251,84,83339,1,2,1:2:0:0:
295,160,83509,1,2,0:0:0:0:
250,240,83680,1,0,1:0:0:0:
160,245,83850,1,10,0:0:0:0:
120,165,84021,1,2,0:0:0:0:
160,90,84191,5,2,0:0:0:0:
158,82,84362,1,2,1:2:0:0:
80,60,84532,1,10,0:0:0:0:
84,46,84703,1,2,1:2:0:0:
119,165,84873,6,0,P|88:174|55:175,1,66.0000025177003,8|0,0:0|1:0,0:0:0:0:
75,340,85214,2,0,P|106:330|139:329,1,66.0000025177003,10|0,0:0|0:0,0:0:0:0:
25,275,85555,6,0,P|96:252|170:253,1,149.600002853394,6|10,1:2|0:0,0:0:0:0:
240,210,86066,1,2,1:2:0:0:
205,65,86237,2,0,P|199:101|192:138,1,74.8000014266968,2|0,0:0|1:0,0:0:0:0:
315,160,86578,2,0,P|321:123|327:86,1,74.8000014266968,10|2,0:0|0:0,0:0:0:0:
135,10,86919,2,0,P|68:37|47:107,1,149.600002853394,2|10,0:0|0:0,0:0:0:0:
5,185,87430,1,2,0:0:0:0:
150,245,87600,2,0,P|114:239|77:232,1,74.8000014266968,2|0,0:0|1:0,0:0:0:0:
55,320,87941,2,0,P|128:331|202:344,1,149.600002853394,10|2,0:0|1:2,0:0:0:0:
285,380,88453,5,0,0:0:0:0:
320,300,88623,2,0,P|326:264|333:227,1,74.8000014266968,10|2,0:0|1:2,0:0:0:0:
285,95,88964,2,0,P|266:127|267:164,1,74.8000014266968,2|0,0:0|1:0,0:0:0:0:
420,200,89305,2,0,P|438:167|437:130,1,74.8000014266968,10|2,0:0|0:0,0:0:0:0:
245,20,89646,2,0,L|96:38,1,149.600002853394,2|10,0:0|0:0,0:0:0:0:
15,15,90157,1,2,0:0:0:0:
50,170,90328,2,0,P|32:137|31:100,1,74.8000014266968,2|0,0:0|1:0,0:0:0:0:
15,285,90669,2,0,P|82:252|156:244,1,149.600002853394,10|2,0:0|1:2,0:0:0:0:
228,288,91180,5,2,0:0:0:0:
305,250,91350,2,0,P|300:212|302:175,1,74.8000014266968,10|2,0:0|1:2,0:0:0:0:
195,95,91691,2,0,P|199:132|197:169,1,74.8000014266968,2|0,0:0|1:0,0:0:0:0:
50,50,92032,2,0,P|87:45|124:47,1,74.8000014266968,10|2,0:0|0:0,0:0:0:0:
290,85,92373,2,0,P|327:90|364:88,1,74.8000014266968,2|0,0:0|1:0,0:0:0:0:
505,210,92714,2,0,P|468:205|431:207,1,74.8000014266968,10|2,0:0|0:0,0:0:0:0:
275,360,93055,2,0,P|280:323|278:286,1,74.8000014266968,2|0,0:0|1:0,0:0:0:0:
205,235,93396,5,10,0:0:0:0:
350,234,93566,1,2,0:0:0:0:
205,235,93737,6,0,P|200:202|200:169,1,66.0000025177003,2|0,1:2|0:0,0:0:0:0:
200,169,94078,1,10,0:0:0:0:
135,290,94248,2,0,P|112:266|94:238,1,66.0000025177003,2|0,1:2|0:0,0:0:0:0:
65,160,94589,1,0,1:0:0:0:
200,169,94760,1,10,0:0:0:0:
65,160,94930,1,2,0:0:0:0:
185,90,95100,2,0,P|191:57|194:24,1,66.0000025177003,2|2,0:0|1:2,0:0:0:0:
350,234,95441,6,0,P|342:277|342:321,1,88,10|2,0:0|1:2,0:0:0:0:
135,290,95782,6,0,P|106:265|74:245,1,74.8000014266968,8|0,0:0|1:0,0:0:0:0:
265,115,96123,6,0,P|294:104|321:91,1,61.5999981201172,10|0,0:0|0:0,0:0:0:0:
493,138,96464,6,0,P|413:173|350:234,1,176,4|8,1:0|0:0,0:0:0:0:
190,155,96975,2,0,P|177:105|265:115,1,176,0|2,1:0|1:2,0:0:0:0:
135,290,97487,1,10,0:0:0:0:
60,260,97657,1,2,0:0:0:0:
120,375,97828,5,2,0:0:0:0:
260,305,97998,1,0,1:0:0:0:
190,155,98169,2,0,P|195:198|202:242,1,88,8|0,0:0|0:0,0:0:0:0:
475,250,98510,5,2,0:0:0:0:
500,175,98680,1,2,1:2:0:0:
350,34,98850,5,10,0:0:0:0:
370,115,99021,1,2,0:0:0:0:
460,55,99191,6,0,B|345:48|391:102|293:93,1,176,4|8,1:0|0:0,0:0:0:0:
170,10,99703,2,0,B|215:51|215:51|192:163,1,176,0|0,1:0|1:0,0:0:0:0:
55,125,100214,2,0,P|77:88|119:83,1,88,10|2,0:0|0:0,0:0:0:0:
210,250,100555,6,0,P|166:242|122:238,1,88,2|0,0:0|1:0,0:0:0:0:
60,290,100896,1,8,0:0:0:0:
275,185,101066,1,0,0:0:0:0:
335,245,101237,2,0,P|344:287|323:324,1,88,2|0,0:0|1:0,0:0:0:0:
240,360,101578,2,0,P|196:352|152:348,1,88,10|0,0:0|0:0,0:0:0:0:
335,115,101919,6,0,B|456:102|456:102|426:115|417:138,1,176,4|8,1:0|0:0,0:0:0:0:
275,185,102430,2,0,P|245:105|291:34,1,176,0|2,1:0|1:2,0:0:0:0:
417,138,102941,1,10,0:0:0:0:
335,115,103112,1,2,0:0:0:0:
480,75,103282,5,2,0:0:0:0:
435,220,103453,1,0,1:0:0:0:
470,310,103623,2,0,P|426:303|382:301,1,88,8|0,0:0|0:0,0:0:0:0:
325,370,103964,5,2,0:0:0:0:
330,235,104135,1,2,1:2:0:0:
140,170,104304,5,10,0:0:0:0:
195,230,104475,1,2,0:0:0:0:
200,95,104646,6,0,B|151:80|115:115|140:144|108:174|55:167,1,176,4|8,1:0|0:0,0:0:0:0:
10,360,105157,2,0,B|58:341|73:303|73:303|94:334|148:342,1,176,0|0,1:0|1:0,0:0:0:0:
255,380,105669,2,0,P|258:336|263:292,1,88,10|2,0:0|0:0,0:0:0:0:
225,215,106010,2,0,P|182:216|158:251,1,88,2|0,0:0|1:0,0:0:0:0:
345,330,106350,5,8,0:0:0:0:
427,313,106521,1,0,1:0:0:0:
263,292,106691,5,8,0:0:0:0:
240,130,106862,1,0,1:0:0:0:
370,250,107032,5,10,0:0:0:0:
225,215,107203,1,2,0:0:0:0:
500,70,107373,6,0,B|451:55|415:90|440:119|408:149|355:142,2,176,4|10|2,1:0|0:0|0:0,0:0:0:0:
495,155,108225,1,2,1:2:0:0:
360,60,108396,1,10,0:0:0:0:
280,95,108566,1,2,0:0:0:0:
140,20,108737,6,0,P|62:50|54:134,2,176,2|10|2,0:0|0:0|0:0,0:0:0:0:
130,100,109589,1,2,1:2:0:0:
285,10,109760,1,10,0:0:0:0:
360,60,109930,1,2,0:0:0:0:
210,155,110100,6,0,L|219:67,1,88,6|0,1:2|0:0,0:0:0:0:
310,215,110441,2,0,L|300:127,1,88,10|0,0:0|1:0,0:0:0:0:
201,243,110782,2,0,L|210:155,1,88,2|0,0:0|1:0,0:0:0:0:
320,303,111123,2,0,L|310:215,1,88,10|0,0:0|0:0,0:0:0:0:
192,330,111464,6,0,L|210:155,1,176,2|8,0:0|0:0,0:0:0:0:
135,105,111975,1,2,0:0:0:0:
35,205,112146,2,0,P|78:196|121:188,1,88,2|0,0:0|1:0,0:0:0:0:
215,70,112487,2,0,P|258:77|301:86,1,88,10|0,0:0|0:0,0:0:0:0:
490,60,112828,6,0,P|408:63|396:144,1,176,4|8,1:0|0:0,0:0:0:0:
495,245,113339,2,0,P|408:229|320:224,1,176,0|2,1:0|1:2,0:0:0:0:
265,160,113850,1,10,0:0:0:0:
255,275,114021,1,2,0:0:0:0:
195,215,114191,5,2,0:0:0:0:
321,224,114362,1,0,1:0:0:0:
195,215,114532,2,0,L|107:208,1,88,8|0,0:0|0:0,0:0:0:0:
50,270,114873,5,2,0:0:0:0:
50,145,115044,1,2,1:2:0:0:
130,125,115214,5,10,0:0:0:0:
195,215,115385,1,2,0:0:0:0:
70,355,115555,6,0,P|154:331|242:322,1,176,4|8,1:0|0:0,0:0:0:0:
360,170,116066,2,0,B|324:127|269:157|269:214|311:258,1,176,0|0,1:0|1:0,0:0:0:0:
325,355,116578,2,0,P|368:352|412:358,1,88,10|2,0:0|0:0,0:0:0:0:
441,261,116919,6,0,P|375:265|309:256,1,132,14|0,1:2|0:0,0:0:0:0:
220,145,117260,2,0,P|224:210|215:276,1,132,10|0,1:2|0:0,0:0:0:0:
115,115,117600,2,0,P|129:131|137:151,1,44,10|0,1:2|0:0,0:0:0:0:
75,255,117771,2,0,P|95:248|112:234,1,44,10|0,1:2|0:0,0:0:0:0:
60,175,117941,5,10,1:2:0:0:
60,175,129532,5,8,0:0:0:0:
135,155,129703,1,0,0:0:0:0:
155,75,129873,5,8,0:0:0:0:
340,120,130044,1,0,0:0:0:0:
310,195,130214,5,10,0:0:0:0:
505,165,130385,1,2,0:0:0:0:
445,105,130555,6,0,P|439:56|444:8,1,96.8000029541017,4|0,1:0|0:0,0:0:0:0:
310,195,130896,2,0,P|304:243|309:291,1,96.8000029541017,10|0,0:0|1:0,0:0:0:0:
370,350,131237,1,2,0:0:0:0:
235,320,131407,1,2,1:2:0:0:
390,270,131578,1,10,0:0:0:0:
165,280,131748,1,2,0:0:0:0:
120,350,131919,6,0,P|75:331|28:320,1,96.8000029541017,2|0,0:0|1:0,0:0:0:0:
120,210,132260,2,0,P|164:191|211:180,1,96.8000029541017,10|0,0:0|0:0,0:0:0:0:
260,110,132600,1,2,0:0:0:0:
185,75,132771,1,2,1:2:0:0:
320,55,132941,1,10,0:0:0:0:
110,110,133112,1,2,0:0:0:0:
30,85,133282,6,0,P|25:39|63:13,1,96.8000029541017,6|0,1:2|0:0,0:0:0:0:
120,210,133623,2,0,P|115:255|153:281,1,96.8000029541017,10|0,0:0|1:0,0:0:0:0:
200,350,133964,2,0,P|245:332|292:323,1,96.8000029541017,2|0,0:0|1:0,0:0:0:0:
260,110,134305,2,0,P|305:127|352:136,1,96.8000029541017,10|0,0:0|0:0,0:0:0:0:
405,205,134646,6,0,P|401:109|439:21,1,193.600005908203,2|8,0:0|0:0,0:0:0:0:
495,85,135157,1,2,0:0:0:0:
380,290,135328,2,0,P|338:265|318:222,1,96.8000029541017,2|0,0:0|1:0,0:0:0:0:
450,340,135669,2,0,P|413:370|365:379,1,96.8000029541017,10|0,0:0|0:0,0:0:0:0:
260,160,136010,6,0,B|189:146|171:192|184:200|167:242|96:229,1,193.600005908203,4|8,1:0|0:0,0:0:0:0:
130,120,136521,2,0,B|195:149|183:197|168:196|158:240|223:270,1,193.600005908203,0|2,1:0|1:2,0:0:0:0:
200,350,137032,1,10,0:0:0:0:
360,340,137203,1,2,0:0:0:0:
440,370,137373,5,2,0:0:0:0:
420,160,137544,1,0,1:0:0:0:
450,245,137714,2,0,P|401:244|354:253,1,96.8000029541017,8|0,0:0|0:0,0:0:0:0:
253,121,138055,5,2,0:0:0:0:
332,101,138225,1,2,1:2:0:0:
420,160,138396,5,10,0:0:0:0:
275,35,138566,1,2,0:0:0:0:
210,210,138737,6,0,B|139:196|121:242|134:250|117:292|46:279,1,193.600005908203,4|8,1:0|0:0,0:0:0:0:
75,165,139248,2,0,P|121:249|152:341,1,193.600005908203,0|0,1:0|1:0,0:0:0:0:
230,370,139760,2,0,P|275:362|291:318,1,96.8000029541017,10|2,0:0|0:0,0:0:0:0:
465,195,140100,6,0,B|478:182|497:175|497:175|390:185,1,145.200004431152,14|0,1:2|0:0,0:0:0:0:
253,121,140441,2,0,B|240:108|221:101|221:101|327:111,1,145.200004431152,10|0,1:2|0:0,0:0:0:0:
390,55,140782,2,0,P|404:74|410:97,1,48.4000014770508,10|0,1:2|0:0,0:0:0:0:
335,245,140953,2,0,P|319:226|312:203,1,48.4000014770508,10|0,1:2|0:0,0:0:0:0:
465,195,141123,6,0,P|473:209|458:201,1,44,10|0,1:2|0:0,0:0:0:0:
