osu file format v14

[General]
AudioFilename: audio.mp3
AudioLeadIn: 0
PreviewTime: 95740
Countdown: 0
SampleSet: Soft
StackLeniency: 0.2
Mode: 0
LetterboxInBreaks: 0
WidescreenStoryboard: 1

[Editor]
DistanceSpacing: 2.3
BeatDivisor: 4
GridSize: 4
TimelineZoom: 1.5

[Metadata]
Title:THATS WHAT I WANT
TitleUnicode:THATS WHAT I WANT
Artist:Lil Nas X
ArtistUnicode:Lil Nas X
Creator:KaedeharaKazuha
Version:DESIRE
Source:
Tags:pop english montero lamar hill kaedehara kazuha Addy2607 -_ascended_- -ascended- ascended kittyadventure gokugohan12468 Dariano KBeaZy Blake Slatkin Omer Fedi Ryan Tedder THAT'S THAT IS
BeatmapID:3332931
BeatmapSetID:1632817

[Difficulty]
HPDrainRate:5
CircleSize:4.2
OverallDifficulty:8
ApproachRate:9
SliderMultiplier:1.76
SliderTickRate:1

[Events]
//Background and Video events
0,0,"E_d5zIjVcAIG3sO.jpg",0,0
//Break Periods
2,119646,128932
//Storyboard Layer 0 (Background)
//Storyboard Layer 1 (Fail)
//Storyboard Layer 2 (Pass)
//Storyboard Layer 3 (Foreground)
//Storyboard Layer 4 (Overlay)
//Storyboard Sound Samples

[TimingPoints]
1010,340.909090909091,4,2,1,60,1,0
1010,-133.333333333333,4,2,1,60,0,0
6464,-117.647058823529,4,2,1,70,0,0
17032,-74.0740740740741,4,2,1,70,0,0
17373,-105.263157894737,4,2,1,70,0,0
24447,-105.263157894737,4,2,1,5,0,0
24532,-105.263157894737,4,2,1,70,0,0
25129,-105.263157894737,4,2,1,5,0,0
25214,-105.263157894737,4,2,1,70,0,0
28282,-95.2380952380952,4,2,1,70,0,0
36464,-133.333333333333,4,2,1,60,0,0
38169,-111.111111111111,4,2,1,70,0,0
38510,-86.9565217391304,4,2,1,80,0,0
38850,-74.0740740740741,4,2,1,90,0,0
39191,-66.6666666666667,4,2,1,85,0,1
50356,-66.6666666666667,4,2,1,5,0,1
50441,-66.6666666666667,4,2,1,85,0,1
51720,-66.6666666666667,4,2,1,5,0,1
51805,-66.6666666666667,4,2,1,85,0,1
52742,-66.6666666666667,4,2,1,5,0,1
52828,-66.6666666666667,4,2,1,85,0,1
53083,-66.6666666666667,4,2,1,5,0,1
53169,-66.6666666666667,4,2,1,85,0,1
53765,-66.6666666666667,4,2,1,5,0,1
53850,-66.6666666666667,4,2,1,85,0,1
59646,-60.6060606060606,4,2,1,85,0,1
59902,-60.6060606060606,4,2,1,5,0,1
59987,-60.6060606060606,4,2,1,85,0,1
60413,-60.6060606060606,4,2,1,5,0,1
60498,-60.6060606060606,4,2,1,85,0,1
60583,-60.6060606060606,4,2,1,5,0,1
60669,-83.3333333333333,4,2,1,85,0,0
61010,-133.333333333333,4,2,1,50,0,0
62373,-133.333333333333,4,2,1,60,0,0
63737,-117.647058823529,4,2,1,70,0,0
74646,-100,4,2,1,70,0,0
79760,-200,4,2,1,70,0,0
80100,-100,4,2,1,70,0,0
84191,-142.857142857143,4,2,1,70,0,0
85555,-105.263157894737,4,2,1,70,0,0
93737,-133.333333333333,4,2,1,60,0,0
95441,-111.111111111111,4,2,1,70,0,0
95782,-86.9565217391304,4,2,1,80,0,0
96123,-74.0740740740741,4,2,1,90,0,0
96464,-66.6666666666667,4,2,1,85,0,1
107629,-66.6666666666667,4,2,1,5,0,1
107714,-66.6666666666667,4,2,1,85,0,1
108992,-66.6666666666667,4,2,1,5,0,1
109078,-66.6666666666667,4,2,1,85,0,1
110015,-66.6666666666667,4,2,1,5,0,1
110100,-66.6666666666667,4,2,1,85,0,1
110356,-66.6666666666667,4,2,1,5,0,1
110441,-66.6666666666667,4,2,1,85,0,1
111038,-66.6666666666667,4,2,1,5,0,1
111123,-66.6666666666667,4,2,1,85,0,1
116919,-60.6060606060606,4,2,1,85,0,1
117174,-60.6060606060606,4,2,1,5,0,1
117260,-60.6060606060606,4,2,1,85,0,1
117686,-60.6060606060606,4,2,1,5,0,1
117771,-60.6060606060606,4,2,1,85,0,1
117856,-60.6060606060606,4,2,1,5,0,1
117941,-400,4,2,1,85,0,0
118964,-400,4,2,1,65,0,0
119646,-200,4,2,1,50,0,0
129532,-133.333333333333,4,2,1,70,0,0
129873,-111.111111111111,4,2,1,70,0,0
130214,-74.0740740740741,4,2,1,70,0,0
130555,-66.6666666666667,4,2,1,95,0,1
130811,-66.6666666666667,4,2,1,5,0,1
130896,-66.6666666666667,4,2,1,95,0,1
132174,-66.6666666666667,4,2,1,5,0,1
132260,-66.6666666666667,4,2,1,95,0,1
133197,-66.6666666666667,4,2,1,5,0,1
133282,-66.6666666666667,4,2,1,95,0,1
133538,-66.6666666666667,4,2,1,5,0,1
133623,-66.6666666666667,4,2,1,95,0,1
134220,-66.6666666666667,4,2,1,5,0,1
134305,-66.6666666666667,4,2,1,95,0,1
140100,-60.6060606060606,4,2,1,95,0,1
140356,-60.6060606060606,4,2,1,5,0,1
140441,-60.6060606060606,4,2,1,95,0,1
140867,-60.6060606060606,4,2,1,5,0,1
140953,-60.6060606060606,4,2,1,95,0,1
141038,-60.6060606060606,4,2,1,5,0,1
141123,-400,4,2,1,95,0,0
141464,-400,4,2,1,95,0,0

[Colours]
Combo1 : 0,255,130
Combo2 : 0,130,255
Combo3 : 130,255,255
Combo4 : 190,190,190

[HitObjects]
425,17,1010,6,0,B|396:45|396:45|408:153,1,132.000005035401,2|2,0:0|0:0,0:0:0:0:
472,207,1521,2,0,B|501:179|501:179|489:71,1,132.000005035401,2|2,0:0|0:0,0:0:0:0:
425,17,2032,1,2,0:0:0:0:
425,17,2203,1,2,0:0:0:0:
307,96,2373,6,0,B|256:90|256:90|231:105|231:105|174:99,1,132.000005035401,2|2,0:0|0:0,0:0:0:0:
127,40,2885,1,2,0:0:0:0:
0,156,3055,2,0,B|51:150|51:150|76:165|76:165|133:159,1,132.000005035401,2|2,0:0|0:0,0:0:0:0:
180,100,3567,1,2,0:0:0:0:
292,253,3737,6,0,L|289:397,1,132.000005035401,2|2,0:0|0:0,0:0:0:0:
202,347,4248,2,0,L|205:203,1,132.000005035401,2|2,0:0|0:0,0:0:0:0:
127,159,4760,1,2,0:0:0:0:
127,159,4930,1,2,0:0:0:0:
267,41,5100,6,0,B|297:25|297:25|341:47,1,66.0000025177003,2|0,0:0|0:0,0:0:0:0:
326,120,5441,2,0,B|296:136|296:136|252:114,1,66.0000025177003,2|2,0:0|0:0,0:0:0:0:
399,6,5782,2,0,B|429:-10|429:-10|473:12,1,66.0000025177003,2|0,0:0|0:0,0:0:0:0:
457,157,6123,2,0,B|429:172|429:172|399:156,1,66.0000025177003,2|2,0:0|0:0,0:0:0:0:
188,72,6464,6,0,P|101:62|55:112,1,149.600002853394,2|10,1:2|0:0,0:0:0:0:
139,144,6975,1,2,1:2:0:0:
1,45,7146,2,0,L|22:215,1,149.600002853394,2|10,0:0|0:0,0:0:0:0:
33,274,7657,1,2,0:0:0:0:
4,378,7828,5,2,0:0:0:0:
119,318,7998,1,2,1:2:0:0:
191,359,8169,5,10,0:0:0:0:
336,378,8339,1,2,0:0:0:0:
255,235,8510,2,0,L|263:335,1,74.8000014266968,2|0,0:0|1:0,0:0:0:0:
143,232,8850,1,10,0:0:0:0:
246,67,9191,6,0,B|299:61|299:61|337:83|337:83|406:77,1,149.600002853394,2|10,1:2|0:0,0:0:0:0:
280,143,9703,1,2,1:2:0:0:
432,0,9873,2,0,P|475:45|457:132,1,149.600002853394,2|10,0:0|0:0,0:0:0:0:
406,184,10385,1,2,0:0:0:0:
512,289,10555,6,0,L|502:386,1,74.8000014266968,2|0,0:0|1:0,0:0:0:0:
406,184,10896,1,10,0:0:0:0:
431,269,11066,1,2,0:0:0:0:
282,331,11237,2,0,B|315:314|315:314|348:330,1,74.8000014266968,2|0,0:0|1:0,0:0:0:0:
216,375,11578,1,10,0:0:0:0:
81,211,11919,6,0,L|88:379,1,149.600002853394,2|10,1:2|0:0,0:0:0:0:
174,299,12430,1,2,1:2:0:0:
122,136,12600,2,0,P|49:130|-1:183,1,149.600002853394,2|10,0:0|0:0,0:0:0:0:
81,211,13112,1,2,0:0:0:0:
185,71,13282,5,2,0:0:0:0:
288,112,13453,1,2,1:2:0:0:
272,4,13623,5,10,0:0:0:0:
268,14,13794,1,2,0:0:0:0:
291,120,13964,5,2,0:0:0:0:
394,79,14135,1,0,1:0:0:0:
442,176,14305,5,10,0:0:0:0:
401,73,14476,1,2,0:0:0:0:
337,236,14646,5,2,1:2:0:0:
490,282,14816,1,2,0:0:0:0:
442,176,14987,1,10,0:0:0:0:
385,342,15157,2,0,B|325:332|325:332|298:346|298:346|232:337,1,149.600002853394,2|0,1:2|1:0,0:0:0:0:
159,288,15669,1,10,0:0:0:0:
76,369,15839,1,2,0:0:0:0:
52,204,16010,6,0,L|64:299,1,74.8000014266968,2|2,0:0|1:2,0:0:0:0:
76,369,16350,1,10,0:0:0:0:
166,303,16521,1,2,1:2:0:0:
268,212,16691,5,8,0:0:0:0:
156,158,16862,1,0,1:0:0:0:
5,91,17032,6,0,P|34:90|1:97,1,118.800000453186,8|0,0:0|0:0,0:0:0:0:
134,25,17373,6,0,B|192:15|192:15|231:40|231:40|300:29,1,167.199995535278,6|10,1:2|0:0,0:0:0:0:
387,16,17885,1,2,1:2:0:0:
466,94,18055,2,0,P|483:136|461:189,1,83.5999977676392,2|0,0:0|1:0,0:0:0:0:
333,189,18396,2,0,P|360:153|417:145,1,83.5999977676392,10|2,0:0|0:0,0:0:0:0:
483,256,18737,6,0,P|438:249|403:204,1,83.5999977676392,2|2,0:0|1:2,0:0:0:0:
281,127,19078,1,10,0:0:0:0:
205,187,19248,1,2,0:0:0:0:
298,333,19419,2,0,L|282:233,1,83.5999977676392,2|0,0:0|1:0,0:0:0:0:
177,302,19760,2,0,L|164:385,1,83.5999977676392,10|0,0:0|0:0,0:0:0:0:
44,322,20100,6,0,L|16:147,1,167.199995535278,2|10,1:2|0:0,0:0:0:0:
0,62,20612,1,2,1:2:0:0:
167,95,20782,2,0,B|127:114|127:114|84:93,1,83.5999977676392,2|0,0:0|1:0,0:0:0:0:
258,23,21123,1,10,0:0:0:0:
311,85,21294,1,2,0:0:0:0:
463,16,21464,5,2,0:0:0:0:
418,88,21635,1,0,1:0:0:0:
480,180,21805,5,10,0:0:0:0:
512,264,21976,1,2,0:0:0:0:
403,352,22146,2,0,P|363:371|317:346,1,83.5999977676392,2|0,0:0|1:0,0:0:0:0:
318,215,22487,2,0,P|354:240|355:292,1,83.5999977676392,10|0,0:0|0:0,0:0:0:0:
238,294,22828,6,0,B|119:292|119:292|146:302|159:329,1,167.199995535278,2|10,1:2|0:0,0:0:0:0:
82,381,23339,1,2,1:2:0:0:
10,263,23510,5,2,0:0:0:0:
69,189,23680,1,0,1:0:0:0:
2,97,23850,5,10,0:0:0:0:
65,179,24020,1,2,0:0:0:0:
177,97,24191,6,0,B|230:62|230:62|292:102,1,125.399996651459,2|0,0:0|0:0,0:0:0:0:
292,105,24532,2,0,L|283:207,1,83.5999977676392,10|2,0:0|0:0,0:0:0:0:
392,265,24873,2,0,B|445:300|445:300|507:260,1,125.399996651459,2|0,0:0|0:0,0:0:0:0:
507,257,25214,2,0,L|498:155,1,83.5999977676392,10|2,0:0|0:0,0:0:0:0:
504,9,25555,5,2,1:2:0:0:
458,75,25725,1,2,0:0:0:0:
376,0,25896,1,10,0:0:0:0:
292,105,26066,2,0,L|303:284,1,167.199995535278,2|0,1:2|1:0,0:0:0:0:
225,366,26578,1,10,0:0:0:0:
159,303,26748,1,2,0:0:0:0:
5,208,26919,5,2,0:0:0:0:
71,144,27089,1,2,1:2:0:0:
132,217,27260,1,10,0:0:0:0:
66,281,27430,1,2,1:2:0:0:
155,125,27600,6,0,P|142:86|106:67,1,83.5999977676392,8|0,0:0|1:0,0:0:0:0:
131,216,27941,2,0,P|171:225|206:204,1,83.5999977676392,10|0,0:0|0:0,0:0:0:0:
225,41,28282,6,0,P|283:16|400:48,1,184.799994360352,6|10,1:2|0:0,0:0:0:0:
501,0,28794,1,2,1:2:0:0:
396,45,28964,2,0,L|403:147,1,92.3999971801759,2|0,0:0|1:0,0:0:0:0:
511,200,29305,2,0,L|504:302,1,92.3999971801759,10|2,0:0|0:0,0:0:0:0:
387,358,29646,6,0,B|312:348|312:348|278:376|278:376|194:366,1,184.799994360352,2|10,0:0|0:0,0:0:0:0:
141,306,30157,1,2,0:0:0:0:
12,362,30328,2,0,P|-7:313|9:261,1,92.3999971801759,2|0,0:0|1:0,0:0:0:0:
155,172,30669,2,0,P|122:212|69:225,1,92.3999971801759,10|0,0:0|0:0,0:0:0:0:
0,13,31010,6,0,P|70:40|73:142,1,184.799994360352,2|10,1:2|0:0,0:0:0:0:
0,98,31521,1,2,1:2:0:0:
155,25,31691,2,0,B|197:3|197:3|247:29,1,92.3999971801759,2|0,0:0|1:0,0:0:0:0:
392,68,32032,2,0,B|350:46|350:46|300:72,1,92.3999971801759,10|2,0:0|0:0,0:0:0:0:
151,165,32373,6,0,L|168:356,1,184.799994360352,2|10,0:0|0:0,0:0:0:0:
68,269,32885,1,2,0:0:0:0:
254,308,33055,2,0,B|301:269|342:306|338:321|376:363|429:321,1,184.799994360352,2|10,0:0|0:0,0:0:0:0:
504,383,33566,1,0,0:0:0:0:
396,219,33737,6,0,B|386:91|386:91|431:143,1,184.799994360352,2|10,1:2|0:0,0:0:0:0:
490,201,34248,1,2,1:2:0:0:
300,160,34419,2,0,P|253:141|212:166,1,92.3999971801759,2|0,0:0|1:0,0:0:0:0:
130,314,34760,2,0,P|169:282|168:234,1,92.3999971801759,10|2,0:0|0:0,0:0:0:0:
76,24,35100,6,0,P|50:93|143:157,1,184.799994360352,2|10,0:0|0:0,0:0:0:0:
153,68,35612,1,2,0:0:0:0:
0,188,35782,2,0,L|8:295,1,92.3999971801759,2|0,0:0|1:0,0:0:0:0:
1,376,36123,5,10,0:0:0:0:
91,302,36294,1,2,0:0:0:0:
255,355,36464,6,0,B|301:346|301:346|336:364|336:364|400:354,1,132.000005035401,2|10,1:2|0:0,0:0:0:0:
397,276,36975,2,0,B|351:283|351:283|316:265|316:265|270:274,1,132.000005035401,2|0,1:2|1:0,0:0:0:0:
270,274,37487,1,10,0:0:0:0:
60,170,37828,6,0,P|37:138|43:97,1,66.0000025177003,2|2,0:0|1:2,0:0:0:0:
169,58,38169,2,0,P|149:97|111:112,1,79.1999975830079,10|2,0:0|1:2,0:0:0:0:
3,20,38510,6,0,P|60:12|94:39,1,101.200001930237,8|0,0:0|1:0,0:0:0:0:
208,155,38850,2,0,P|265:180|317:140,1,118.800000453186,10|0,0:0|0:0,0:0:0:0:
480,54,39191,6,0,B|495:4|428:-30|364:10|401:90|442:185,1,264.000010070801,4|8,1:0|0:0,0:0:0:0:
506,293,39703,2,0,B|488:250|421:249|383:293|421:333|377:380|312:384|289:320,1,264.000010070801,0|2,1:0|1:2,0:0:0:0:
231,249,40214,1,10,0:0:0:0:
136,364,40385,1,2,0:0:0:0:
30,179,40555,6,0,B|102:175|128:249|128:249|141:161|221:154,1,264.000010070801,2|8,0:0|0:0,0:0:0:0:
231,249,41066,1,0,0:0:0:0:
111,110,41237,5,2,0:0:0:0:
149,4,41407,1,2,1:2:0:0:
301,182,41578,5,10,0:0:0:0:
267,81,41748,1,2,0:0:0:0:
450,0,41919,6,0,B|496:36|496:36|470:251,1,264.000010070801,4|8,1:0|0:0,0:0:0:0:
512,360,42430,2,0,B|428:335|428:335|360:381|360:381|243:357,1,264.000010070801,0|0,1:0|1:0,0:0:0:0:
295,172,42941,1,10,0:0:0:0:
343,292,43112,1,2,0:0:0:0:
155,362,43282,5,2,0:0:0:0:
245,266,43453,1,0,1:0:0:0:
68,331,43623,5,8,0:0:0:0:
13,237,43794,1,0,0:0:0:0:
126,128,43964,6,0,P|176:185|159:247,1,132.000005035401,2|0,0:0|1:0,0:0:0:0:
16,120,44305,2,0,P|40:48|102:31,1,132.000005035401,10|0,0:0|0:0,0:0:0:0:
306,51,44646,6,0,B|324:8|391:7|429:51|391:91|435:138|500:142|523:78,1,264.000010070801,4|8,1:0|0:0,0:0:0:0:
328,142,45157,2,0,B|282:202|305:264|323:283|368:290|368:290|405:251|379:210,1,264.000010070801,0|2,1:0|1:2,0:0:0:0:
235,124,45669,1,10,0:0:0:0:
167,235,45839,1,2,0:0:0:0:
0,112,46010,6,0,L|25:378,1,264.000010070801,2|8,0:0|0:0,0:0:0:0:
106,305,46521,1,0,0:0:0:0:
251,378,46691,5,2,0:0:0:0:
296,274,46862,1,2,1:2:0:0:
151,227,47032,5,10,0:0:0:0:
106,123,47203,1,2,0:0:0:0:
247,3,47373,6,0,B|318:47|396:-1|396:-1|451:37|417:109,1,264.000010070801,4|8,1:0|0:0,0:0:0:0:
493,201,47885,2,0,B|426:191|392:275|392:275|383:185|294:179,1,264.000010070801,0|0,1:0|1:0,0:0:0:0:
485,293,48396,1,10,0:0:0:0:
408,125,48566,1,2,0:0:0:0:
294,272,48737,5,2,0:0:0:0:
188,198,48907,1,0,1:0:0:0:
5,328,49078,5,8,0:0:0:0:
111,254,49248,1,0,1:0:0:0:
294,384,49419,5,8,0:0:0:0:
188,310,49589,1,0,1:0:0:0:
5,167,49760,5,10,0:0:0:0:
98,359,49930,1,2,0:0:0:0:
287,177,50100,6,0,P|349:120|463:170,1,198.000007553101,4|0,1:0|0:0,0:0:0:0:
490,75,50441,2,0,L|500:208,1,132.000005035401,10|0,0:0|1:0,0:0:0:0:
386,336,50782,2,0,L|376:203,1,132.000005035401,2|2,0:0|1:2,0:0:0:0:
359,14,51123,1,10,0:0:0:0:
261,80,51294,1,2,0:0:0:0:
98,0,51464,6,0,L|115:207,1,198.000007553101,2|0,0:0|0:0,0:0:0:0:
179,246,51805,2,0,B|215:296|215:296|179:356,1,132.000005035401,10|0,0:0|0:0,0:0:0:0:
23,358,52146,2,0,B|-13:308|-13:308|23:248,1,132.000005035401,2|2,0:0|1:2,0:0:0:0:
148,107,52487,2,0,P|252:129|342:103,1,198.000007553101,10|0,0:0|0:0,0:0:0:0:
397,29,52828,6,0,B|388:-25|471:-21|510:10|454:97|431:132,1,198.000007553101,6|0,1:2|0:0,0:0:0:0:
504,184,53169,2,0,P|473:244|496:305,1,132.000005035401,10|0,0:0|1:0,0:0:0:0:
300,310,53510,6,0,B|256:270|202:310|220:333|160:385|118:332,1,198.000007553101,2|0,0:0|0:0,0:0:0:0:
39,384,53850,2,0,P|50:327|32:240,1,132.000005035401,10|0,0:0|0:0,0:0:0:0:
1,31,54191,6,0,P|20:120|174:133,1,264.000010070801,2|8,0:0|0:0,0:0:0:0:
106,49,54703,1,2,0:0:0:0:
111,242,54873,6,0,P|187:223|235:181,1,132.000005035401,2|0,0:0|1:0,0:0:0:0:
305,0,55214,2,0,P|283:75|295:137,1,132.000005035401,10|0,0:0|0:0,0:0:0:0:
509,348,55555,6,0,P|469:250|318:222,1,264.000010070801,4|8,1:0|0:0,0:0:0:0:
189,352,56066,2,0,P|202:243|134:100,1,264.000010070801,0|2,1:0|1:2,0:0:0:0:
0,6,56578,1,10,0:0:0:0:
70,171,56748,1,2,0:0:0:0:
213,32,56919,6,0,P|304:4|449:96,1,264.000010070801,2|8,0:0|0:0,0:0:0:0:
317,99,57430,1,0,0:0:0:0:
502,0,57600,5,2,0:0:0:0:
391,146,57771,1,2,1:2:0:0:
460,233,57941,5,10,0:0:0:0:
512,384,58112,1,2,0:0:0:0:
313,212,58282,6,0,B|295:169|228:168|190:212|228:252|184:299|119:303|96:239,1,264.000010070801,4|8,1:0|0:0,0:0:0:0:
7,59,58794,2,0,B|-8:9|59:-25|123:15|86:95|45:190,1,264.000010070801,0|0,1:0|1:0,0:0:0:0:
19,382,59305,2,0,P|-12:318|13:253,1,132.000005035401,10|2,0:0|0:0,0:0:0:0:
210,73,59646,6,0,B|264:72|283:6|283:6|298:78|360:78,1,217.800002077103,14|0,1:2|0:0,0:0:0:0:
449,25,59987,2,0,P|396:78|414:150,1,145.200001384735,10|0,1:2|0:0,0:0:0:0:
506,366,60328,6,0,P|491:330|456:304,1,72.6000006923676,10|0,1:2|0:0,0:0:0:0:
376,276,60498,2,0,P|338:271|297:288,1,72.6000006923676,10|0,1:2|0:0,0:0:0:0:
239,350,60669,1,10,1:2:0:0:
239,350,61010,5,2,0:0:0:0:
256,192,61095,12,2,63055,0:0:0:0:
239,350,63225,5,8,0:0:0:0:
183,262,63396,1,10,0:0:0:0:
258,182,63566,1,8,0:0:0:0:
145,64,63737,6,0,B|86:58|86:58|58:73|58:73|-13:67,1,149.600002853394,6|10,1:2|0:0,0:0:0:0:
109,137,64248,1,2,1:2:0:0:
212,18,64419,5,2,0:0:0:0:
281,84,64589,1,0,1:0:0:0:
421,40,64760,1,10,0:0:0:0:
489,100,64930,1,2,0:0:0:0:
488,107,65100,6,0,L|484:192,1,74.8000014266968,2|2,0:0|1:2,0:0:0:0:
500,363,65441,2,0,B|516:330|516:330|491:292,1,74.8000014266968,10|2,0:0|0:0,0:0:0:0:
393,338,65782,2,0,B|334:331|334:331|304:351|304:351|237:346,1,149.600002853394,2|10,0:0|0:0,0:0:0:0:
178,383,66294,1,0,0:0:0:0:
83,309,66464,6,0,P|68:274|89:235,1,74.8000014266968,2|2,1:2|0:0,0:0:0:0:
227,167,66805,2,0,P|204:197|159:198,1,74.8000014266968,10|2,0:0|1:2,0:0:0:0:
23,78,67146,5,2,0:0:0:0:
91,146,67316,1,0,1:0:0:0:
15,197,67487,1,10,0:0:0:0:
130,46,67657,1,2,0:0:0:0:
139,46,67828,6,0,L|222:42,1,74.8000014266968,2|0,0:0|1:0,0:0:0:0:
289,102,68169,1,10,0:0:0:0:
344,42,68339,1,2,0:0:0:0:
498,169,68510,5,2,0:0:0:0:
413,107,68680,1,0,1:0:0:0:
512,59,68850,5,10,0:0:0:0:
508,66,69021,1,0,0:0:0:0:
409,203,69191,6,0,P|367:257|394:353,1,149.600002853394,2|10,1:2|0:0,0:0:0:0:
460,285,69703,1,2,1:2:0:0:
313,167,69873,5,2,0:0:0:0:
245,217,70044,1,0,1:0:0:0:
126,129,70214,1,10,0:0:0:0:
39,80,70385,1,2,0:0:0:0:
40,88,70555,6,0,L|46:166,1,74.8000014266968,2|2,0:0|1:2,0:0:0:0:
0,359,70896,2,0,B|33:340|33:340|74:357,1,74.8000014266968,10|2,0:0|0:0,0:0:0:0:
123,250,71237,2,0,B|90:231|90:231|49:248,1,74.8000014266968,2|0,0:0|1:0,0:0:0:0:
190,359,71578,1,10,0:0:0:0:
245,295,71748,1,2,0:0:0:0:
443,359,71919,6,0,B|386:350|386:350|357:368|357:368|287:359,1,149.600002853394,2|10,1:2|0:0,0:0:0:0:
123,250,72430,2,0,B|180:241|180:241|209:259|209:259|279:250,1,149.600002853394,2|0,1:2|1:0,0:0:0:0:
397,211,72941,1,10,0:0:0:0:
341,288,73112,1,2,0:0:0:0:
226,164,73282,6,0,P|193:99|227:24,1,149.600002853394,2|10,0:0|0:0,0:0:0:0:
343,62,73794,2,0,P|307:93|267:92,1,74.8000014266968,2|8,1:2|0:0,0:0:0:0:
109,21,74135,1,0,1:0:0:0:
49,75,74305,1,8,0:0:0:0:
49,75,74646,5,6,1:2:0:0:
99,176,74816,1,2,0:0:0:0:
37,236,74987,5,10,0:0:0:0:
3,355,75157,1,2,1:2:0:0:
157,242,75328,6,0,L|171:342,1,88,2|0,0:0|1:0,0:0:0:0:
37,236,75669,1,10,0:0:0:0:
99,176,75839,1,2,0:0:0:0:
244,279,76010,5,2,0:0:0:0:
322,241,76180,1,2,1:2:0:0:
264,92,76350,6,0,L|250:192,1,88,10|2,0:0|0:0,0:0:0:0:
130,16,76691,2,0,L|144:116,1,88,2|0,0:0|1:0,0:0:0:0:
279,12,77032,5,10,0:0:0:0:
352,61,77203,1,2,0:0:0:0:
510,0,77373,5,2,1:2:0:0:
428,115,77544,1,2,0:0:0:0:
512,161,77714,5,10,0:0:0:0:
423,7,77885,1,2,1:2:0:0:
340,168,78055,2,0,L|351:265,1,88,2|0,0:0|1:0,0:0:0:0:
501,369,78396,5,10,0:0:0:0:
426,280,78566,1,2,0:0:0:0:
283,350,78737,6,0,P|239:366|193:346,1,88,2|0,0:0|1:0,0:0:0:0:
199,200,79078,2,0,P|234:230|240:279,1,88,10|2,0:0|0:0,0:0:0:0:
113,354,79419,2,0,P|121:307|161:278,1,88,2|0,0:0|1:0,0:0:0:0:
18,170,79760,6,0,L|24:223,1,44,10|0,0:0|0:0,0:0:0:0:
1,40,80100,5,2,1:2:0:0:
88,78,80270,1,2,0:0:0:0:
176,42,80441,5,10,0:0:0:0:
278,0,80612,1,2,1:2:0:0:
352,129,80782,5,2,0:0:0:0:
250,87,80953,1,0,1:0:0:0:
173,212,81123,5,10,0:0:0:0:
275,170,81294,1,2,0:0:0:0:
401,281,81464,6,0,P|371:246|376:190,1,88,2|0,0:0|1:0,0:0:0:0:
512,147,81805,2,0,P|497:189|445:213,1,88,10|2,0:0|0:0,0:0:0:0:
340,109,82146,2,0,P|384:100|430:133,1,88,2|0,0:0|1:0,0:0:0:0:
498,300,82487,5,10,0:0:0:0:
461,211,82657,1,2,0:0:0:0:
354,355,82828,5,2,1:2:0:0:
291,300,82998,1,2,0:0:0:0:
228,355,83169,1,10,0:0:0:0:
38,307,83339,5,2,1:2:0:0:
101,252,83509,1,2,0:0:0:0:
164,307,83680,1,0,1:0:0:0:
23,207,83850,2,0,L|16:97,1,88,10|2,0:0|0:0,0:0:0:0:
109,30,84191,6,0,P|157:5|224:36,1,123.199996240234,2|10,0:0|0:0,0:0:0:0:
217,28,84703,1,2,1:2:0:0:
217,193,84873,6,0,P|171:163|164:90,1,123.199996240234,8|10,0:0|0:0,0:0:0:0:
161,99,85385,1,0,0:0:0:0:
409,108,85555,6,0,B|342:104|342:104|316:119|316:119|233:114,1,167.199995535278,6|10,1:2|0:0,0:0:0:0:
327,9,86066,1,2,1:2:0:0:
477,63,86237,2,0,P|495:110|482:147,1,83.5999977676392,2|0,0:0|1:0,0:0:0:0:
374,265,86578,2,0,P|356:218|369:181,1,83.5999977676392,10|2,0:0|0:0,0:0:0:0:
512,312,86919,6,0,B|481:288|434:321|441:329|409:379|359:346,1,167.199995535278,2|10,0:0|0:0,0:0:0:0:
274,383,87430,1,2,0:0:0:0:
145,274,87600,2,0,L|151:175,1,83.5999977676392,2|0,0:0|1:0,0:0:0:0:
221,125,87941,2,0,L|215:26,1,83.5999977676392,10|0,0:0|0:0,0:0:0:0:
39,8,88282,6,0,L|50:196,1,167.199995535278,2|10,1:2|0:0,0:0:0:0:
0,257,88794,1,2,1:2:0:0:
108,345,88964,2,0,B|143:365|143:365|181:342,1,83.5999977676392,2|0,0:0|1:0,0:0:0:0:
336,294,89305,2,0,B|300:272|300:272|262:295,1,83.5999977676392,10|2,0:0|0:0,0:0:0:0:
421,370,89646,6,0,P|445:294|403:201,1,167.199995535278,2|10,0:0|0:0,0:0:0:0:
336,294,90157,1,2,0:0:0:0:
452,132,90328,2,0,B|390:127|390:127|355:150|355:150|273:144,1,167.199995535278,2|10,0:0|0:0,0:0:0:0:
415,214,90839,1,0,0:0:0:0:
284,50,91010,6,0,P|213:15|136:77,1,167.199995535278,2|10,1:2|0:0,0:0:0:0:
218,111,91521,1,2,1:2:0:0:
69,29,91691,2,0,P|55:76|75:117,1,83.5999977676392,2|0,0:0|1:0,0:0:0:0:
230,223,92032,2,0,P|196:187|150:184,1,83.5999977676392,10|2,0:0|0:0,0:0:0:0:
2,375,92373,6,0,P|62:296|53:228,1,167.199995535278,2|10,0:0|0:0,0:0:0:0:
0,155,92885,1,2,0:0:0:0:
79,311,93055,2,0,P|112:346|158:349,1,83.5999977676392,2|0,0:0|1:0,0:0:0:0:
273,308,93396,5,10,0:0:0:0:
316,377,93566,1,2,0:0:0:0:
455,299,93737,6,0,L|453:159,1,132.000005035401,2|10,1:2|0:0,0:0:0:0:
362,140,94248,2,0,L|364:280,1,132.000005035401,2|0,1:2|1:0,0:0:0:0:
363,271,94760,1,10,0:0:0:0:
398,51,95100,6,0,P|352:39|333:48,1,66.0000025177003,2|2,0:0|1:2,0:0:0:0:
261,103,95441,2,0,P|224:122|180:107,1,79.1999975830079,10|2,0:0|1:2,0:0:0:0:
26,7,95782,6,0,P|86:24|105:83,1,101.200001930237,8|0,0:0|1:0,0:0:0:0:
97,259,96123,2,0,P|74:194|100:150,1,118.800000453186,10|0,0:0|0:0,0:0:0:0:
4,355,96464,6,0,L|275:331,1,264.000010070801,4|8,1:0|0:0,0:0:0:0:
415,264,96975,2,0,B|430:214|363:180|299:220|336:300|377:395,1,264.000010070801,0|2,1:0|1:2,0:0:0:0:
512,219,97487,1,10,0:0:0:0:
379,132,97657,1,2,0:0:0:0:
512,35,97828,6,0,B|494:-8|427:-9|389:35|427:75|383:122|318:126|295:62,1,264.000010070801,2|8,0:0|0:0,0:0:0:0:
249,3,98339,1,0,0:0:0:0:
92,159,98510,5,2,0:0:0:0:
218,93,98680,1,2,1:2:0:0:
369,259,98850,5,10,0:0:0:0:
246,184,99020,1,2,0:0:0:0:
63,45,99191,6,0,B|34:20|-13:45|-4:96|-4:96|19:266,1,264.000010070801,4|8,1:0|0:0,0:0:0:0:
1,355,99703,2,0,B|63:322|63:322|173:383|173:383|249:338,1,264.000010070801,0|0,1:0|1:0,0:0:0:0:
227,133,100214,1,10,0:0:0:0:
175,290,100385,1,2,0:0:0:0:
400,384,100555,5,2,0:0:0:0:
317,279,100725,1,0,1:0:0:0:
469,211,100896,5,8,0:0:0:0:
512,71,101066,1,0,0:0:0:0:
282,67,101237,6,0,P|264:137|286:205,1,132.000005035401,2|0,0:0|1:0,0:0:0:0:
512,71,101578,2,0,P|460:20|390:5,1,132.000005035401,10|0,0:0|0:0,0:0:0:0:
151,23,101919,6,0,B|-24:22|-24:22|35:29|55:86,1,264.000010070801,4|8,1:0|0:0,0:0:0:0:
102,182,102430,2,0,B|148:242|125:304|107:323|62:330|62:330|25:291|51:250,1,264.000010070801,0|2,1:0|1:2,0:0:0:0:
175,360,102941,1,10,0:0:0:0:
279,284,103112,1,2,0:0:0:0:
234,75,103282,6,0,B|184:60|150:127|190:191|270:159|357:104,1,264.000010070801,2|8,0:0|0:0,0:0:0:0:
445,67,103794,1,0,0:0:0:0:
356,1,103964,5,2,0:0:0:0:
439,158,104135,1,2,1:2:0:0:
337,207,104305,5,10,0:0:0:0:
296,363,104475,1,2,0:0:0:0:
503,317,104646,6,0,B|485:274|418:273|380:317|418:357|374:404|309:408|286:344,1,264.000010070801,4|8,1:0|0:0,0:0:0:0:
217,226,105157,2,0,B|231:46|231:46|220:88|182:113,1,264.000010070801,0|0,1:0|1:0,0:0:0:0:
15,0,105669,1,10,0:0:0:0:
145,42,105839,1,2,0:0:0:0:
0,208,106010,5,2,0:0:0:0:
54,105,106180,1,0,1:0:0:0:
60,282,106350,5,8,0:0:0:0:
114,384,106520,1,0,1:0:0:0:
128,215,106691,5,8,0:0:0:0:
183,112,106861,1,0,1:0:0:0:
303,334,107032,5,10,0:0:0:0:
250,239,107202,1,2,0:0:0:0:
137,30,107373,6,0,L|344:23,1,198.000007553101,4|0,1:0|0:0,0:0:0:0:
396,75,107714,2,0,B|455:42|455:42|522:84,1,132.000005035401,10|0,0:0|1:0,0:0:0:0:
512,266,108055,2,0,B|453:299|453:299|386:257,1,132.000005035401,2|2,0:0|1:2,0:0:0:0:
266,118,108396,1,10,0:0:0:0:
174,228,108566,1,2,0:0:0:0:
0,40,108737,6,0,P|76:75|74:192,1,198.000007553101,2|0,0:0|0:0,0:0:0:0:
37,253,109078,2,0,P|15:300|68:359,1,132.000005035401,10|0,0:0|0:0,0:0:0:0:
196,332,109419,2,0,P|218:285|165:226,1,132.000005035401,2|2,0:0|1:2,0:0:0:0:
0,51,109760,2,0,P|78:79|159:-4,1,198.000007553101,10|0,0:0|0:0,0:0:0:0:
236,65,110100,6,0,B|304:57|304:57|352:99|352:99|423:92,1,198.000007553101,6|0,1:2|0:0,0:0:0:0:
475,16,110441,2,0,P|512:81|487:153,1,132.000005035401,10|0,0:0|1:0,0:0:0:0:
500,310,110782,6,0,P|446:232|351:235,1,198.000007553101,2|0,0:0|0:0,0:0:0:0:
282,301,111123,2,0,P|201:339|165:320,1,132.000005035401,10|0,0:0|0:0,0:0:0:0:
39,97,111464,6,0,B|70:86|105:109|100:150|100:150|79:334,1,264.000010070801,2|8,0:0|0:0,0:0:0:0:
0,185,111975,1,2,0:0:0:0:
141,43,112146,2,0,P|198:17|275:52,1,132.000005035401,2|0,0:0|1:0,0:0:0:0:
265,227,112487,2,0,P|213:190|205:106,1,132.000005035401,10|0,0:0|0:0,0:0:0:0:
472,3,112828,6,0,B|515:21|516:88|472:126|432:88|385:132|381:197|445:220,1,264.000010070801,4|8,1:0|0:0,0:0:0:0:
511,368,113339,2,0,P|421:293|268:314,1,264.000010070801,0|2,1:0|1:2,0:0:0:0:
148,384,113850,1,10,0:0:0:0:
27,296,114021,1,2,0:0:0:0:
78,80,114191,6,0,P|168:174|163:319,1,264.000010070801,2|8,0:0|0:0,0:0:0:0:
85,207,114703,1,0,0:0:0:0:
189,45,114873,5,2,0:0:0:0:
350,162,115044,1,2,1:2:0:0:
494,0,115214,5,10,0:0:0:0:
288,60,115385,1,2,0:0:0:0:
285,278,115555,6,0,B|347:267|385:344|385:344|400:254|460:245,1,264.000010070801,4|8,1:0|0:0,0:0:0:0:
260,383,116066,2,0,P|188:312|219:146,1,264.000010070801,0|0,1:0|1:0,0:0:0:0:
399,15,116578,2,0,P|325:65|274:53,1,132.000005035401,10|2,0:0|0:0,0:0:0:0:
3,26,116919,6,0,B|7:-28|69:-35|108:22|82:71|43:138,1,217.800002077103,14|0,1:2|0:0,0:0:0:0:
5,220,117260,2,0,P|23:295|72:267,1,145.200001384735,10|0,1:2|0:0,0:0:0:0:
205,160,117600,6,0,P|251:146|292:161,1,72.6000006923676,10|0,1:2|0:0,0:0:0:0:
361,190,117771,2,0,P|396:222|403:265,1,72.6000006923676,10|0,1:2|0:0,0:0:0:0:
414,341,117941,1,10,1:2:0:0:
507,0,129532,6,0,L|500:74,1,66.0000025177003,8|0,0:0|0:0,0:0:0:0:
486,161,129873,6,0,L|477:252,1,79.1999975830079,8|0,0:0|0:0,0:0:0:0:
398,307,130214,5,10,0:0:0:0:
465,375,130385,1,2,0:0:0:0:
240,350,130555,6,0,B|196:384|146:346|164:318|100:266|52:323,1,198.000007553101,4|0,1:0|0:0,0:0:0:0:
18,375,130896,2,0,P|-15:331|24:242,1,132.000005035401,10|0,0:0|1:0,0:0:0:0:
50,48,131237,2,0,P|83:92|44:181,1,132.000005035401,2|2,0:0|1:2,0:0:0:0:
216,279,131578,1,10,0:0:0:0:
157,185,131748,1,2,0:0:0:0:
232,45,131919,6,0,B|305:38|305:38|349:66|349:66|433:57,1,198.000007553101,2|0,0:0|0:0,0:0:0:0:
479,0,132260,2,0,B|517:57|517:57|479:122,1,132.000005035401,10|0,0:0|0:0,0:0:0:0:
385,264,132600,2,0,B|347:207|347:207|385:142,1,132.000005035401,2|2,0:0|1:2,0:0:0:0:
505,360,132941,2,0,L|296:358,1,198.000007553101,10|0,0:0|0:0,0:0:0:0:
242,288,133282,6,0,B|197:286|173:353|173:353|149:291|68:307,1,198.000007553101,6|0,1:2|0:0,0:0:0:0:
21,247,133623,2,0,P|-3:306|28:367,1,132.000005035401,10|0,0:0|1:0,0:0:0:0:
156,201,133964,2,0,L|143:-4,1,198.000007553101,2|0,0:0|0:0,0:0:0:0:
56,41,134305,2,0,L|64:179,1,132.000005035401,10|0,0:0|0:0,0:0:0:0:
242,288,134646,6,0,B|260:245|327:244|365:288|327:328|371:375|436:379|459:315,1,264.000010070801,2|8,0:0|0:0,0:0:0:0:
512,225,135157,1,2,0:0:0:0:
411,94,135328,2,0,P|361:144|362:206,1,132.000005035401,2|0,0:0|1:0,0:0:0:0:
512,97,135669,2,0,P|493:28|439:-1,1,132.000005035401,10|0,0:0|0:0,0:0:0:0:
210,92,136010,6,0,P|117:122|-3:12,1,264.000010070801,4|8,1:0|0:0,0:0:0:0:
244,2,136521,2,0,L|265:270,1,264.000010070801,0|2,1:0|1:2,0:0:0:0:
409,359,137032,1,10,0:0:0:0:
487,206,137203,1,2,0:0:0:0:
269,347,137373,6,0,B|174:333|174:333|115:376|115:376|7:364,1,264.000010070801,2|8,0:0|0:0,0:0:0:0:
91,275,137885,1,0,0:0:0:0:
0,126,138055,5,2,0:0:0:0:
195,28,138225,1,2,1:2:0:0:
260,114,138396,5,10,0:0:0:0:
458,189,138566,1,2,0:0:0:0:
466,8,138737,6,0,P|362:79|367:234,1,264.000010070801,4|8,1:0|0:0,0:0:0:0:
508,375,139248,2,0,P|399:298|263:306,1,264.000010070801,0|0,1:0|1:0,0:0:0:0:
119,372,139760,2,0,P|172:319|170:248,1,132.000005035401,10|2,0:0|0:0,0:0:0:0:
24,36,140100,6,0,P|-5:112|101:210,1,217.800002077103,14|0,1:2|0:0,0:0:0:0:
170,157,140441,2,0,B|191:134|221:139|243:161|235:178|254:196|282:201|304:178,1,145.200001384735,10|0,1:2|0:0,0:0:0:0:
501,6,140782,6,0,P|456:24|434:62,1,72.6000006923676,10|0,1:2|0:0,0:0:0:0:
400,129,140953,2,0,P|393:176|416:213,1,72.6000006923676,10|0,1:2|0:0,0:0:0:0:
457,278,141123,1,10,1:2:0:0:
