osu file format v14

[General]
AudioFilename: audio.mp3
AudioLeadIn: 0
PreviewTime: 95740
Countdown: 0
SampleSet: Soft
StackLeniency: 0.2
Mode: 0
LetterboxInBreaks: 0
WidescreenStoryboard: 1

[Editor]
Bookmarks: 6464,17373,28282,36464,36549,36635,36720,36805,36890,36975,37061,37146,37231,37316,37402,37487,37572,37657,37742,37828,37913,37998,38083,38169,39191,50100,61010,61095,61180,61265,61350,61436,61521,61606,61691,61777,61862,61947,62032,62203,62288,62373,62458,62544,62629,62799,62885,63055,63140,63225,74646,85555
DistanceSpacing: 0.8
BeatDivisor: 4
GridSize: 4
TimelineZoom: 1.5

[Metadata]
Title:THATS WHAT I WANT
TitleUnicode:THATS WHAT I WANT
Artist:Lil Nas X
ArtistUnicode:Lil Nas X
Creator:KaedeharaKazuha
Version:ASCENDED'S LUST
Source:
Tags:pop english montero lamar hill kaedehara kazuha Addy2607 -_ascended_- -ascended- ascended kittyadventure gokugohan12468 Dariano KBeaZy Blake Slatkin Omer Fedi Ryan Tedder THAT'S THAT IS
BeatmapID:3378793
BeatmapSetID:1632817

[Difficulty]
HPDrainRate:5
CircleSize:4
OverallDifficulty:8
ApproachRate:9.2
SliderMultiplier:2.3
SliderTickRate:1

[Events]
//Background and Video events
0,0,"E_d5zIjVcAIG3sO.jpg",0,0
//Break Periods
2,36664,37599
2,60869,62655
2,93937,94872
2,119646,124530
//Storyboard Layer 0 (Background)
//Storyboard Layer 1 (Fail)
//Storyboard Layer 2 (Pass)
//Storyboard Layer 3 (Foreground)
//Storyboard Layer 4 (Overlay)
//Storyboard Sound Samples

[TimingPoints]
1010,340.909090909091,4,2,1,60,1,0
6464,-100,4,2,1,70,0,0
6805,-133.333333333333,4,2,1,70,0,0
9020,-133.333333333333,4,2,1,60,0,0
9191,-133.333333333333,4,2,1,70,0,0
11748,-133.333333333333,4,2,1,60,0,0
11919,-133.333333333333,4,2,1,70,0,0
17287,-133.333333333333,4,2,1,5,0,0
17373,-133.333333333333,4,2,1,70,0,0
17714,-111.111111111111,4,2,1,70,0,0
17969,-111.111111111111,4,2,1,5,0,0
18055,-125,4,2,1,70,0,0
18737,-111.111111111111,4,2,1,70,0,0
19674,-111.111111111111,4,2,1,5,0,0
19760,-111.111111111111,4,2,1,70,0,0
22401,-111.111111111111,4,2,1,5,0,0
22487,-111.111111111111,4,2,1,70,0,0
27941,-133.333333333333,4,2,1,70,0,0
28196,-133.333333333333,4,2,1,5,0,0
28282,-133.333333333333,4,2,1,70,0,0
28623,-100,4,2,1,70,0,0
28878,-100,4,2,1,5,0,0
28964,-100,4,2,1,70,0,0
31605,-100,4,2,1,5,0,0
31691,-100,4,2,1,70,0,0
34333,-100,4,2,1,5,0,0
34419,-100,4,2,1,70,0,0
36464,-100,4,2,1,60,0,0
38169,-100,4,2,1,70,0,0
38510,-100,4,2,1,80,0,0
38850,-100,4,2,1,90,0,0
39191,-52.6315789473684,4,2,1,85,0,1
39446,-52.6315789473684,4,2,1,5,0,1
39532,-83.3333333333333,4,2,1,85,0,1
39873,-133.333333333333,4,2,1,85,0,1
39958,-133.333333333333,4,2,1,5,0,1
40044,-133.333333333333,4,2,1,85,0,1
40129,-133.333333333333,4,2,1,5,0,1
40214,-133.333333333333,4,2,1,85,0,1
40299,-133.333333333333,4,2,1,5,0,1
40385,-133.333333333333,4,2,1,85,0,1
40470,-133.333333333333,4,2,1,5,0,1
40555,-66.6666666666667,4,2,1,85,0,1
41833,-66.6666666666667,4,2,1,60,0,1
41919,-83.3333333333333,4,2,1,85,0,1
43282,-133.333333333333,4,2,1,85,0,1
43367,-133.333333333333,4,2,1,5,0,1
43453,-133.333333333333,4,2,1,85,0,1
43538,-133.333333333333,4,2,1,5,0,1
43623,-100,4,2,1,85,0,1
43878,-100,4,2,1,5,0,1
43964,-100,4,2,1,85,0,1
44646,-52.6315789473684,4,2,1,85,0,1
44901,-52.6315789473684,4,2,1,5,0,1
44987,-83.3333333333333,4,2,1,85,0,1
45328,-133.333333333333,4,2,1,85,0,1
45413,-133.333333333333,4,2,1,5,0,1
45499,-133.333333333333,4,2,1,85,0,1
45584,-133.333333333333,4,2,1,5,0,1
45669,-133.333333333333,4,2,1,85,0,1
45754,-133.333333333333,4,2,1,5,0,1
45839,-133.333333333333,4,2,1,85,0,1
45924,-133.333333333333,4,2,1,5,0,1
46010,-58.8235294117647,4,2,1,85,0,1
47288,-58.8235294117647,4,2,1,60,0,1
47373,-83.3333333333333,4,2,1,85,0,1
48737,-133.333333333333,4,2,1,85,0,1
50100,-66.6666666666667,4,2,1,85,0,1
50355,-66.6666666666667,4,2,1,5,0,1
50441,-66.6666666666667,4,2,1,85,0,1
50696,-66.6666666666667,4,2,1,5,0,1
50782,-66.6666666666667,4,2,1,85,0,1
51208,-66.6666666666667,4,2,1,5,0,1
51294,-66.6666666666667,4,2,1,85,0,1
51719,-66.6666666666667,4,2,1,5,0,1
51805,-66.6666666666667,4,2,1,85,0,1
52060,-66.6666666666667,4,2,1,5,0,1
52146,-66.6666666666667,4,2,1,85,0,1
52572,-66.6666666666667,4,2,1,5,0,1
52657,-66.6666666666667,4,2,1,60,0,1
52828,-66.6666666666667,4,2,1,85,0,1
53083,-66.6666666666667,4,2,1,5,0,1
53169,-66.6666666666667,4,2,1,85,0,1
53765,-66.6666666666667,4,2,1,5,0,1
53850,-66.6666666666667,4,2,1,85,0,1
55555,-52.6315789473684,4,2,1,85,0,1
55810,-52.6315789473684,4,2,1,5,0,1
55896,-83.3333333333333,4,2,1,85,0,1
56237,-133.333333333333,4,2,1,60,0,1
56322,-133.333333333333,4,2,1,5,0,1
56408,-133.333333333333,4,2,1,85,0,1
56493,-133.333333333333,4,2,1,5,0,1
56578,-133.333333333333,4,2,1,85,0,1
56663,-133.333333333333,4,2,1,5,0,1
56749,-133.333333333333,4,2,1,85,0,1
56834,-133.333333333333,4,2,1,5,0,1
56919,-66.6666666666667,4,2,1,85,0,1
58197,-66.6666666666667,4,2,1,60,0,1
58282,-83.3333333333333,4,2,1,85,0,1
59305,-133.333333333333,4,2,1,85,0,1
59816,-133.333333333333,4,2,1,60,0,1
59987,-133.333333333333,4,2,1,85,0,1
61010,-133.333333333333,4,2,1,85,0,0
63225,-133.333333333333,4,2,1,60,0,0
63737,-133.333333333333,4,2,1,70,0,0
73452,-133.333333333333,4,2,1,60,0,0
73623,-133.333333333333,4,2,1,70,0,0
74987,-111.111111111111,4,2,1,70,0,0
75242,-111.111111111111,4,2,1,5,0,0
75328,-111.111111111111,4,2,1,70,0,0
75754,-111.111111111111,4,2,1,5,0,0
75839,-111.111111111111,4,2,1,70,0,0
76946,-111.111111111111,4,2,1,5,0,0
77032,-111.111111111111,4,2,1,70,0,0
77969,-111.111111111111,4,2,1,5,0,0
78055,-111.111111111111,4,2,1,70,0,0
78481,-111.111111111111,4,2,1,5,0,0
78566,-111.111111111111,4,2,1,70,0,0
79333,-111.111111111111,4,2,1,5,0,0
79419,-111.111111111111,4,2,1,70,0,0
81208,-111.111111111111,4,2,1,5,0,0
81293,-111.111111111111,4,2,1,70,0,0
82401,-111.111111111111,4,2,1,5,0,0
82487,-111.111111111111,4,2,1,70,0,0
82572,-111.111111111111,4,2,1,5,0,0
82657,-111.111111111111,4,2,1,70,0,0
84191,-200,4,2,1,70,0,0
84788,-200,4,2,1,5,0,0
84873,-200,4,2,1,70,0,0
85896,-100,4,2,1,70,0,0
86151,-100,4,2,1,5,0,0
86237,-100,4,2,1,70,0,0
87089,-100,4,2,1,60,0,0
87260,-100,4,2,1,70,0,0
88878,-100,4,2,1,5,0,0
88964,-100,4,2,1,70,0,0
89816,-100,4,2,1,60,0,0
89987,-100,4,2,1,70,0,0
90498,-100,4,2,1,60,0,0
90669,-100,4,2,1,70,0,0
91605,-100,4,2,1,5,0,0
91692,-100,4,2,1,70,0,0
92543,-100,4,2,1,60,0,0
92714,-100,4,2,1,70,0,0
93737,-100,4,2,1,60,0,0
95442,-100,4,2,1,70,0,0
95783,-100,4,2,1,80,0,0
96123,-100,4,2,1,90,0,0
96464,-52.6315789473684,4,2,1,85,0,1
96719,-52.6315789473684,4,2,1,5,0,1
96805,-83.3333333333333,4,2,1,85,0,1
97146,-133.333333333333,4,2,1,85,0,1
97231,-133.333333333333,4,2,1,5,0,1
97317,-133.333333333333,4,2,1,85,0,1
97402,-133.333333333333,4,2,1,5,0,1
97487,-133.333333333333,4,2,1,85,0,1
97572,-133.333333333333,4,2,1,5,0,1
97658,-133.333333333333,4,2,1,85,0,1
97743,-133.333333333333,4,2,1,5,0,1
97828,-66.6666666666667,4,2,1,85,0,1
99106,-66.6666666666667,4,2,1,60,0,1
99191,-83.3333333333333,4,2,1,85,0,1
100555,-133.333333333333,4,2,1,85,0,1
100640,-133.333333333333,4,2,1,5,0,1
100726,-133.333333333333,4,2,1,85,0,1
100811,-133.333333333333,4,2,1,5,0,1
100896,-100,4,2,1,85,0,1
101151,-100,4,2,1,5,0,1
101237,-100,4,2,1,85,0,1
101919,-52.6315789473684,4,2,1,85,0,1
102174,-52.6315789473684,4,2,1,5,0,1
102260,-83.3333333333333,4,2,1,85,0,1
102600,-133.333333333333,4,2,1,60,0,1
102685,-133.333333333333,4,2,1,5,0,1
102771,-133.333333333333,4,2,1,85,0,1
102856,-133.333333333333,4,2,1,5,0,1
102941,-133.333333333333,4,2,1,85,0,1
103026,-133.333333333333,4,2,1,5,0,1
103112,-133.333333333333,4,2,1,85,0,1
103197,-133.333333333333,4,2,1,5,0,1
103282,-66.6666666666667,4,2,1,85,0,1
104560,-66.6666666666667,4,2,1,60,0,1
104646,-83.3333333333333,4,2,1,85,0,1
106010,-133.333333333333,4,2,1,85,0,1
107373,-66.6666666666667,4,2,1,85,0,1
107628,-66.6666666666667,4,2,1,5,0,1
107714,-66.6666666666667,4,2,1,85,0,1
107969,-66.6666666666667,4,2,1,5,0,1
108055,-66.6666666666667,4,2,1,85,0,1
108396,-68.9655172413793,4,2,1,85,0,1
108481,-68.9655172413793,4,2,1,5,0,1
108566,-68.9655172413793,4,2,1,85,0,1
108737,-66.6666666666667,4,2,1,85,0,1
108992,-66.6666666666667,4,2,1,5,0,1
109078,-66.6666666666667,4,2,1,85,0,1
109333,-66.6666666666667,4,2,1,5,0,1
109419,-66.6666666666667,4,2,1,85,0,1
109845,-66.6666666666667,4,2,1,5,0,1
109930,-66.6666666666667,4,2,1,60,0,1
110100,-66.6666666666667,4,2,1,85,0,1
110355,-66.6666666666667,4,2,1,5,0,1
110441,-66.6666666666667,4,2,1,85,0,1
111037,-66.6666666666667,4,2,1,5,0,1
111123,-66.6666666666667,4,2,1,85,0,1
112828,-52.6315789473684,4,2,1,85,0,1
113083,-52.6315789473684,4,2,1,5,0,1
113169,-83.3333333333333,4,2,1,85,0,1
113510,-133.333333333333,4,2,1,60,0,1
113595,-133.333333333333,4,2,1,5,0,1
113681,-133.333333333333,4,2,1,85,0,1
113766,-133.333333333333,4,2,1,5,0,1
113851,-133.333333333333,4,2,1,85,0,1
113936,-133.333333333333,4,2,1,5,0,1
114022,-133.333333333333,4,2,1,85,0,1
114107,-133.333333333333,4,2,1,5,0,1
114192,-66.6666666666667,4,2,1,85,0,1
115470,-66.6666666666667,4,2,1,60,0,1
115555,-83.3333333333333,4,2,1,85,0,1
116578,-133.333333333333,4,2,1,85,0,1
117089,-133.333333333333,4,2,1,60,0,1
117260,-133.333333333333,4,2,1,85,0,1
117941,-133.333333333333,4,2,1,85,0,0
125100,-666.666666666658,4,2,1,60,0,0
126464,-444.444444444444,4,2,1,60,0,0
129191,-250,4,2,1,60,0,0
130213,-250,4,2,1,70,0,0
130555,-66.6666666666667,4,2,1,95,0,1
130810,-66.6666666666667,4,2,1,5,0,1
130896,-66.6666666666667,4,2,1,95,0,1
131151,-66.6666666666667,4,2,1,5,0,1
131237,-66.6666666666667,4,2,1,95,0,1
131663,-66.6666666666667,4,2,1,5,0,1
131748,-66.6666666666667,4,2,1,95,0,1
132174,-66.6666666666667,4,2,1,5,0,1
132260,-66.6666666666667,4,2,1,95,0,1
132515,-66.6666666666667,4,2,1,5,0,1
132601,-66.6666666666667,4,2,1,95,0,1
133026,-66.6666666666667,4,2,1,5,0,1
133112,-66.6666666666667,4,2,1,60,0,1
133282,-66.6666666666667,4,2,1,95,0,1
133537,-66.6666666666667,4,2,1,5,0,1
133623,-66.6666666666667,4,2,1,95,0,1
134219,-66.6666666666667,4,2,1,5,0,1
134304,-66.6666666666667,4,2,1,95,0,1
136010,-58.8235294117647,4,2,1,95,0,1
136265,-58.8235294117647,4,2,1,5,0,1
136350,-76.9230769230769,4,2,1,95,0,1
136435,-76.9230769230769,4,2,1,85,0,1
136521,-66.6666666666667,4,2,1,95,0,1
137032,-100,4,2,1,95,0,1
137628,-100,4,2,1,5,0,1
137714,-100,4,2,1,95,0,1
138651,-100,4,2,1,60,0,1
138737,-83.3333333333333,4,2,1,95,0,1
140271,-83.3333333333333,4,2,1,60,0,1
140441,-83.3333333333333,4,2,1,95,0,1
141464,-83.3333333333333,4,2,1,95,0,0

[Colours]
Combo1 : 240,140,140
Combo2 : 200,180,220
Combo3 : 240,200,155
Combo4 : 150,185,220

[HitObjects]
320,332,5100,5,2,0:0:0:0:
320,332,5441,1,2,0:0:0:0:
320,332,5782,1,2,0:0:0:0:
320,332,6123,1,2,0:0:0:0:
192,52,6464,5,2,1:2:0:0:
192,52,6805,2,0,P|181:100|173:144,1,86.2500032901765,10|2,0:0|1:2,2:0:0:0:
28,181,7146,2,0,P|106:185|138:274,1,172.500006580353,2|10,0:0|0:0,2:0:0:0:
136,267,7657,1,2,0:0:0:0:
204,364,7828,6,0,P|252:342|252:291,1,86.2500032901765,2|2,0:0|1:2,2:0:0:0:
224,228,8169,1,10,0:0:0:0:
228,232,8339,1,2,0:0:0:0:
31,365,8510,6,0,P|74:353|125:343,1,86.2500032901765,2|0,0:0|1:0,2:0:0:0:
311,211,8850,2,0,P|269:222|227:231,1,86.2500032901765,10|0,0:0|2:0,2:0:0:0:
449,275,9191,5,2,1:2:0:0:
449,275,9532,2,0,P|485:255|489:214,1,86.2500032901765,10|2,0:0|1:2,2:0:0:0:
441,28,9873,2,0,P|419:124|403:212,1,172.500006580353,2|10,0:0|0:0,2:0:0:0:
410,201,10385,1,2,0:0:0:0:
310,343,10555,6,0,P|232:316|223:235,1,172.500006580353,2|10,0:0|0:0,2:0:0:0:
227,231,11066,1,2,0:0:0:0:
278,96,11237,6,0,P|291:142|299:184,1,86.2500032901765,2|0,0:0|1:0,2:0:0:0:
400,364,11578,2,0,P|386:317|379:276,1,86.2500032901765,10|0,0:0|1:0,2:0:0:0:
366,75,11919,5,2,1:2:0:0:
366,75,12260,2,0,P|343:27|297:22,1,86.2500032901765,10|2,0:0|1:2,2:0:0:0:
225,233,12600,2,0,P|146:191|143:105,1,172.500006580353,2|10,0:0|0:0,2:0:0:0:
142,111,13112,1,2,0:0:0:0:
216,22,13282,6,0,P|226:65|233:106,1,86.2500032901765,2|2,0:0|1:2,2:0:0:0:
300,177,13623,1,10,0:0:0:0:
304,181,13794,1,2,0:0:0:0:
353,335,13964,6,0,P|363:292|370:251,1,86.2500032901765,2|0,0:0|1:0,2:0:0:0:
460,223,14305,1,10,0:0:0:0:
464,227,14476,1,2,0:0:0:0:
462,48,14646,6,0,P|403:56|388:158,1,172.500006580353,2|10,1:2|0:0,2:0:0:0:
464,133,15157,2,0,P|362:142|294:191,1,172.500006580353,2|0,1:2|1:0,2:0:0:0:
300,183,15669,1,10,0:0:0:0:
87,357,16010,6,0,P|55:329|55:288,1,86.2500032901765,2|2,0:0|1:2,2:0:0:0:
117,172,16350,5,10,0:0:0:0:
147,291,16521,1,2,1:2:0:0:
157,297,16691,5,8,0:0:0:0:
192,104,16862,1,0,1:0:0:0:
58,24,17032,6,2,P|72:64|64:22,1,129.375004935265,8|0,0:0|2:0,2:1:0:0:
169,22,17373,5,6,1:2:0:0:
169,22,17714,2,0,P|224:21|277:106,1,155.249995262146,10|0,0:0|2:0,2:0:0:0:
216,170,18055,2,0,P|227:214|236:259,1,92,2|0,0:0|1:0,2:0:0:0:
409,335,18396,2,0,P|397:290|388:245,1,92,10|2,0:0|0:0,2:0:0:0:
417,87,18737,6,0,P|325:104|315:210,1,206.999993682861,2|10,0:0|0:0,2:0:0:0:
392,241,19248,1,2,0:0:0:0:
297,306,19419,6,0,P|240:263|160:274,1,155.249995262146,2|0,0:0|2:0,2:0:0:0:
122,350,19760,2,0,P|76:317|91:253,1,103.499996841431,10|0,0:0|0:0,2:0:0:0:
140,100,20100,5,2,1:2:0:0:
140,100,20441,2,0,P|130:156|123:209,1,103.499996841431,10|2,0:0|1:2,2:0:0:0:
4,139,20782,2,0,P|15:42|110:22,1,206.999993682861,2|10,0:0|0:0,2:0:0:0:
114,26,21294,1,2,0:0:0:0:
205,160,21464,5,2,0:0:0:0:
209,164,21635,1,0,1:0:0:0:
287,134,21805,2,0,P|265:88|217:76,1,103.499996841431,10|2,0:0|0:0,2:0:0:0:
252,260,22146,6,0,P|303:213|389:228,1,155.249995262146,2|0,0:0|2:0,2:0:0:0:
421,298,22487,2,0,P|467:265|452:201,1,103.499996841431,10|0,0:0|0:0,2:0:0:0:
421,25,22828,5,2,1:2:0:0:
421,25,23169,2,0,P|411:81|404:134,1,103.499996841431,10|2,0:0|1:2,2:0:0:0:
264,279,23510,1,2,0:0:0:0:
182,268,23680,1,0,1:0:0:0:
139,197,23850,1,10,0:0:0:0:
183,126,24021,1,2,0:0:0:0:
245,0,24191,6,0,P|272:88|305:212,1,206.999993682861,2|10,0:0|0:0,2:0:0:0:
297,203,24703,1,2,0:0:0:0:
386,66,24873,6,0,P|286:92|187:122,1,206.999993682861,2|10,0:0|0:0,2:0:0:0:
183,126,25385,1,2,0:0:0:0:
36,113,25555,5,2,1:2:0:0:
51,23,25725,2,0,P|105:37|116:89,1,103.499996841431,2|10,0:0|0:0,2:0:0:0:
171,209,26066,2,0,P|237:196|248:74,1,206.999993682861,2|0,1:2|1:0,2:0:0:0:
86,172,26578,2,0,P|96:228|103:281,1,103.499996841431,10|2,0:0|0:0,2:0:0:0:
76,373,26919,6,0,P|22:359|11:307,1,103.499996841431,2|2,0:0|1:2,2:0:0:0:
171,209,27260,5,10,0:0:0:0:
198,342,27431,1,2,1:2:0:0:
282,365,27601,5,8,0:0:0:0:
327,149,27772,1,0,1:0:0:0:
229,24,27941,6,2,P|242:63|231:23,1,129.375004935265,10|0,0:0|2:0,2:1:0:0:
139,120,28282,5,6,1:2:0:0:
139,120,28623,2,0,P|57:139|50:232,1,172.5,10|0,0:0|2:0,2:0:0:0:
87,295,28964,2,0,P|140:275|204:260,1,115,2|0,0:0|1:0,2:0:0:0:
274,112,29305,2,0,P|245:54|190:59,1,115,10|2,0:0|0:0,2:0:0:0:
322,315,29646,6,0,P|308:259|288:204,1,115,2|0,0:0|1:0,2:0:0:0:
510,259,29987,2,0,P|468:299|431:343,1,115,10|2,0:0|0:0,3:0:0:0:
356,137,30328,2,0,P|411:152|468:162,1,115,2|0,0:0|1:0,2:0:0:0:
395,238,30669,1,10,0:0:0:0:
124,17,31010,5,2,1:2:0:0:
124,17,31350,2,0,P|201:22|220:113,1,172.5,10|0,0:0|2:0,2:0:0:0:
134,230,31691,2,0,P|119:171|98:113,1,115,2|0,0:0|1:0,2:0:0:0:
319,138,32032,2,0,P|309:195|254:215,1,115,10|2,0:0|0:0,2:0:0:0:
0,351,32373,6,0,P|58:365|116:386,1,115,2|0,0:0|1:0,2:0:0:0:
96,116,32714,2,8,P|53:159|7:198,1,115,10|2,0:0|0:0,2:0:0:0:
283,331,33055,2,0,P|266:272|255:212,1,115,2|0,0:0|1:0,2:0:0:0:
133,260,33396,1,10,0:0:0:0:
427,382,33737,5,2,1:2:0:0:
427,382,34078,2,0,P|507:361|498:276,1,172.5,10|0,0:0|2:0,2:0:0:0:
381,182,34419,2,0,P|397:240|408:300,1,115,2|0,0:0|1:0,2:0:0:0:
466,156,34760,2,0,P|450:96|386:103,1,115,10|2,0:0|0:0,2:0:0:0:
178,243,35100,6,0,P|232:223|288:210,1,115,2|0,0:0|1:0,2:0:0:0:
135,65,35441,2,0,P|125:121|109:177,1,115,10|2,0:0|0:0,3:0:0:0:
316,113,35782,2,0,P|271:76|231:35,1,115,2|0,0:0|1:0,2:0:0:0:
209,139,36123,1,10,0:0:0:0:
213,143,36294,1,2,0:0:0:0:
274,344,36464,5,2,1:2:0:0:
274,344,38169,5,10,0:0:0:0:
274,344,38510,5,8,0:0:0:0:
238,40,38850,1,10,0:0:0:0:
503,171,39191,6,0,B|558:52|461:138|558:52|522:-107|412:17|461:138|411:17|411:151,1,327.749991248131,4|0,1:0|2:0,2:0:0:0:
389,320,39532,2,0,P|457:279|437:231,1,137.999995788574,8|0,0:0|1:0,2:0:0:0:
322,130,39873,6,0,P|297:140|271:145,1,43.1250016450883,2|0,0:0|2:0,2:0:0:0:
230,265,40044,2,0,P|205:255|179:250,1,43.1250016450883,2|0,1:2|2:0,2:0:0:0:
165,171,40214,2,0,P|140:181|114:186,1,43.1250016450883,10|0,0:0|2:0,2:0:0:0:
44,215,40385,2,0,P|19:205|-7:200,1,43.1250016450883,2|0,0:0|2:0,2:0:0:0:
0,206,40555,6,0,P|147:214|370:246,1,345.000013160706,2|8,0:0|0:0,2:0:0:0:
347,244,41066,1,0,0:0:0:0:
312,47,41237,5,2,0:0:0:0:
230,32,41407,1,2,1:2:0:0:
185,103,41578,1,10,0:0:0:0:
303,352,41748,5,2,0:0:0:0:
303,360,41833,1,0,2:0:0:0:
309,367,41919,2,0,P|429:339|433:198,1,275.999991577149,4|8,1:0|0:0,2:0:0:0:
200,316,42430,2,0,P|80:288|76:147,1,275.999991577149,0|0,1:0|1:0,2:0:0:0:
312,47,42941,2,0,P|295:116|284:192,1,137.999995788574,10|2,0:0|0:0,2:0:0:0:
318,339,43282,6,0,P|340:343|361:348,1,43.1250016450883,2|0,0:0|2:0,2:0:0:0:
382,261,43453,2,0,P|361:256|340:251,1,43.1250016450883,0|0,1:0|2:0,2:0:0:0:
268,274,43623,2,0,P|356:289|437:311,1,172.5,8|0,0:0|2:0,2:0:0:0:
512,321,43964,5,2,0:0:0:0:
384,190,44135,1,0,1:0:0:0:
195,253,44305,1,10,0:0:0:0:
195,253,44646,6,0,B|188:382|138:262|187:382|78:506|43:347|138:262|43:347|90:226,1,327.749991248131,4|0,1:0|2:0,2:0:0:0:
229,92,44987,2,0,P|217:160|151:158,1,137.999995788574,8|0,0:0|1:0,2:0:0:0:
0,178,45328,6,0,P|25:168|51:163,1,43.1250016450883,2|0,0:0|2:0,2:0:0:0:
99,79,45499,2,0,P|124:89|150:94,1,43.1250016450883,2|0,1:2|2:0,2:0:0:0:
234,182,45669,2,0,P|259:172|285:167,1,43.1250016450883,10|0,0:0|2:0,2:0:0:0:
347,148,45839,2,0,P|372:158|398:163,1,43.1250016450883,2|0,0:0|2:0,2:0:0:0:
392,158,46010,6,0,P|209:119|3:89,1,391.000007457733,2|8,0:0|0:0,2:0:0:0:
3,93,46520,1,0,0:0:0:0:
223,11,46691,5,2,0:0:0:0:
311,1,46862,1,2,1:2:0:0:
369,68,47032,1,10,0:0:0:0:
159,339,47203,5,2,0:0:0:0:
159,347,47288,1,0,2:0:0:0:
153,354,47373,2,0,P|135:236|94:58,1,275.999991577149,4|8,1:0|0:0,2:0:0:0:
404,318,47885,2,0,P|423:203|463:22,1,275.999991577149,0|0,1:0|1:0,2:0:0:0:
300,293,48396,2,0,P|232:266|227:205,1,137.999995788574,10|2,0:0|0:0,2:0:0:0:
512,166,48737,6,0,P|503:208|496:250,1,86.2500032901765,2|0,0:0|1:0,2:0:0:0:
266,129,49078,5,8,0:0:0:0:
251,34,49248,1,0,1:0:0:0:
384,121,49419,5,8,0:0:0:0:
369,216,49589,1,0,1:0:0:0:
295,301,49760,5,10,0:0:0:0:
347,16,49930,1,2,0:0:0:0:
53,31,50100,6,0,P|58:139|210:128,1,258.75000987053,4|0,1:0|0:0,2:0:0:0:
172,17,50441,2,0,P|141:112|115:278,1,258.75000987053,10|0,0:0|2:0,2:0:0:0:
126,367,50782,2,0,P|203:342|209:261,1,172.500006580353,2|2,0:0|1:2,2:0:0:0:
41,365,51123,6,0,P|35:322|22:281,1,86.2500032901765,10|0,0:0|2:0,2:0:0:0:
2,197,51294,1,2,0:0:0:0:
235,75,51464,6,0,P|348:109|333:232,1,258.75000987053,2|0,0:0|0:0,2:0:0:0:
190,158,51805,2,0,P|317:176|441:214,1,258.75000987053,10|0,0:0|2:0,2:0:0:0:
512,269,52146,2,0,P|462:342|398:304,1,172.500006580353,2|2,0:0|1:2,2:0:0:0:
329,73,52487,6,0,P|372:67|414:55,1,86.2500032901765,10|0,0:0|2:0,2:0:0:0:
492,36,52657,1,2,0:0:0:0:
200,246,52828,6,0,P|72:202|91:73,1,258.75000987053,6|0,1:2|0:0,2:0:0:0:
328,186,53169,2,0,P|332:267|260:305,1,172.500006580353,10|0,0:0|1:0,2:0:0:0:
233,90,53510,6,0,P|196:214|177:341,1,258.75000987053,2|0,0:0|0:0,2:0:0:0:
108,309,53850,2,0,P|120:223|140:139,1,172.500006580353,10|0,0:0|0:0,2:0:0:0:
0,296,54191,6,0,P|132:233|327:181,1,345.000013160706,2|8,0:0|0:0,2:0:0:0:
328,186,54703,1,2,0:0:0:0:
492,246,54873,5,2,0:0:0:0:
287,319,55043,1,0,1:0:0:0:
140,140,55214,1,10,0:0:0:0:
140,140,55555,6,0,B|92:19|187:104|92:19|127:-138|236:-15|187:104|237:-15|244:113,1,327.749991248131,4|0,1:0|2:0,2:0:0:0:
172,223,55896,2,0,P|124:171|53:172,1,137.999995788574,8|0,0:0|1:0,2:0:0:0:
182,378,56237,6,0,P|205:365|231:358,1,43.1250016450883,2|0,0:0|2:0,2:0:0:0:
261,234,56408,2,0,P|286:241|312:244,1,43.1250016450883,2|0,1:2|2:0,2:0:0:0:
333,322,56578,2,0,P|357:309|382:302,1,43.1250016450883,10|0,0:0|2:0,2:0:0:0:
451,268,56749,2,0,P|476:275|502:277,1,43.1250016450883,2|0,0:0|2:0,2:0:0:0:
497,273,56919,6,0,P|346:275|138:303,1,345.000013160706,2|8,0:0|0:0,2:0:0:0:
149,303,57430,1,0,0:0:0:0:
262,43,57600,5,2,0:0:0:0:
349,28,57770,1,2,1:2:0:0:
377,113,57941,1,10,0:0:0:0:
149,303,58112,5,2,0:0:0:0:
151,309,58197,1,0,2:0:0:0:
148,315,58282,2,0,P|62:341|14:186,1,275.999991577149,4|8,1:0|0:0,2:0:0:0:
304,287,58794,2,0,P|389:313|438:158,1,275.999991577149,0|0,1:0|1:0,2:0:0:0:
196,78,59305,2,0,P|205:124|213:174,1,86.2500032901765,10|2,0:0|0:0,2:0:0:0:
259,377,59646,5,14,1:2:0:0:
297,112,59816,1,0,2:0:0:0:
415,62,59987,5,10,1:2:0:0:
442,165,60157,1,0,0:0:0:0:
304,287,60328,5,10,1:2:0:0:
336,1,60498,1,10,1:2:0:0:
103,183,60669,1,10,1:2:0:0:
256,192,63225,5,8,0:0:0:0:
256,192,63396,5,10,0:0:0:0:
256,192,63566,5,8,0:0:0:0:
100,21,63737,6,0,P|32:24|7:115,1,172.500006580353,6|10,1:2|0:0,2:0:0:0:
104,197,64248,1,2,1:2:0:0:
108,201,64419,2,0,P|113:153|128:97,1,86.2500032901765,2|0,0:0|1:0,2:0:0:0:
11,191,64760,1,10,0:0:0:0:
15,195,64930,1,2,0:0:0:0:
101,286,65100,6,0,P|178:260|187:175,1,172.500006580353,2|10,0:0|0:0,2:0:0:0:
185,176,65612,1,2,0:0:0:0:
137,374,65782,2,0,P|134:296|106:191,1,172.500006580353,2|10,0:0|0:0,2:0:0:0:
356,77,66464,6,0,P|424:80|449:171,1,172.500006580353,2|10,1:2|0:0,2:0:0:0:
327,237,66975,1,2,1:2:0:0:
331,241,67146,2,0,P|326:193|311:137,1,86.2500032901765,2|0,0:0|1:0,2:0:0:0:
416,267,67487,1,10,0:0:0:0:
420,271,67657,1,2,0:0:0:0:
253,293,67828,6,0,P|167:303|82:319,1,172.500006580353,2|10,0:0|0:0,2:0:0:0:
78,323,68339,1,2,0:0:0:0:
246,208,68510,2,0,P|181:238|179:334,1,172.500006580353,2|10,0:0|0:0,2:0:0:0:
437,360,69191,6,0,P|446:274|462:189,1,172.500006580353,2|10,1:2|0:0,2:0:0:0:
341,63,69702,1,2,1:2:0:0:
345,67,69873,2,0,P|300:84|296:129,1,86.2500032901765,2|0,0:0|1:0,2:0:0:0:
373,220,70214,1,10,0:0:0:0:
377,224,70384,1,2,0:0:0:0:
211,92,70555,6,0,P|221:173|299:200,1,172.500006580353,2|10,0:0|0:0,2:0:0:0:
303,195,71066,1,2,0:0:0:0:
263,291,71237,2,0,P|266:213|294:108,1,172.500006580353,2|10,0:0|0:0,2:0:0:0:
292,117,71748,1,2,0:0:0:0:
207,0,71919,6,0,P|118:23|119:104,1,172.500006580353,2|10,1:2|0:0,2:0:0:0:
18,114,72430,2,0,P|95:123|197:160,1,172.500006580353,2|0,1:2|1:0,2:0:0:0:
292,117,72941,2,0,P|264:80|223:83,1,86.2500032901765,10|2,0:0|0:0,2:0:0:0:
89,231,73282,6,0,P|96:273|101:316,1,86.2500032901765,2|0,0:0|2:0,2:0:0:0:
349,207,73623,5,10,0:0:0:0:
328,331,73794,1,2,1:2:0:0:
223,364,73964,5,8,0:0:0:0:
184,154,74135,1,0,1:0:0:0:
332,335,74305,5,8,0:0:0:0:
332,335,74646,5,6,1:2:0:0:
472,321,74816,1,2,0:0:0:0:
478,309,74987,2,0,P|408:321|324:348,1,155.249995262146,10|0,0:0|2:0,2:0:0:0:
242,296,75328,2,0,P|256:245|310:238,1,103.499996841431,2|0,0:0|1:0,2:0:0:0:
371,154,75669,6,0,P|406:154|421:174,1,51.7499984207154,10|0,0:0|2:0,2:0:0:0:
451,233,75839,1,2,0:0:0:0:
280,150,76010,5,2,0:0:0:0:
279,37,76180,1,2,1:2:0:0:
268,46,76350,2,0,P|281:95|292:158,1,103.499996841431,10|2,0:0|0:0,2:0:0:0:
242,296,76691,2,0,P|214:235|131:242,1,155.249995262146,2|0,0:0|2:0,2:0:0:0:
59,306,77032,2,0,P|109:315|159:328,1,103.499996841431,10|2,0:0|0:0,2:0:0:0:
18,66,77373,5,2,1:2:0:0:
36,207,77543,1,2,0:0:0:0:
46,211,77714,2,0,P|33:140|8:57,1,155.249995262146,10|0,0:0|2:0,2:0:0:0:
68,4,78055,2,0,P|122:16|138:72,1,103.499996841431,2|0,0:0|1:0,2:0:0:0:
234,202,78396,6,0,P|267:186|283:161,1,51.7499984207154,10|0,0:0|2:0,2:0:0:0:
296,94,78566,1,2,0:0:0:0:
115,144,78737,6,0,P|164:129|215:120,1,103.499996841431,2|0,0:0|1:0,2:0:0:0:
284,15,79078,2,0,P|345:14|370:107,1,155.249995262146,10|0,0:0|2:0,2:0:0:0:
414,169,79419,2,0,P|457:150|464:96,1,103.499996841431,2|0,0:0|1:0,2:0:0:0:
410,165,79760,1,10,0:0:0:0:
242,348,80100,5,2,1:2:0:0:
185,194,80270,1,2,0:0:0:0:
197,191,80441,1,10,0:0:0:0:
231,352,80612,1,2,1:2:0:0:
412,273,80782,2,0,P|458:274|476:332,1,103.499996841431,2|0,0:0|1:0,2:0:0:0:
335,293,81123,6,0,P|310:286|285:281,1,51.7499984207154,10|0,0:0|2:0,2:0:0:0:
208,271,81293,1,2,0:0:0:0:
379,178,81464,5,2,0:0:0:0:
377,188,81634,1,0,1:0:0:0:
459,170,81805,1,10,0:0:0:0:
296,203,81976,1,2,0:0:0:0:
316,31,82146,2,0,P|402:47|410:115,1,155.249995262146,2|0,0:0|2:0,2:0:0:0:
322,125,82487,6,0,P|301:118|259:112,1,51.7499984207154,10|0,0:0|2:0,2:0:0:0:
193,100,82657,1,2,0:0:0:0:
151,12,82828,5,2,1:2:0:0:
160,19,82998,1,2,0:0:0:0:
167,15,83169,1,10,0:0:0:0:
104,97,83339,5,2,1:2:0:0:
135,177,83509,1,2,0:0:0:0:
219,184,83680,1,0,1:0:0:0:
0,85,83850,5,10,0:0:0:0:
18,259,84020,1,2,0:0:0:0:
175,345,84191,6,0,P|238:328|248:280,1,115,2|10,0:0|0:0,2:0:0:0:
245,281,84703,2,0,P|241:299|238:310,1,28.75,2|0,1:2|2:0,2:0:0:0:
74,375,84873,5,8,0:0:0:0:
458,297,85214,1,10,0:0:0:0:
147,15,85555,5,6,1:2:0:0:
473,11,85896,6,0,P|400:20|365:115,1,172.5,10|0,0:0|2:0,2:0:0:0:
441,211,86237,2,0,P|446:152|456:95,1,115,2|0,0:0|1:0,2:0:0:0:
277,7,86578,2,0,P|272:64|262:120,1,115,10|2,0:0|0:0,2:0:0:0:
210,290,86919,6,0,P|154:305|100:324,1,115,2|0,0:0|1:0,2:0:0:0:
150,125,87260,2,0,P|190:166|234:204,1,115,10|2,0:0|0:0,2:0:0:0:
23,265,87600,2,0,P|38:210|50:154,1,115,2|0,0:0|1:0,2:0:0:0:
125,224,87942,1,10,0:0:0:0:
381,336,88283,5,2,1:2:0:0:
381,336,88623,2,0,P|459:316|468:236,1,172.5,10|0,0:0|2:0,2:0:0:0:
399,135,88964,2,0,P|379:189|365:244,1,115,2|0,0:0|1:0,2:0:0:0:
290,364,89305,2,0,P|242:336|238:281,1,115,10|2,0:0|0:0,2:0:0:0:
268,83,89646,6,0,P|248:140|242:202,1,115,2|0,0:0|1:0,2:0:0:0:
51,45,89987,2,0,P|110:33|167:7,1,115,10|2,0:0|0:0,2:0:0:0:
104,243,90328,2,0,P|64:197|13:161,1,115,2|0,0:0|1:0,2:0:0:0:
142,120,90669,1,10,0:0:0:0:
2,334,91010,5,2,1:2:0:0:
2,334,91350,2,0,P|21:257|108:245,1,172.5,10|0,0:0|2:0,2:0:0:0:
213,306,91692,2,0,P|157:317|102:332,1,115,2|0,0:0|1:0,2:0:0:0:
112,151,92033,2,0,P|164:159|189:213,1,115,10|2,0:0|0:0,2:0:0:0:
313,266,92373,6,0,P|369:278|423:298,1,115,2|0,0:0|1:0,2:0:0:0:
371,92,92714,2,0,P|330:133|286:169,1,115,10|2,0:0|0:0,2:0:0:0:
493,235,93055,2,0,P|477:179|466:123,1,115,2|0,0:0|1:0,2:0:0:0:
392,190,93396,1,10,0:0:0:0:
396,194,93567,1,2,0:0:0:0:
238,344,93737,5,2,1:2:0:0:
238,344,95442,5,10,0:0:0:0:
238,344,95783,5,8,0:0:0:0:
274,40,96123,1,10,0:0:0:0:
89,179,96464,6,0,B|126:112|107:19|107:19|126:112|192:154,1,327.749991248131,4|0,1:0|2:0,2:0:0:0:
65,267,96805,2,0,P|-1:242|8:179,1,137.999995788574,8|0,0:0|1:0,2:0:0:0:
262,39,97146,6,0,P|272:64|277:90,1,43.1250016450883,2|0,0:0|2:0,2:0:0:0:
397,131,97317,2,0,P|387:156|382:182,1,43.1250016450883,2|0,1:2|2:0,2:0:0:0:
303,196,97487,2,0,P|313:221|318:247,1,43.1250016450883,10|0,0:0|2:0,2:0:0:0:
347,317,97658,2,0,P|337:342|332:368,1,43.1250016450883,2|0,0:0|2:0,2:0:0:0:
337,361,97828,6,0,P|349:217|381:5,1,345.000013160706,2|8,0:0|0:0,2:0:0:0:
383,14,98339,1,0,0:0:0:0:
441,253,98510,5,2,0:0:0:0:
512,208,98681,1,2,1:2:0:0:
497,126,98851,1,10,0:0:0:0:
206,301,99021,5,2,0:0:0:0:
201,310,99106,1,0,2:0:0:0:
203,320,99191,2,0,P|318:339|499:379,1,275.999991577149,4|8,1:0|0:0,2:0:0:0:
137,98,99703,2,0,P|252:79|433:39,1,275.999991577149,0|0,1:0|1:0,2:0:0:0:
336,250,100214,2,0,P|272:209|279:151,1,137.999995788574,10|2,0:0|0:0,2:0:0:0:
488,215,100555,6,0,P|499:196|496:176,1,43.1250016450883,2|0,0:0|2:0,2:0:0:0:
420,157,100726,2,0,P|409:176|412:196,1,43.1250016450883,0|0,1:0|2:0,2:0:0:0:
438,274,100896,2,0,P|453:186|475:105,1,172.5,8|0,0:0|2:0,2:0:0:0:
501,13,101237,5,2,0:0:0:0:
308,64,101407,1,0,1:0:0:0:
336,250,101578,1,10,0:0:0:0:
336,250,101919,6,0,B|397:207|417:114|417:114|396:206|431:278,1,327.749991248131,4|0,1:0|2:0,2:0:0:0:
507,352,102260,2,0,P|431:362|374:388,1,137.999995788574,8|0,0:0|1:0,2:0:0:0:
109,334,102600,6,0,P|119:309|124:283,1,43.1250016450883,2|0,0:0|2:0,2:0:0:0:
244,242,102771,2,0,P|234:217|229:191,1,43.1250016450883,2|0,1:2|2:0,2:0:0:0:
150,177,102941,2,0,P|160:152|165:126,1,43.1250016450883,10|0,0:0|2:0,2:0:0:0:
194,56,103112,2,0,P|184:31|179:5,1,43.1250016450883,2|0,0:0|2:0,2:0:0:0:
176,11,103282,6,0,P|204:159|226:356,1,345.000013160706,2|8,0:0|0:0,2:0:0:0:
222,355,103794,1,0,0:0:0:0:
90,111,103964,5,2,0:0:0:0:
19,156,104135,1,2,1:2:0:0:
34,238,104305,1,10,0:0:0:0:
327,210,104475,5,2,0:0:0:0:
333,208,104560,1,0,2:0:0:0:
339,211,104646,2,0,P|365:297|210:345,1,275.999991577149,4|8,1:0|0:0,2:0:0:0:
438,204,105157,2,0,P|433:75|308:41,1,275.999991577149,0|0,1:0|1:0,2:0:0:0:
252,276,105669,2,0,P|237:207|213:136,1,137.999995788574,10|2,0:0|0:0,2:0:0:0:
131,4,106010,6,0,P|94:23|85:64,1,86.2500032901765,2|0,0:0|1:0,2:0:0:0:
53,265,106350,5,8,0:0:0:0:
149,253,106521,1,0,1:0:0:0:
316,146,106690,5,8,0:0:0:0:
219,139,106861,1,0,1:0:0:0:
40,168,107032,5,10,0:0:0:0:
326,233,107203,1,2,0:0:0:0:
225,328,107373,6,0,P|206:219|158:62,1,258.75000987053,4|0,1:0|0:0,2:0:0:0:
187,231,107714,2,0,P|294:185|254:64,1,258.75000987053,10|0,0:0|2:0,2:0:0:0:
94,36,108055,2,0,P|101:126|184:150,1,172.500006580353,2|2,0:0|1:2,2:0:0:0:
479,327,108396,6,0,P|436:314|392:307,1,83.3750025444031,10|0,0:0|2:0,2:0:0:0:
317,297,108566,1,2,0:0:0:0:
506,109,108737,6,0,P|395:123|239:168,1,258.75000987053,2|0,0:0|0:0,2:0:0:0:
262,65,109078,2,0,P|377:36|425:145,1,258.75000987053,10|0,0:0|2:0,2:0:0:0:
105,200,109419,2,0,P|107:106|189:83,1,172.500006580353,2|2,0:0|1:2,2:0:0:0:
317,297,109760,6,0,P|319:261|327:206,1,86.2500032901765,10|0,0:0|2:0,2:0:0:0:
338,123,109930,1,2,0:0:0:0:
47,348,110100,6,0,P|115:222|249:237,1,258.75000987053,6|0,1:2|0:0,2:0:0:0:
363,371,110441,2,0,P|283:374|232:277,1,172.500006580353,10|0,0:0|1:0,2:0:0:0:
260,45,110782,6,0,P|297:169|316:296,1,258.75000987053,2|0,0:0|0:0,2:0:0:0:
380,199,111123,2,0,P|362:118|334:33,1,172.500006580353,10|0,0:0|0:0,2:0:0:0:
456,268,111464,6,0,P|310:198|123:147,1,345.000013160706,2|8,0:0|0:0,2:0:0:0:
130,152,111975,1,2,0:0:0:0:
130,152,112146,5,2,0:0:0:0:
260,45,112316,1,0,1:0:0:0:
380,199,112487,1,10,0:0:0:0:
380,199,112828,6,0,B|343:266|362:359|362:359|343:266|277:224,1,327.749991248131,4|0,1:0|2:0,2:0:0:0:
393,34,113169,2,0,P|372:110|314:107,1,137.999995788574,8|0,0:0|1:0,2:0:0:0:
84,47,113510,6,0,P|94:72|99:98,1,43.1250016450883,2|0,0:0|2:0,2:0:0:0:
219,139,113681,2,0,P|209:164|204:190,1,43.1250016450883,2|0,1:2|2:0,2:0:0:0:
125,204,113851,2,0,P|135:229|140:255,1,43.1250016450883,10|0,0:0|2:0,2:0:0:0:
169,325,114022,2,0,P|159:350|154:376,1,43.1250016450883,2|0,0:0|2:0,2:0:0:0:
159,368,114192,6,0,P|171:224|203:12,1,345.000013160706,2|8,0:0|0:0,2:0:0:0:
204,21,114703,1,0,0:0:0:0:
72,313,114873,5,2,0:0:0:0:
1,268,115044,1,2,1:2:0:0:
16,186,115214,1,10,0:0:0:0:
276,314,115385,5,2,0:0:0:0:
284,314,115470,1,0,2:0:0:0:
291,320,115555,2,0,P|173:338|-5:379,1,275.999991577149,4|8,1:0|0:0,2:0:0:0:
381,135,116066,2,0,P|263:117|85:76,1,275.999991577149,0|0,1:0|1:0,2:0:0:0:
388,298,116578,2,0,P|422:274|422:232,1,86.2500032901765,10|2,0:0|0:0,2:0:0:0:
281,14,116919,5,14,1:2:0:0:
226,276,117089,1,0,2:0:0:0:
154,359,117260,5,10,1:2:0:0:
133,251,117430,1,0,0:0:0:0:
214,74,117600,5,10,1:2:0:0:
292,349,117770,1,10,1:2:0:0:
471,166,117941,1,10,1:2:0:0:
2,237,125100,6,0,B|13:233|13:233|9:236|9:236|17:270|23:308|23:308|29:307|29:307|16:312,1,103.499996841431,2|0,0:0|0:0,2:0:0:0:
134,153,126464,6,0,B|131:126|194:112|220:183|161:198|141:181|126:184|114:220,1,155.249995262146,2|2,0:0|0:0,2:0:0:0:
134,154,127828,2,0,B|148:131|100:87|43:136|85:180|110:173|122:183|115:220,1,155.249995262146,2|2,2:0|0:0,2:0:0:0:
188,364,129191,6,0,B|216:354|218:325|218:325|199:281|199:281|203:256|221:244|221:244|307:224|307:224|293:244|294:270,1,276,2|10,0:0|0:0,2:0:0:0:
294,265,130555,6,0,P|186:260|197:108,1,258.75000987053,4|0,1:0|0:0,2:0:0:0:
299,362,130896,2,0,P|281:256|247:102,1,258.75000987053,10|0,0:0|2:0,2:0:0:0:
378,320,131237,2,0,P|433:303|434:201,1,172.500006580353,2|2,0:0|1:2,2:0:0:0:
387,24,131578,6,0,P|377:66|370:108,1,86.2500032901765,10|0,0:0|2:0,2:0:0:0:
355,198,131748,1,2,0:0:0:0:
227,34,131919,6,0,P|98:53|76:178,1,258.75000987053,2|0,0:0|0:0,2:0:0:0:
248,108,132260,2,0,P|210:231|191:359,1,258.75000987053,10|0,0:0|2:0,2:0:0:0:
95,325,132601,2,0,P|8:306|19:225,1,172.500006580353,2|2,0:0|1:2,2:0:0:0:
163,121,132941,6,0,P|178:160|189:203,1,86.2500032901765,10|0,0:0|2:0,2:0:0:0:
216,285,133112,1,2,0:0:0:0:
512,292,133282,6,0,P|468:163|339:182,1,258.75000987053,6|0,1:2|0:0,2:0:0:0:
332,367,133623,2,0,P|399:356|427:262,1,172.500006580353,10|0,0:0|1:0,2:0:0:0:
104,348,133964,6,0,P|223:299|351:278,1,258.75000987053,2|0,0:0|0:0,2:0:0:0:
285,210,134304,2,0,P|200:228|119:257,1,172.500006580353,10|0,0:0|0:0,2:0:0:0:
310,37,134646,6,0,P|279:156|246:377,1,345.000013160706,2|8,0:0|0:0,2:0:0:0:
250,379,135157,1,2,0:0:0:0:
250,379,135328,5,2,0:0:0:0:
119,256,135498,1,0,1:0:0:0:
204,78,135669,1,10,0:0:0:0:
204,78,136010,6,0,B|238:96|243:218|196:105|166:178|173:285|243:265|195:165|139:121|147:246|83:150|110:106,1,293.2500055933,4|0,1:0|2:0,2:0:0:0:
131,32,136350,2,0,B|126:-8|126:-8|141:38,1,74.7499965782167,8|0,0:0|2:0,2:0:0:0:
28,248,136521,6,0,P|150:177|358:140,1,345.000013160706,0|2,1:0|1:2,2:0:0:0:
361,295,137032,2,0,P|302:274|296:220,1,115,10|2,0:0|0:0,2:0:0:0:
457,53,137373,6,0,P|437:132|423:234,1,172.5,2|0,0:0|2:0,2:0:0:0:
441,333,137714,2,0,P|500:318|514:265,1,115,8|0,0:0|0:0,2:0:0:0:
314,65,138055,5,2,0:0:0:0:
228,36,138225,1,2,1:2:0:0:
172,108,138396,1,10,0:0:0:0:
115,337,138566,5,2,0:0:0:0:
109,344,138651,1,0,2:0:0:0:
101,345,138737,2,0,P|85:238|49:64,1,275.999991577149,4|8,1:0|0:0,2:0:0:0:
428,319,139248,2,0,P|444:212|480:38,1,275.999991577149,0|0,1:0|1:0,2:0:0:0:
226,52,139760,5,10,0:0:0:0:
226,52,140100,5,14,1:2:0:0:
377,97,140271,1,0,0:0:0:0:
142,301,140441,5,10,1:2:0:0:
104,147,140612,1,0,0:0:0:0:
415,242,140782,5,10,1:2:0:0:
300,352,140953,1,10,1:2:0:0:
256,192,141123,5,10,1:2:0:0:
