osu file format v14

[General]
AudioFilename: audio.mp3
AudioLeadIn: 0
PreviewTime: 95740
Countdown: 0
SampleSet: Soft
StackLeniency: 0.7
Mode: 0
LetterboxInBreaks: 0
WidescreenStoryboard: 1

[Editor]
DistanceSpacing: 1.3
BeatDivisor: 4
GridSize: 4
TimelineZoom: 1.5

[Metadata]
Title:THATS WHAT I WANT
TitleUnicode:THATS WHAT I WANT
Artist:Lil Nas X
ArtistUnicode:Lil Nas X
Creator:KaedeharaKazuha
Version:ADVANCED
Source:
Tags:pop english montero lamar hill kaedehara kazuha Addy2607 -_ascended_- -ascended- ascended kittyadventure gokugohan12468 Dariano KBeaZy Blake Slatkin Omer Fedi Ryan Tedder THAT'S THAT IS
BeatmapID:3335980
BeatmapSetID:1632817

[Difficulty]
HPDrainRate:3.5
CircleSize:3.5
OverallDifficulty:5
ApproachRate:6
SliderMultiplier:1.4
SliderTickRate:1

[Events]
//Background and Video events
0,0,"E_d5zIjVcAIG3sO.jpg",0,0
//Break Periods
2,119646,128482
//Storyboard Layer 0 (Background)
//Storyboard Layer 1 (Fail)
//Storyboard Layer 2 (Pass)
//Storyboard Layer 3 (Foreground)
//Storyboard Layer 4 (Overlay)
//Storyboard Sound Samples

[TimingPoints]
1010,340.909090909091,4,2,1,60,1,0
1010,-125,4,2,1,60,0,0
6464,-111.111111111111,4,2,1,70,0,0
17373,-100,4,2,1,70,0,0
28282,-100,4,2,1,70,0,0
36464,-111.111111111111,4,2,1,60,0,0
38169,-111.111111111111,4,2,1,70,0,0
38510,-111.111111111111,4,2,1,80,0,0
38850,-111.111111111111,4,2,1,90,0,0
39191,-95.2380952380952,4,2,1,85,0,1
59646,-95.2380952380952,4,2,1,85,0,1
60669,-90.9090909090909,4,2,1,85,0,0
61010,-142.857142857143,4,2,1,50,0,0
62373,-125,4,2,1,60,0,0
63737,-111.111111111111,4,2,1,70,0,0
74646,-100,4,2,1,70,0,0
84191,-111.111111111111,4,2,1,70,0,0
85555,-100,4,2,1,70,0,0
93737,-111.111111111111,4,2,1,60,0,0
95441,-111.111111111111,4,2,1,70,0,0
95782,-111.111111111111,4,2,1,80,0,0
96123,-111.111111111111,4,2,1,90,0,0
96464,-95.2380952380952,4,2,1,85,0,1
116919,-95.2380952380952,4,2,1,85,0,1
117941,-111.111111111111,4,2,1,85,0,0
118964,-111.111111111111,4,2,1,65,0,0
119646,-105.263157894737,4,2,1,50,0,0
129532,-105.263157894737,4,2,1,70,0,0
129873,-105.263157894737,4,2,1,70,0,0
130214,-105.263157894737,4,2,1,70,0,0
130555,-95.2380952380952,4,2,1,95,0,1
140100,-95.2380952380952,4,2,1,95,0,1
141123,-100,4,2,1,95,0,0
141464,-100,4,2,1,95,0,0

[Colours]
Combo1 : 0,255,130
Combo2 : 0,130,255
Combo3 : 130,255,255
Combo4 : 190,190,190

[HitObjects]
417,21,1010,6,0,L|424:135,1,112,2|2,0:0|0:0,0:0:0:0:
464,200,1521,2,0,B|501:242|501:242|469:299,1,112,2|2,0:0|0:0,0:0:0:0:
422,351,2032,1,2,0:0:0:0:
265,344,2373,6,0,B|219:338|219:338|195:356|195:356|144:350,1,112,2|2,0:0|0:0,0:0:0:0:
97,303,2885,1,2,0:0:0:0:
97,303,3055,2,0,P|70:248|98:203,1,112,2|2,0:0|0:0,0:0:0:0:
153,158,3566,1,2,0:0:0:0:
153,158,3737,6,0,L|268:163,1,112,2|2,0:0|0:0,0:0:0:0:
330,206,4248,2,0,B|380:238|380:238|442:200,1,112,2|2,0:0|0:0,0:0:0:0:
489,165,4760,1,2,0:0:0:0:
428,20,5100,6,0,B|378:-12|378:-12|316:26,1,112,2|2,0:0|0:0,0:0:0:0:
270,62,5612,1,2,0:0:0:0:
270,62,5782,2,0,B|220:94|220:94|158:56,1,112,2|2,0:0|0:0,0:0:0:0:
117,12,6294,1,2,0:0:0:0:
54,64,6464,6,0,L|63:198,1,125.999996154785,2|10,1:2|0:0,0:0:0:0:
82,274,6975,1,2,1:2:0:0:
82,274,7146,2,0,B|137:237|137:237|198:276,1,125.999996154785,2|10,0:0|0:0,0:0:0:0:
249,331,7657,1,2,0:0:0:0:
249,331,7828,6,0,L|336:328,1,62.9999980773926,2|2,0:0|1:2,0:0:0:0:
394,325,8169,2,0,L|481:322,1,62.9999980773926,10|2,0:0|0:0,0:0:0:0:
454,240,8510,2,0,L|367:243,1,62.9999980773926,2|0,0:0|1:0,0:0:0:0:
309,246,8850,1,10,0:0:0:0:
158,182,9191,6,0,P|122:126|160:69,1,125.999996154785,2|10,1:2|0:0,0:0:0:0:
206,24,9703,1,2,1:2:0:0:
206,24,9873,2,0,L|343:24,1,125.999996154785,2|10,0:0|0:0,0:0:0:0:
406,60,10385,1,2,0:0:0:0:
466,5,10555,6,0,P|489:46|467:124,1,125.999996154785,2|10,0:0|0:0,0:0:0:0:
417,182,11066,1,2,0:0:0:0:
417,182,11237,2,0,L|418:252,1,62.9999980773926,2|0,0:0|1:0,0:0:0:0:
377,316,11578,1,10,0:0:0:0:
234,236,11919,6,0,L|231:91,1,125.999996154785,2|10,1:2|0:0,0:0:0:0:
190,45,12430,1,2,1:2:0:0:
190,45,12600,2,0,P|135:17|80:59,1,125.999996154785,2|10,0:0|0:0,0:0:0:0:
31,111,13112,1,2,0:0:0:0:
31,111,13282,6,0,L|31:173,1,62.9999980773926,2|2,0:0|1:2,0:0:0:0:
14,254,13623,2,0,L|76:254,1,62.9999980773926,10|2,0:0|0:0,0:0:0:0:
138,307,13964,2,0,L|200:307,1,62.9999980773926,2|0,0:0|1:0,0:0:0:0:
283,307,14305,1,10,0:0:0:0:
446,307,14646,6,0,B|482:255|482:255|438:199,1,125.999996154785,2|10,1:2|0:0,0:0:0:0:
467,127,15157,2,0,B|421:121|421:121|395:136|395:136|340:132,1,125.999996154785,2|0,1:2|1:0,0:0:0:0:
276,97,15669,1,10,0:0:0:0:
160,213,16010,6,0,L|165:295,1,62.9999980773926,2|2,0:0|1:2,0:0:0:0:
171,357,16350,2,0,L|89:362,1,62.9999980773926,10|2,0:0|1:2,0:0:0:0:
26,366,16691,1,8,0:0:0:0:
17,202,17032,1,8,0:0:0:0:
12,20,17373,6,0,L|153:11,1,140,6|10,1:2|0:0,0:0:0:0:
232,57,17885,1,2,1:2:0:0:
232,57,18055,2,0,L|302:52,1,70,2|0,0:0|1:0,0:0:0:0:
377,1,18396,1,10,0:0:0:0:
507,127,18737,6,0,L|503:217,1,70,2|2,0:0|1:2,0:0:0:0:
497,288,19078,2,0,L|407:284,1,70,10|2,0:0|0:0,0:0:0:0:
351,233,19419,2,0,L|276:229,1,70,2|0,0:0|1:0,0:0:0:0:
189,225,19760,1,10,0:0:0:0:
55,101,20100,6,0,B|18:137|18:137|31:240,1,140,2|10,1:2|0:0,0:0:0:0:
24,319,20612,1,2,1:2:0:0:
24,319,20782,2,0,B|84:278|84:278|159:322,1,140,2|10,0:0|0:0,0:0:0:0:
208,380,21294,1,2,0:0:0:0:
208,380,21464,6,0,L|284:375,1,70,2|0,0:0|1:0,0:0:0:0:
368,366,21805,2,0,L|444:361,1,70,10|2,0:0|0:0,0:0:0:0:
488,285,22146,2,0,P|512:228|468:166,1,140,2|10,0:0|0:0,0:0:0:0:
325,58,22828,6,0,L|183:65,1,140,2|10,1:2|0:0,0:0:0:0:
97,69,23339,1,2,1:2:0:0:
97,69,23510,2,0,L|95:-5,2,70,2|0|10,0:0|1:0|0:0,0:0:0:0:
57,151,24021,1,2,0:0:0:0:
57,151,24191,6,0,P|14:202|43:268,1,140,2|10,0:0|0:0,0:0:0:0:
106,325,24703,1,2,0:0:0:0:
106,325,24873,2,0,B|153:319|153:319|185:343|185:343|249:337,1,140,2|10,0:0|0:0,0:0:0:0:
314,287,25385,1,2,0:0:0:0:
384,344,25555,6,0,P|406:290|360:212,1,140,2|10,1:2|0:0,0:0:0:0:
283,199,26066,2,0,L|125:216,1,140,2|0,1:2|1:0,0:0:0:0:
52,224,26578,2,0,L|43:145,1,70,10|2,0:0|0:0,0:0:0:0:
37,63,26919,6,0,L|123:53,1,70,2|2,0:0|1:2,0:0:0:0:
197,44,27260,1,10,0:0:0:0:
378,35,27600,2,0,L|388:121,1,70,8|0,0:0|1:0,0:0:0:0:
398,194,27941,1,10,0:0:0:0:
474,359,28282,6,0,B|423:352|423:352|390:379|390:379|323:369,1,140,6|10,1:2|0:0,0:0:0:0:
249,359,28794,1,2,1:2:0:0:
249,359,28964,2,0,P|213:307|258:223,1,140,2|10,0:0|0:0,0:0:0:0:
381,116,29646,6,0,P|401:75|321:30,1,140,2|10,0:0|0:0,0:0:0:0:
266,77,30157,1,2,0:0:0:0:
266,77,30328,2,0,B|203:113|203:113|134:71,1,140,2|10,0:0|0:0,0:0:0:0:
84,13,30839,1,0,0:0:0:0:
24,82,31010,6,0,L|32:233,1,140,2|10,1:2|0:0,0:0:0:0:
10,313,31521,1,2,1:2:0:0:
10,313,31691,2,0,P|62:353|116:316,1,140,2|10,0:0|0:0,0:0:0:0:
172,142,32373,6,0,P|224:102|278:139,1,140,2|10,0:0|0:0,0:0:0:0:
329,221,32885,1,2,0:0:0:0:
329,221,33055,2,0,L|325:376,1,140,2|10,0:0|0:0,0:0:0:0:
498,303,33737,6,0,L|502:148,1,140,2|10,1:2|0:0,0:0:0:0:
442,100,34248,1,2,1:2:0:0:
442,100,34419,2,0,B|378:136|378:136|309:98,1,140,2|10,0:0|0:0,0:0:0:0:
144,53,35100,6,0,B|80:17|80:17|11:55,1,140,2|10,0:0|0:0,0:0:0:0:
84,123,35612,1,2,0:0:0:0:
84,123,35782,2,0,L|85:212,1,70,2|0,0:0|1:0,0:0:0:0:
6,239,36123,2,0,L|7:328,1,70,10|2,0:0|0:0,0:0:0:0:
73,356,36464,6,0,B|117:347|117:347|150:368|150:368|203:359,1,125.999996154785,2|10,1:2|0:0,0:0:0:0:
261,318,36975,2,0,P|293:277|251:206,1,125.999996154785,2|0,1:2|1:0,0:0:0:0:
199,169,37487,1,10,0:0:0:0:
39,131,37828,6,0,P|5:93|54:27,1,125.999996154785,2|10,0:0|0:0,0:0:0:0:
120,32,38339,1,2,1:2:0:0:
120,32,38510,2,0,L|206:32,1,62.9999980773926,8|0,0:0|1:0,0:0:0:0:
264,33,38850,2,0,L|350:33,1,62.9999980773926,10|0,0:0|0:0,0:0:0:0:
417,1,39191,6,0,B|451:35|451:35|431:138,1,146.999995513916,4|8,1:0|0:0,0:0:0:0:
477,216,39703,2,0,P|420:172|353:200,1,146.999995513916,0|2,1:0|1:2,0:0:0:0:
320,285,40214,2,0,L|323:372,1,73.4999977569581,10|2,0:0|0:0,0:0:0:0:
229,336,40555,6,0,L|223:181,1,146.999995513916,2|8,0:0|0:0,0:0:0:0:
279,111,41066,1,0,0:0:0:0:
219,36,41237,2,0,L|130:39,1,73.4999977569581,2|2,0:0|1:2,0:0:0:0:
49,43,41578,2,0,L|52:132,1,73.4999977569581,10|2,0:0|0:0,0:0:0:0:
45,212,41919,6,0,B|8:275|8:275|55:338,1,146.999995513916,4|8,1:0|0:0,0:0:0:0:
147,337,42430,2,0,B|200:330|200:330|236:358|236:358|303:352,1,146.999995513916,0|0,1:0|1:0,0:0:0:0:
380,381,42941,1,10,0:0:0:0:
380,381,43112,1,2,0:0:0:0:
453,320,43282,6,0,L|451:235,1,73.4999977569581,2|0,0:0|1:0,0:0:0:0:
448,150,43623,2,0,L|446:65,1,73.4999977569581,8|0,0:0|0:0,0:0:0:0:
355,46,43964,2,0,L|357:131,1,73.4999977569581,2|0,0:0|1:0,0:0:0:0:
360,216,44305,2,0,L|362:301,1,73.4999977569581,10|0,0:0|0:0,0:0:0:0:
303,353,44646,6,0,B|240:313|240:313|175:355,1,146.999995513916,4|8,1:0|0:0,0:0:0:0:
129,270,45157,2,0,B|66:312|66:312|-6:267,1,146.999995513916,0|2,1:0|1:2,0:0:0:0:
64,198,45669,2,0,L|63:116,1,73.4999977569581,10|2,0:0|0:0,0:0:0:0:
0,51,46010,6,0,B|63:9|63:9|135:54,1,146.999995513916,2|8,0:0|0:0,0:0:0:0:
203,109,46521,1,0,0:0:0:0:
203,109,46691,2,0,L|286:106,1,73.4999977569581,2|2,0:0|1:2,0:0:0:0:
341,36,47032,2,0,L|424:33,1,73.4999977569581,10|2,0:0|0:0,0:0:0:0:
495,84,47373,6,0,B|484:140|484:140|499:170|499:170|487:240,1,146.999995513916,4|8,1:0|0:0,0:0:0:0:
483,321,47885,2,0,B|420:279|420:279|351:319,1,146.999995513916,0|0,1:0|1:0,0:0:0:0:
279,369,48396,2,0,L|275:272,1,73.4999977569581,10|2,0:0|0:0,0:0:0:0:
323,212,48737,6,0,B|335:176|335:176|312:128,1,73.4999977569581,2|0,0:0|1:0,0:0:0:0:
237,94,49078,2,0,L|143:96,1,73.4999977569581,8|0,0:0|1:0,0:0:0:0:
90,157,49419,2,0,B|75:193|75:193|100:242,1,73.4999977569581,8|0,0:0|1:0,0:0:0:0:
38,305,49760,1,10,0:0:0:0:
38,305,49930,1,2,0:0:0:0:
127,368,50100,6,0,L|297:354,1,146.999995513916,4|10,1:0|0:0,0:0:0:0:
373,349,50612,1,0,1:0:0:0:
373,349,50782,2,0,P|400:275|356:217,1,146.999995513916,2|10,0:0|0:0,0:0:0:0:
276,200,51294,1,2,0:0:0:0:
276,200,51464,6,0,L|106:214,1,146.999995513916,2|10,0:0|0:0,0:0:0:0:
43,182,51975,1,0,0:0:0:0:
43,182,52146,2,0,P|7:120|35:55,1,146.999995513916,2|10,0:0|0:0,0:0:0:0:
133,41,52657,1,2,0:0:0:0:
133,41,52828,6,0,B|190:33|190:33|224:61|224:61|297:55,1,146.999995513916,6|10,1:2|0:0,0:0:0:0:
351,5,53339,1,0,1:0:0:0:
351,5,53510,2,0,B|386:40|386:40|371:142,1,146.999995513916,2|10,0:0|0:0,0:0:0:0:
433,217,54021,1,0,0:0:0:0:
433,217,54191,6,0,B|478:278|478:278|435:346,1,146.999995513916,2|8,0:0|0:0,0:0:0:0:
349,359,54703,1,2,0:0:0:0:
349,359,54873,2,0,L|257:356,1,73.4999977569581,2|0,0:0|1:0,0:0:0:0:
179,350,55214,2,0,L|87:347,1,73.4999977569581,10|0,0:0|0:0,0:0:0:0:
61,262,55555,6,0,L|227:267,1,146.999995513916,4|8,1:0|0:0,0:0:0:0:
293,222,56066,2,0,B|357:262|357:262|432:216,1,146.999995513916,0|2,1:0|1:2,0:0:0:0:
356,150,56578,2,0,L|357:65,1,73.4999977569581,10|2,0:0|0:0,0:0:0:0:
278,21,56919,6,0,B|226:14|226:14|190:42|190:42|117:36,1,146.999995513916,2|8,0:0|0:0,0:0:0:0:
53,15,57430,1,0,0:0:0:0:
53,15,57600,2,0,L|60:121,1,73.4999977569581,2|2,0:0|1:2,0:0:0:0:
25,178,57941,2,0,L|101:172,1,73.4999977569581,10|2,0:0|0:0,0:0:0:0:
169,236,58282,6,0,B|233:194|233:194|305:243,1,146.999995513916,4|8,1:0|0:0,0:0:0:0:
367,293,58794,2,0,B|431:335|431:335|503:286,1,146.999995513916,0|0,1:0|1:0,0:0:0:0:
489,199,59305,2,0,L|486:114,1,73.4999977569581,10|2,0:0|0:0,0:0:0:0:
480,29,59646,5,14,1:2:0:0:
289,41,59987,2,0,L|204:44,1,73.4999977569581,10|0,1:2|0:0,0:0:0:0:
120,53,60328,2,0,L|123:138,1,73.4999977569581,10|10,1:2|1:2,0:0:0:0:
127,226,60669,1,10,1:2:0:0:
256,192,61010,12,10,63396,0:0:0:0:
153,95,63737,6,0,L|162:230,1,125.999996154785,6|10,1:2|0:0,0:0:0:0:
116,290,64248,1,2,1:2:0:0:
116,290,64419,2,0,P|163:311|226:273,1,125.999996154785,2|10,0:0|0:0,0:0:0:0:
275,212,64930,6,0,P|322:191|385:229,1,125.999996154785,2|2,0:0|1:2,0:0:0:0:
425,294,65441,2,0,L|423:372,1,62.9999980773926,10|2,0:0|0:0,0:0:0:0:
504,346,65782,2,0,L|507:217,1,125.999996154785,2|10,0:0|0:0,0:0:0:0:
511,55,66464,6,0,B|462:47|462:47|435:59|435:59|374:52,1,125.999996154785,2|10,1:2|0:0,0:0:0:0:
321,6,66975,1,2,1:2:0:0:
259,60,67146,2,0,L|266:213,1,125.999996154785,2|10,0:0|0:0,0:0:0:0:
315,250,67657,6,0,B|351:304|351:304|324:367,1,125.999996154785,2|0,0:0|1:0,0:0:0:0:
244,355,68169,2,0,L|164:352,1,62.9999980773926,10|2,0:0|0:0,0:0:0:0:
99,345,68510,2,0,L|102:265,1,62.9999980773926,2|0,0:0|1:0,0:0:0:0:
109,200,68850,1,10,0:0:0:0:
125,37,69191,6,0,P|181:10|238:48,1,125.999996154785,2|10,1:2|0:0,0:0:0:0:
283,110,69703,1,2,1:2:0:0:
283,110,69873,2,0,P|339:137|396:99,1,125.999996154785,2|10,0:0|0:0,0:0:0:0:
445,46,70385,6,0,L|448:197,1,125.999996154785,2|2,0:0|1:2,0:0:0:0:
496,237,70896,2,0,L|497:312,1,62.9999980773926,10|2,0:0|0:0,0:0:0:0:
429,346,71237,2,0,B|380:341|380:341|355:359|355:359|293:353,1,125.999996154785,2|10,0:0|0:0,0:0:0:0:
227,347,71748,1,2,0:0:0:0:
227,347,71919,6,0,B|172:313|172:313|112:351,1,125.999996154785,2|10,1:2|0:0,0:0:0:0:
40,324,72430,2,0,P|-2:277|27:217,1,125.999996154785,2|0,1:2|1:0,0:0:0:0:
71,161,72941,1,10,0:0:0:0:
71,161,73112,1,2,0:0:0:0:
143,198,73282,6,0,L|282:192,1,125.999996154785,2|10,0:0|0:0,0:0:0:0:
323,254,73794,2,0,P|380:285|437:240,1,125.999996154785,2|0,1:2|1:0,0:0:0:0:
488,201,74305,1,8,0:0:0:0:
483,19,74646,6,0,L|321:22,1,140,6|10,1:2|0:0,0:0:0:0:
255,27,75157,1,2,1:2:0:0:
255,27,75328,2,0,L|256:96,1,70,2|0,0:0|1:0,0:0:0:0:
310,170,75669,2,0,L|311:239,1,70,10|2,0:0|0:0,0:0:0:0:
278,325,76010,6,0,B|221:289|221:289|150:333,1,140,2|10,0:0|0:0,0:0:0:0:
83,375,76521,1,2,0:0:0:0:
83,375,76691,2,0,L|80:221,1,140,2|10,0:0|0:0,0:0:0:0:
4,68,77373,6,0,P|66:118|128:92,1,140,2|10,1:2|0:0,0:0:0:0:
193,50,77885,1,2,1:2:0:0:
193,50,78055,2,0,P|253:16|317:64,1,140,2|10,0:0|0:0,0:0:0:0:
363,121,78566,1,2,0:0:0:0:
363,121,78737,6,0,L|363:206,1,70,2|0,0:0|1:0,0:0:0:0:
361,282,79078,2,0,L|361:367,1,70,10|2,0:0|0:0,0:0:0:0:
272,329,79419,2,0,L|272:179,1,140,2|10,0:0|0:0,0:0:0:0:
137,65,80100,6,0,B|76:30|76:30|4:72,1,140,2|10,1:2|0:0,0:0:0:0:
0,153,80612,1,2,1:2:0:0:
0,153,80782,2,0,L|5:235,1,70,2|0,0:0|1:0,0:0:0:0:
4,314,81123,2,0,L|73:309,1,70,10|2,0:0|0:0,0:0:0:0:
160,338,81464,6,0,P|199:368|273:327,1,140,2|10,0:0|0:0,0:0:0:0:
318,253,81975,1,2,0:0:0:0:
318,253,82146,2,0,L|313:93,1,140,2|10,0:0|0:0,0:0:0:0:
311,21,82657,1,2,0:0:0:0:
311,21,82828,6,0,L|241:23,2,70,2|2|10,1:2|0:0|0:0,0:0:0:0:
393,60,83339,2,0,L|463:58,2,70,2|2|0,1:2|0:0|1:0,0:0:0:0:
313,113,83850,2,0,L|243:115,1,70,10|2,0:0|0:0,0:0:0:0:
160,117,84191,1,2,0:0:0:0:
160,117,85555,6,0,B|118:175|118:175|167:243,1,140,6|10,1:2|0:0,0:0:0:0:
125,318,86066,1,2,1:2:0:0:
125,318,86237,2,0,L|275:313,1,140,2|10,0:0|0:0,0:0:0:0:
437,374,86919,6,0,L|432:234,1,140,2|10,0:0|0:0,0:0:0:0:
481,157,87430,1,2,0:0:0:0:
481,157,87600,2,0,P|513:113|461:35,1,140,2|10,0:0|0:0,0:0:0:0:
395,6,88112,1,0,0:0:0:0:
331,70,88282,6,0,B|274:63|274:63|247:81|247:81|187:75,1,140,2|10,1:2|0:0,0:0:0:0:
132,19,88794,1,2,1:2:0:0:
132,19,88964,2,0,B|98:56|98:56|118:160,1,140,2|10,0:0|0:0,0:0:0:0:
49,314,89646,6,0,P|107:354|172:323,1,140,2|10,0:0|0:0,0:0:0:0:
233,267,90157,1,2,0:0:0:0:
233,267,90328,2,0,P|296:243|350:283,1,140,2|10,0:0|0:0,0:0:0:0:
505,378,91010,6,0,L|501:209,1,140,2|10,1:2|0:0,0:0:0:0:
503,150,91521,1,2,1:2:0:0:
503,150,91691,2,0,B|444:112|444:112|375:157,1,140,2|10,0:0|0:0,0:0:0:0:
211,204,92373,6,0,L|215:373,1,140,2|10,0:0|0:0,0:0:0:0:
129,370,92885,1,2,0:0:0:0:
129,370,93055,2,0,L|126:275,1,70,2|0,0:0|1:0,0:0:0:0:
56,241,93396,2,0,L|53:146,1,70,10|2,0:0|0:0,0:0:0:0:
53,88,93737,6,0,B|108:51|108:51|172:91,1,125.999996154785,2|10,1:2|0:0,0:0:0:0:
222,134,94248,2,0,B|277:171|277:171|341:131,1,125.999996154785,2|0,1:2|1:0,0:0:0:0:
390,85,94760,1,10,0:0:0:0:
505,188,95100,6,0,L|501:326,1,125.999996154785,2|10,0:0|0:0,0:0:0:0:
423,310,95612,1,2,1:2:0:0:
423,310,95782,2,0,L|354:308,1,62.9999980773926,8|0,0:0|1:0,0:0:0:0:
277,304,96123,2,0,L|208:302,1,62.9999980773926,10|0,0:0|0:0,0:0:0:0:
145,368,96464,6,0,P|116:318|152:234,1,146.999995513916,4|8,1:0|0:0,0:0:0:0:
229,193,96975,2,0,L|383:197,1,146.999995513916,0|2,1:0|1:2,0:0:0:0:
472,201,97487,2,0,L|474:124,1,73.4999977569581,10|2,0:0|0:0,0:0:0:0:
477,31,97828,6,0,L|323:27,1,146.999995513916,2|8,0:0|0:0,0:0:0:0:
253,85,98339,1,0,0:0:0:0:
174,30,98510,2,0,B|141:14|141:14|101:36,1,73.4999977569581,2|2,0:0|1:2,0:0:0:0:
41,99,98850,2,0,B|25:132|25:132|47:172,1,73.4999977569581,10|2,0:0|0:0,0:0:0:0:
14,255,99191,6,0,L|173:246,1,146.999995513916,4|8,1:0|0:0,0:0:0:0:
248,286,99703,2,0,L|239:139,1,146.999995513916,0|0,1:0|1:0,0:0:0:0:
235,47,100214,1,10,0:0:0:0:
235,47,100385,1,2,0:0:0:0:
318,0,100555,6,0,B|372:-7|372:-7|404:18|404:18|483:10,1,146.999995513916,2|8,0:0|0:0,0:0:0:0:
509,92,101066,1,0,0:0:0:0:
509,92,101237,2,0,L|504:181,1,73.4999977569581,2|0,0:0|1:0,0:0:0:0:
498,261,101578,2,0,L|493:350,1,73.4999977569581,10|0,0:0|0:0,0:0:0:0:
401,360,101919,6,0,L|410:189,1,146.999995513916,4|8,1:0|0:0,0:0:0:0:
376,123,102430,2,0,B|317:164|317:164|243:118,1,146.999995513916,0|2,1:0|1:2,0:0:0:0:
175,68,102941,2,0,B|144:50|144:50|102:74,1,73.4999977569581,10|2,0:0|0:0,0:0:0:0:
25,25,103282,6,0,L|37:191,1,146.999995513916,2|8,0:0|0:0,0:0:0:0:
7,263,103794,1,0,0:0:0:0:
73,331,103964,2,0,B|105:350|105:350|148:327,1,73.4999977569581,2|2,0:0|1:2,0:0:0:0:
221,287,104305,2,0,B|253:268|253:268|296:291,1,73.4999977569581,10|2,0:0|0:0,0:0:0:0:
347,357,104646,6,0,L|338:194,1,146.999995513916,4|8,1:0|0:0,0:0:0:0:
420,160,105157,2,0,P|448:113|404:33,1,146.999995513916,0|0,1:0|1:0,0:0:0:0:
314,43,105669,2,0,L|229:46,1,73.4999977569581,10|2,0:0|0:0,0:0:0:0:
144,52,106010,6,0,L|59:55,1,73.4999977569581,2|0,0:0|1:0,0:0:0:0:
32,142,106350,2,0,L|117:139,1,73.4999977569581,8|0,0:0|1:0,0:0:0:0:
151,223,106691,2,0,L|66:226,1,73.4999977569581,8|0,0:0|1:0,0:0:0:0:
12,295,107032,1,10,0:0:0:0:
12,295,107203,1,2,0:0:0:0:
86,376,107373,6,0,L|245:370,1,146.999995513916,4|10,1:0|0:0,0:0:0:0:
333,366,107885,1,0,1:0:0:0:
333,366,108055,2,0,L|327:219,1,146.999995513916,2|10,0:0|0:0,0:0:0:0:
395,151,108566,1,2,0:0:0:0:
395,151,108737,6,0,P|421:102|364:31,1,146.999995513916,2|10,0:0|0:0,0:0:0:0:
277,32,109248,1,0,0:0:0:0:
277,32,109419,2,0,B|220:26|220:26|191:47|191:47|126:42,1,146.999995513916,2|10,0:0|0:0,0:0:0:0:
45,14,109930,1,2,0:0:0:0:
45,14,110100,6,0,L|55:165,1,146.999995513916,6|10,1:2|0:0,0:0:0:0:
15,250,110612,1,0,1:0:0:0:
15,250,110782,2,0,L|161:240,1,146.999995513916,2|10,0:0|0:0,0:0:0:0:
253,283,111294,1,0,0:0:0:0:
253,283,111464,6,0,L|243:136,1,146.999995513916,2|8,0:0|0:0,0:0:0:0:
199,50,111975,1,2,0:0:0:0:
199,50,112146,2,0,L|302:43,1,73.4999977569581,2|0,0:0|1:0,0:0:0:0:
367,36,112487,2,0,L|470:29,1,73.4999977569581,10|0,0:0|0:0,0:0:0:0:
509,97,112828,6,0,B|480:137|480:137|499:246,1,146.999995513916,4|8,1:0|0:0,0:0:0:0:
509,328,113339,2,0,B|456:320|456:320|427:338|427:338|361:331,1,146.999995513916,0|2,1:0|1:2,0:0:0:0:
272,337,113850,2,0,L|196:347,1,73.4999977569581,10|2,0:0|0:0,0:0:0:0:
103,352,114191,6,0,P|52:303|85:242,1,146.999995513916,2|8,0:0|0:0,0:0:0:0:
180,227,114703,1,0,0:0:0:0:
180,227,114873,2,0,L|256:217,1,73.4999977569581,2|2,0:0|1:2,0:0:0:0:
341,254,115214,2,0,L|417:264,1,73.4999977569581,10|2,0:0|0:0,0:0:0:0:
486,201,115555,6,0,P|523:138|475:70,1,146.999995513916,4|8,1:0|0:0,0:0:0:0:
399,51,116066,2,0,L|232:66,1,146.999995513916,0|0,1:0|1:0,0:0:0:0:
162,28,116578,2,0,L|78:35,1,73.4999977569581,10|2,0:0|0:0,0:0:0:0:
14,95,116919,5,14,1:2:0:0:
31,285,117260,2,0,L|38:368,1,73.4999977569581,10|0,1:2|0:0,0:0:0:0:
132,363,117600,2,0,L|125:280,1,73.4999977569581,10|10,1:2|1:2,0:0:0:0:
84,218,117941,1,10,1:2:0:0:
492,254,129532,6,0,L|496:338,1,66.4999982242585,8|0,0:0|0:0,0:0:0:0:
412,345,129873,2,0,L|408:261,1,66.4999982242585,8|0,0:0|0:0,0:0:0:0:
432,195,130214,2,0,L|428:111,1,66.4999982242585,10|2,0:0|0:0,0:0:0:0:
359,62,130555,6,0,B|307:56|307:56|277:74|277:74|207:68,1,146.999995513916,4|10,1:0|0:0,0:0:0:0:
138,24,131066,1,0,1:0:0:0:
138,24,131237,2,0,P|66:69|95:140,1,146.999995513916,2|10,0:0|0:0,0:0:0:0:
151,186,131748,1,2,0:0:0:0:
151,186,131919,6,0,B|203:180|203:180|233:198|233:198|303:192,1,146.999995513916,2|10,0:0|0:0,0:0:0:0:
374,151,132430,1,0,0:0:0:0:
374,151,132601,2,0,P|424:201|397:278,1,146.999995513916,2|10,0:0|0:0,0:0:0:0:
340,337,133112,1,2,0:0:0:0:
340,337,133282,6,0,L|188:333,1,146.999995513916,6|10,1:2|0:0,0:0:0:0:
106,368,133794,1,0,1:0:0:0:
106,368,133964,2,0,L|110:216,1,146.999995513916,2|10,0:0|0:0,0:0:0:0:
44,159,134475,1,0,0:0:0:0:
44,159,134646,6,0,B|4:95|4:95|53:24,1,146.999995513916,2|8,0:0|0:0,0:0:0:0:
143,27,135157,1,2,0:0:0:0:
143,27,135328,2,0,L|234:30,1,73.4999977569581,2|0,0:0|1:0,0:0:0:0:
290,90,135669,2,0,L|287:181,1,73.4999977569581,10|0,0:0|0:0,0:0:0:0:
224,235,136010,6,0,P|180:300|224:362,1,146.999995513916,4|8,1:0|0:0,0:0:0:0:
302,374,136521,2,0,L|455:367,1,146.999995513916,0|2,1:0|1:2,0:0:0:0:
511,294,137032,2,0,L|507:220,1,73.4999977569581,10|2,0:0|0:0,0:0:0:0:
434,156,137373,6,0,L|281:163,1,146.999995513916,2|8,0:0|0:0,0:0:0:0:
209,115,137885,1,0,0:0:0:0:
209,115,138055,2,0,L|132:118,1,73.4999977569581,2|2,0:0|1:2,0:0:0:0:
40,127,138396,2,0,L|43:204,1,73.4999977569581,10|2,0:0|0:0,0:0:0:0:
50,295,138737,6,0,B|99:282|99:282|136:302|136:302|204:287,1,146.999995513916,4|8,1:0|0:0,0:0:0:0:
281,315,139248,2,0,B|341:357|341:357|407:314,1,146.999995513916,0|0,1:0|1:0,0:0:0:0:
452,234,139760,2,0,L|451:139,1,73.4999977569581,10|2,0:0|0:0,0:0:0:0:
400,79,140100,5,14,1:2:0:0:
219,16,140441,2,0,B|187:0|187:0|148:21,1,73.4999977569581,10|0,1:2|0:0,0:0:0:0:
88,88,140782,2,0,B|72:120|72:120|93:159,1,73.4999977569581,10|10,1:2|1:2,0:0:0:0:
149,222,141123,1,10,1:2:0:0:
