osu file format v14

[General]
AudioFilename: audio.mp3
AudioLeadIn: 0
PreviewTime: 175144
Countdown: 0
SampleSet: Soft
StackLeniency: 0.7
Mode: 0
LetterboxInBreaks: 0
WidescreenStoryboard: 1

[Editor]
Bookmarks: 13947,40989,54510,68031,95074,108595,122116,135637,162679,176200
DistanceSpacing: 1
BeatDivisor: 4
GridSize: 32
TimelineZoom: 1

[Metadata]
Title:STAR WALKIN'
TitleUnicode:STAR WALKIN'
Artist:Lil Nas X
ArtistUnicode:Lil Nas X
Creator:Sylas
Version:NORMAL
Source:League of Legends
Tags:riot games lol worlds 2022 anthem video game pop english walking gay pride
BeatmapID:3808308
BeatmapSetID:1853381

[Difficulty]
HPDrainRate:3
CircleSize:3
OverallDifficulty:4
ApproachRate:5
SliderMultiplier:1.2
SliderTickRate:1

[Events]
//Background and Video events
0,0,"lil.jpeg",0,0
//Break Periods
2,95274,96831
//Storyboard Layer 0 (Background)
//Storyboard Layer 1 (Fail)
//Storyboard Layer 2 (Pass)
//Storyboard Layer 3 (Foreground)
//Storyboard Layer 4 (Overlay)
//Storyboard Sound Samples

[TimingPoints]
426,422.535211267606,4,2,1,60,1,0
12891,-100,4,2,1,60,0,0
13947,-100,4,2,1,60,0,0
27468,-100,4,2,1,80,0,1
38031,-100,4,2,1,80,0,1
39299,-105.263157894737,4,2,1,70,0,0
54510,-105.263157894737,4,2,1,75,0,0
68031,-100,4,2,1,85,0,1
81341,-100,4,2,1,85,0,0
81553,-100,4,2,1,85,0,1
95073,-105.263157894737,4,2,1,70,0,0
108595,-105.263157894737,4,2,1,75,0,0
135637,-100,4,2,1,90,0,1
148947,-100,4,2,1,90,0,0
149158,-100,4,2,1,90,0,1
159722,-100,4,2,1,70,0,1
160884,-100,4,2,1,5,0,1
160989,-100,4,2,1,5,0,0
162679,-100,4,2,1,75,0,0

[Colours]
Combo1 : 123,142,172
Combo2 : 182,169,154
Combo3 : 202,166,98
Combo4 : 158,129,160

[HitObjects]
30,202,13947,6,0,L|165:184,1,120,2|2,0:0|0:0,0:0:0:0:
235,102,14792,1,2,0:0:0:0:
235,102,15003,2,0,L|370:120,1,120,2|2,0:0|0:0,0:0:0:0:
450,46,15848,1,2,0:0:0:0:
494,220,16482,2,0,P|497:260|486:288,2,60,2|2|2,0:0|0:0|0:0,0:0:0:0:
444,185,17116,1,2,0:0:0:0:
444,185,17327,6,0,P|379:186|330:234,1,120,2|2,0:0|0:0,0:0:0:0:
289,331,18172,1,2,0:0:0:0:
289,331,18384,1,2,0:0:0:0:
192,260,18806,2,0,P|133:258|86:294,1,120,2|2,0:0|0:0,0:0:0:0:
33,186,19651,1,2,0:0:0:0:
33,186,19862,2,0,L|46:53,1,120,2|2,0:0|0:0,0:0:0:0:
154,17,20707,5,2,0:0:0:0:
326,183,21553,2,0,P|386:205|450:170,1,120,2|2,0:0|0:0,0:0:0:0:
477,143,22186,1,2,0:0:0:0:
477,143,22398,2,0,L|492:12,1,120,2|0,0:0|0:0,0:0:0:0:
433,4,23031,1,2,0:0:0:0:
433,4,23243,1,2,0:0:0:0:
329,64,23665,2,0,P|269:86|195:62,1,120,2|0,0:0|0:0,0:0:0:0:
110,16,24510,6,0,B|47:103|129:190|148:169|242:234|160:361,1,360,2|0,0:0|0:0,0:0:0:0:
272,189,26412,1,2,0:0:0:0:
272,189,26623,2,0,P|331:150|389:171,1,120,2|2,0:0|0:0,0:0:0:0:
484,209,27468,6,0,P|470:259|467:331,1,120,6|2,1:2|1:2,0:0:0:0:
353,356,28313,1,2,1:2:0:0:
353,356,28524,2,0,P|299:330|283:328,1,60,2|0,0:0|1:2,0:0:0:0:
242,309,28947,2,0,P|195:329|127:335,1,120,2|2,0:0|0:0,0:0:0:0:
17,192,30003,2,0,P|-1:152|1:123,2,60,2|2|2,1:2|0:0|1:2,0:0:0:0:
75,205,30637,1,2,0:0:0:0:
75,205,30848,6,0,P|121:184|189:178,1,120,2|2,1:2|1:2,0:0:0:0:
300,237,31693,1,2,1:2:0:0:
300,237,31905,1,2,0:0:0:0:
347,127,32327,2,0,P|402:103|461:99,1,120,2|2,0:0|0:0,0:0:0:0:
511,214,33172,1,2,0:0:0:0:
511,214,33384,1,2,1:2:0:0:
473,327,33806,1,2,1:2:0:0:
357,293,34229,5,2,1:2:0:0:
198,112,35074,1,2,1:2:0:0:
82,78,35497,1,2,1:2:0:0:
44,191,35919,2,0,P|83:237|99:315,1,120,2|0,1:2|1:2,0:0:0:0:
139,337,36553,1,2,0:0:0:0:
139,337,36764,1,2,1:2:0:0:
232,261,37186,2,0,L|367:239,1,120,2|0,1:2|1:2,0:0:0:0:
470,241,38031,6,0,P|500:203|312:112,1,360,2|0,1:2|0:0,0:0:0:0:
318,100,40989,6,0,L|199:119,1,113.999996955872,0|2,1:2|0:0,0:0:0:0:
158,96,41623,1,2,0:0:0:0:
158,96,41834,1,10,0:2:0:0:
49,131,42257,1,2,0:0:0:0:
34,243,42679,2,0,P|36:303|98:344,1,113.999996955872,2|2,0:0|0:0,0:0:0:0:
187,343,43524,1,2,1:2:0:0:
265,255,43947,2,0,P|293:244|327:240,1,56.9999984779358,10|2,0:0|1:2,0:0:0:0:
363,203,44369,6,0,P|409:221|477:211,1,113.999996955872,2|2,1:2|0:0,0:0:0:0:
512,173,45003,1,2,0:0:0:0:
512,173,45214,1,10,0:0:0:0:
475,65,45637,1,2,1:2:0:0:
364,35,46060,2,0,P|308:26|255:45,1,113.999996955872,2|2,0:0|0:0,0:0:0:0:
188,138,46905,2,0,L|197:213,2,56.9999984779358,10|0|2,0:0|0:0|1:2,0:0:0:0:
152,93,47538,1,2,0:0:0:0:
152,93,47750,1,0,1:2:0:0:
48,139,48172,6,0,L|64:274,1,113.999996955872,2|10,0:0|0:2,0:0:0:0:
164,301,49017,1,2,0:0:0:0:
228,206,49440,2,0,P|273:180|343:184,1,113.999996955872,2|2,0:0|0:0,0:0:0:0:
434,234,50285,1,2,1:2:0:0:
413,346,50707,2,0,L|348:360,1,56.9999984779358,10|2,0:0|1:2,0:0:0:0:
300,349,51130,6,0,P|255:323|185:327,1,113.999996955872,2|2,1:2|0:0,0:0:0:0:
148,355,51764,1,2,0:0:0:0:
148,355,51975,1,10,0:0:0:0:
50,294,52398,1,2,1:2:0:0:
117,202,52820,2,0,L|97:62,1,113.999996955872,2|2,0:0|0:0,0:0:0:0:
204,38,53665,1,10,0:0:0:0:
204,38,53877,2,0,P|246:42|269:54,1,56.9999984779358,2|2,0:0|1:2,0:0:0:0:
309,74,54299,1,0,0:0:0:0:
309,74,54510,6,0,P|379:68|412:43,1,113.999996955872,2|0,1:2|0:0,0:0:0:0:
499,116,55355,2,0,L|484:246,1,113.999996955872,8|0,0:2|0:0,0:0:0:0:
469,284,55989,1,2,0:0:0:0:
469,284,56200,1,2,0:0:0:0:
366,232,56623,1,2,0:0:0:0:
301,326,57046,1,2,1:2:0:0:
192,362,57468,2,0,L|111:365,1,56.9999984779358,10|2,0:0|1:2,0:0:0:0:
80,347,57891,6,0,P|53:306|65:238,1,113.999996955872,2|0,1:2|0:0,0:0:0:0:
155,179,58736,2,0,P|182:138|170:70,1,113.999996955872,8|0,0:0|1:2,0:0:0:0:
133,36,59369,1,2,0:0:0:0:
133,36,59581,1,2,0:0:0:0:
47,111,60003,1,2,0:0:0:0:
56,224,60426,2,0,L|44:293,2,56.9999984779358,10|2|2,0:0|3:2|1:2,0:0:0:0:
103,192,61060,1,2,0:0:0:0:
103,192,61271,6,0,P|157:182|205:210,1,113.999996955872,2|0,1:2|0:0,0:0:0:0:
291,286,62116,2,0,P|345:295|393:267,1,113.999996955872,8|0,0:2|0:0,0:0:0:0:
439,232,62750,1,2,0:0:0:0:
439,232,62961,1,2,0:0:0:0:
506,139,63384,1,2,0:0:0:0:
415,69,63806,1,2,1:2:0:0:
340,155,64229,2,0,P|302:168|278:163,1,56.9999984779358,10|2,0:0|1:2,0:0:0:0:
237,136,64651,6,0,L|221:12,1,113.999996955872,2|0,1:2|0:0,0:0:0:0:
108,21,65496,2,0,L|122:134,1,113.999996955872,10|2,0:0|1:2,0:0:0:0:
71,236,66341,1,2,0:0:0:0:
71,236,68031,6,0,P|128:255|193:219,1,120,6|2,1:2|1:2,0:0:0:0:
263,145,68876,1,2,1:2:0:0:
263,145,69087,2,0,L|250:73,1,60,2|0,0:0|1:2,0:0:0:0:
275,30,69510,2,0,P|332:11|397:47,1,120,2|2,0:0|0:0,0:0:0:0:
456,198,70567,2,0,P|485:194|511:179,2,60,2|2|2,1:2|0:0|1:2,0:0:0:0:
422,248,71200,1,2,0:0:0:0:
422,248,71412,6,0,L|300:265,1,120,2|2,1:2|1:2,0:0:0:0:
193,305,72256,1,2,1:2:0:0:
193,305,72468,1,2,0:0:0:0:
119,210,72891,2,0,L|102:88,1,120,2|2,0:0|0:0,0:0:0:0:
194,14,73735,1,2,0:0:0:0:
194,14,73947,1,2,1:2:0:0:
272,104,74369,1,2,1:2:0:0:
384,61,74792,5,2,1:2:0:0:
464,286,75637,1,2,1:2:0:0:
351,244,76060,1,2,1:2:0:0:
262,324,76482,2,0,P|206:354|134:340,1,120,2|0,1:2|1:2,0:0:0:0:
108,315,77116,1,2,0:0:0:0:
108,315,77327,1,2,1:2:0:0:
82,197,77749,2,0,L|62:78,1,120,2|0,1:2|1:2,0:0:0:0:
172,28,78595,6,0,B|283:-3|344:83|344:83|264:151|305:249,1,360,2|0,1:2|1:2,0:0:0:0:
162,348,80496,1,2,0:0:0:0:
162,348,80707,2,0,P|99:314|97:259,1,120,2|2,1:2|1:2,0:0:0:0:
108,212,81341,1,2,3:2:0:0:
108,212,81553,6,0,L|231:197,1,120,6|2,1:2|1:2,0:0:0:0:
347,170,82398,1,2,1:2:0:0:
347,170,82609,2,0,P|350:129|334:98,1,60,2|0,0:0|1:2,0:0:0:0:
309,62,83031,2,0,L|189:47,1,120,2|2,0:0|0:0,0:0:0:0:
30,66,84087,2,0,P|15:40|12:11,2,60,2|2|2,1:2|0:0|1:2,0:0:0:0:
81,107,84722,1,2,3:2:0:0:
81,107,84933,6,0,P|91:171|64:229,1,120,2|2,1:2|1:2,0:0:0:0:
158,310,85778,1,2,1:2:0:0:
158,310,85990,1,2,0:0:0:0:
253,237,86412,2,0,P|243:173|270:115,1,120,2|2,0:0|0:0,0:0:0:0:
368,62,87257,1,2,0:0:0:0:
368,62,87469,1,2,1:2:0:0:
433,162,87891,1,2,1:2:0:0:
419,281,88314,5,2,1:2:0:0:
183,236,89158,1,2,1:2:0:0:
107,329,89580,1,2,1:2:0:0:
24,241,90004,2,0,P|-6:185|7:113,1,120,2|0,1:2|1:2,0:0:0:0:
45,91,90638,1,2,0:0:0:0:
45,91,90849,1,2,1:2:0:0:
164,94,91271,2,0,P|235:91|282:74,1,120,2|0,1:2|1:2,0:0:0:0:
393,34,92116,6,0,P|467:78|321:223,2,360,2|0|0,1:2|1:2|1:2,0:0:0:0:
310,113,95074,1,0,0:0:0:0:
310,113,98031,6,0,L|230:98,1,56.9999984779358
196,108,98454,2,0,P|173:147|174:223,1,113.999996955872,0|2,1:2|0:0,0:0:0:0:
225,314,99299,2,0,L|344:291,1,113.999996955872,10|2,0:0|1:2,0:0:0:0:
446,324,100144,1,2,0:0:0:0:
476,214,100567,1,2,0:0:0:0:
450,103,100989,2,0,P|438:67|447:28,2,56.9999984779358,10|0|2,0:0|0:0|1:2,0:0:0:0:
405,138,101623,1,0,0:0:0:0:
405,138,101834,6,0,L|286:115,1,113.999996955872,0|2,1:2|0:0,0:0:0:0:
199,50,102679,1,10,0:2:0:0:
92,91,103102,1,2,0:0:0:0:
173,170,103524,2,0,P|182:228|149:283,1,113.999996955872,2|2,0:0|0:0,0:0:0:0:
124,317,104158,1,2,0:0:0:0:
124,317,104369,1,2,1:2:0:0:
230,358,104792,2,0,L|300:347,1,56.9999984779358,10|0,0:0|1:2,0:0:0:0:
334,318,105215,6,0,P|357:279|356:203,1,113.999996955872,0|2,1:2|0:0,0:0:0:0:
271,138,106060,2,0,P|269:81|295:31,1,113.999996955872,10|2,0:0|1:2,0:0:0:0:
408,16,106905,1,2,0:0:0:0:
408,16,108172,2,0,L|469:27,1,56.9999984779358,2|2,1:2|1:2,0:0:0:0:
488,77,108595,6,0,P|494:125|464:184,1,113.999996955872,2|2,1:2|0:0,0:0:0:0:
418,212,109229,1,2,0:0:0:0:
418,212,109440,1,10,0:2:0:0:
314,259,109862,2,0,L|184:275,1,113.999996955872,2|2,0:0|0:0,0:0:0:0:
150,246,110496,1,0,0:0:0:0:
150,246,110707,1,2,0:0:0:0:
222,157,111130,1,2,1:2:0:0:
162,59,111553,2,0,P|115:55|96:64,1,56.9999984779358,10|2,0:0|1:2,0:0:0:0:
64,96,111975,6,0,P|49:162|48:223,1,113.999996955872,2|2,1:2|0:0,0:0:0:0:
77,263,112609,1,2,0:0:0:0:
77,263,112820,1,10,0:0:0:0:
174,322,113242,2,0,P|227:320|304:338,1,113.999996955872,2|2,1:2|0:0,0:0:0:0:
342,360,113876,1,0,0:0:0:0:
342,360,114087,1,2,0:0:0:0:
431,289,114510,2,0,P|464:297|506:298,2,56.9999984779358,10|2|2,0:0|0:0|1:2,0:0:0:0:
392,255,115144,1,0,0:0:0:0:
392,255,115356,5,2,1:2:0:0:
447,155,115778,1,2,0:0:0:0:
373,67,116200,2,0,P|326:55|263:98,1,113.999996955872,10|2,0:2|0:0,0:0:0:0:
226,118,116834,1,0,0:0:0:0:
226,118,117046,2,0,P|167:125|105:120,1,113.999996955872,2|2,0:0|0:0,0:0:0:0:
14,179,117891,1,2,1:2:0:0:
76,274,118313,2,0,P|110:274|141:260,1,56.9999984779358,10|0,0:0|1:2,0:0:0:0:
187,277,118736,6,0,P|243:275|292:302,1,113.999996955872,2|2,1:2|0:0,0:0:0:0:
323,357,119370,1,2,0:0:0:0:
323,357,119581,1,10,0:0:0:0:
414,288,120004,1,2,1:2:0:0:
373,181,120426,2,0,L|353:41,1,113.999996955872,2|2,0:0|0:0,0:0:0:0:
356,68,122116,6,0,P|309:49|243:66,1,113.999996955872,2|0,1:2|0:0,0:0:0:0:
197,164,122961,2,0,P|150:183|84:166,1,113.999996955872,8|0,0:2|0:0,0:0:0:0:
56,130,123595,1,2,0:0:0:0:
56,130,123806,1,2,0:0:0:0:
15,236,124229,1,2,0:0:0:0:
115,289,124652,1,2,1:2:0:0:
225,262,125074,2,0,P|261:257|306:265,1,56.9999984779358,10|2,0:0|1:2,0:0:0:0:
325,295,125497,6,0,P|366:322|434:310,1,113.999996955872,2|0,1:2|0:0,0:0:0:0:
480,212,126341,2,0,L|459:86,1,113.999996955872,8|0,0:0|1:2,0:0:0:0:
449,48,126975,1,2,0:0:0:0:
449,48,127187,1,2,0:0:0:0:
336,28,127609,1,2,0:0:0:0:
233,79,128032,2,0,P|200:78|164:67,2,56.9999984779358,10|2|2,0:0|0:0|1:2,0:0:0:0:
268,123,128666,1,2,0:0:0:0:
268,123,128877,6,0,L|286:235,1,113.999996955872,2|0,1:2|0:0,0:0:0:0:
237,338,129722,2,0,P|189:366|134:358,1,113.999996955872,8|0,0:2|0:0,0:0:0:0:
84,342,130356,1,2,0:0:0:0:
84,342,130567,1,2,0:0:0:0:
10,254,130990,1,2,0:0:0:0:
98,182,131412,1,2,1:2:0:0:
25,93,131835,2,0,P|12:55|17:31,1,56.9999984779358,10|2,0:0|1:2,0:0:0:0:
66,16,132257,6,0,P|122:17|190:32,1,113.999996955872,2|0,1:2|0:0,0:0:0:0:
254,113,133102,2,0,P|310:112|378:97,1,113.999996955872,10|2,0:0|1:2,0:0:0:0:
471,56,133947,1,2,0:0:0:0:
471,56,135637,6,0,L|456:201,1,120,6|2,1:2|1:2,0:0:0:0:
460,299,136482,1,2,1:2:0:0:
460,299,136693,2,0,P|401:315|382:307,1,60,2|0,0:0|1:2,0:0:0:0:
350,288,137116,2,0,P|295:265|240:284,1,120,2|2,0:0|0:0,0:0:0:0:
71,349,138173,2,0,L|5:333,2,60,2|2|2,1:2|0:0|1:2,0:0:0:0:
130,330,138806,1,2,3:2:0:0:
130,330,139017,6,0,P|137:271|104:222,1,120,2|2,1:2|1:2,0:0:0:0:
8,160,139862,1,2,1:2:0:0:
8,160,140074,1,2,0:0:0:0:
116,109,140496,2,0,P|148:60|141:1,1,120,2|2,0:0|0:0,0:0:0:0:
261,4,141341,1,2,0:0:0:0:
261,4,141553,1,2,1:2:0:0:
278,122,141975,1,2,1:2:0:0:
394,94,142398,5,2,1:2:0:0:
474,319,143243,1,2,1:2:0:0:
372,255,143666,1,2,1:2:0:0:
294,346,144088,2,0,L|168:367,1,120,2|0,1:2|1:2,0:0:0:0:
121,356,144722,1,2,0:0:0:0:
121,356,144933,1,2,1:2:0:0:
27,290,145355,1,2,1:2:0:0:
27,290,145567,2,0,P|10:263|11:235,1,60,0|0,3:0|1:2,0:0:0:0:
72,133,146200,6,0,B|174:68|242:193|221:194|291:285|386:222,1,360,2|0,1:2|1:2,0:0:0:0:
471,72,148102,1,2,0:0:0:0:
471,72,148313,2,0,L|458:0,2,60,2|2|2,1:2|0:0|1:2,0:0:0:0:
442,126,148947,1,2,3:2:0:0:
442,126,149158,6,0,P|387:144|317:122,1,120,6|2,1:2|1:2,0:0:0:0:
234,63,150003,1,2,1:2:0:0:
234,63,150214,2,0,P|175:47|156:55,1,60,2|0,0:0|1:2,0:0:0:0:
124,72,150637,2,0,L|145:206,1,120,2|2,0:0|0:0,0:0:0:0:
88,362,151694,2,0,P|51:363|22:346,2,60,2|2|2,1:2|0:0|1:2,0:0:0:0:
141,334,152327,1,2,3:2:0:0:
141,334,152538,6,0,P|204:340|253:373,1,120,2|2,1:2|1:2,0:0:0:0:
324,277,153383,1,2,1:2:0:0:
324,277,153595,1,2,0:0:0:0:
443,280,154017,2,0,P|444:220|473:168,1,120,2|2,0:0|0:0,0:0:0:0:
415,69,154862,1,2,0:0:0:0:
415,69,155074,1,2,1:2:0:0:
301,106,155496,1,2,1:2:0:0:
228,10,155919,5,2,1:2:0:0:
23,134,156764,1,2,1:2:0:0:
119,205,157187,1,2,1:2:0:0:
108,324,157609,2,0,P|164:348|234:345,1,120,2|0,1:2|1:2,0:0:0:0:
285,338,158243,1,2,0:0:0:0:
285,338,158454,1,2,1:2:0:0:
408,349,158876,1,2,1:2:0:0:
408,349,159088,2,0,L|414:271,1,60,0|0,3:2|1:2,0:0:0:0:
485,193,159722,6,0,B|516:82|430:21|430:21|362:101|264:60,1,360,2|0,1:2|0:0,0:0:0:0:
281,66,162679,6,0,P|212:65|158:106,1,120,4|0,1:2|0:0,0:0:0:0:
80,170,163524,1,8,0:2:0:0:
220,364,164369,2,0,P|326:334|444:263,1,240,2|0,0:0|1:2,0:0:0:0:
432,148,165637,2,0,P|420:109|428:84,1,60,10|2,0:0|1:2,0:0:0:0:
389,42,166060,6,0,P|348:21|269:49,1,120,0|0,1:2|0:0,0:0:0:0:
200,129,166905,1,8,0:0:0:0:
92,75,167327,2,0,P|47:168|69:321,1,240,0|0,1:2|0:0,0:0:0:0:
173,338,168595,1,10,0:0:0:0:
235,235,169017,1,2,1:2:0:0:
343,286,169440,6,0,L|464:312,1,120,0|2,1:2|0:0,0:0:0:0:
507,200,170285,1,8,0:2:0:0:
335,32,171130,2,0,P|282:29|239:179,1,240,2|0,0:0|1:2,0:0:0:0:
201,291,172398,2,0,P|160:306|129:306,1,60,10|2,0:0|1:2,0:0:0:0:
86,289,172820,6,0,L|63:156,1,120,0|0,1:2|0:0,0:0:0:0:
91,53,173665,1,8,0:0:0:0:
211,52,174088,1,0,1:2:0:0:
261,160,174510,2,0,P|327:159|369:100,1,120
438,30,175355,1,10,0:0:0:0:
512,123,175778,2,0,P|508:167|501:196,2,60,2|2|2,1:2|0:0|0:2,0:0:0:0:
