osu file format v14

[General]
AudioFilename: audio.mp3
AudioLeadIn: 0
PreviewTime: 103367
Countdown: 0
SampleSet: Normal
StackLeniency: 0.4
Mode: 1
LetterboxInBreaks: 0
WidescreenStoryboard: 1

[Editor]
DistanceSpacing: 1
BeatDivisor: 4
GridSize: 32
TimelineZoom: 2.899999

[Metadata]
Title:MONTERO (Call Me By Your Name)
TitleUnicode:MONTERO (Call Me By Your Name)
Artist:Lil Nas X
ArtistUnicode:Lil Nas X
Creator:Skull Kid
Version:Kantan
Source:
Tags:Hivie Capu Genjuro english rap hip hop hip-hop hiphop cmbyn pop gay lgbt lgbtq pride satan devil lamar hill
BeatmapID:3607736
BeatmapSetID:1762601

[Difficulty]
HPDrainRate:8
CircleSize:4
OverallDifficulty:3
ApproachRate:9
SliderMultiplier:1.4
SliderTickRate:1

[Events]
//Background and Video events
0,0,"lucille-lil-nas-x-montero.jpg",0,30
//Break Periods
//Storyboard Layer 0 (Background)
//Storyboard Layer 1 (Fail)
//Storyboard Layer 2 (Pass)
//Storyboard Layer 3 (Foreground)
//Storyboard Layer 4 (Overlay)
//Storyboard Sound Samples

[TimingPoints]
6915,670.391061452514,4,1,0,40,1,0
6915,-125,4,1,0,40,0,0
17641,-83.3333333333333,4,1,0,40,0,0
27697,-90.9090909090909,4,1,0,40,0,0
28367,-100,4,1,0,40,0,0
39093,-71.4285714285714,4,1,0,40,0,0
60546,-100,4,1,0,40,0,0
70266,-95.2380952380952,4,1,0,40,0,0
70602,-90.9090909090909,4,1,0,40,0,0
71272,-83.3333333333333,4,1,0,40,0,0
90043,-83.3333333333333,4,1,0,5,0,0
92557,-100,4,1,0,40,0,0
103451,-71.4285714285714,4,1,0,40,0,0
114177,-71.4285714285714,4,1,0,40,0,1
124903,-71.4285714285714,4,1,0,40,0,0
125239,-83.3333333333333,4,1,0,40,0,0

[Colours]
Combo1 : 82,77,108
Combo2 : 217,79,79
Combo3 : 148,50,74

[HitObjects]
256,192,6915,5,0,0:0:0:0:
256,192,8255,1,8,0:0:0:0:
256,192,9596,1,0,0:0:0:0:
256,192,10937,1,8,0:0:0:0:
256,192,12278,1,0,0:0:0:0:
256,192,13618,1,8,0:0:0:0:
256,192,14959,1,0,0:0:0:0:
256,192,16300,1,8,0:0:0:0:
256,192,17641,1,0,0:0:0:0:
256,192,18311,1,8,0:0:0:0:
256,192,18982,1,0,0:0:0:0:
256,192,20322,1,0,0:0:0:0:
256,192,20993,1,8,0:0:0:0:
256,192,21328,1,8,0:0:0:0:
256,192,21663,1,0,0:0:0:0:
256,192,23004,1,0,0:0:0:0:
256,192,23674,1,8,0:0:0:0:
256,192,24345,1,0,0:0:0:0:
256,192,25685,1,0,0:0:0:0:
256,192,26356,1,8,0:0:0:0:
256,192,26691,1,0,0:0:0:0:
256,192,27026,1,0,0:0:0:0:
256,192,27697,1,8,0:0:0:0:
256,192,28367,1,0,0:0:0:0:
256,192,29037,1,8,0:0:0:0:
256,192,29708,1,8,0:0:0:0:
256,192,30043,1,8,0:0:0:0:
256,192,30378,1,0,0:0:0:0:
256,192,31049,1,0,0:0:0:0:
256,192,31719,1,8,0:0:0:0:
256,192,32389,1,0,0:0:0:0:
256,192,33730,1,0,0:0:0:0:
256,192,34401,1,8,0:0:0:0:
256,192,35071,1,8,0:0:0:0:
256,192,35406,1,8,0:0:0:0:
256,192,35741,1,0,0:0:0:0:
256,192,36412,1,0,0:0:0:0:
256,192,37082,1,8,0:0:0:0:
256,192,39093,1,12,0:0:0:0:
256,192,39764,1,0,0:0:0:0:
256,192,40099,1,0,0:0:0:0:
256,192,40434,1,8,0:0:0:0:
256,192,41104,1,0,0:0:0:0:
256,192,41775,1,8,0:0:0:0:
256,192,42110,1,0,0:0:0:0:
256,192,42445,1,8,0:0:0:0:
256,192,42780,1,8,0:0:0:0:
256,192,43116,1,0,0:0:0:0:
256,192,44456,1,12,0:0:0:0:
256,192,45127,1,0,0:0:0:0:
256,192,45462,1,0,0:0:0:0:
256,192,45797,1,8,0:0:0:0:
256,192,46468,1,0,0:0:0:0:
256,192,47138,1,8,0:0:0:0:
256,192,47473,1,0,0:0:0:0:
256,192,47808,1,8,0:0:0:0:
256,192,48144,1,8,0:0:0:0:
256,192,48479,1,0,0:0:0:0:
256,192,49820,1,12,0:0:0:0:
256,192,50322,1,0,0:0:0:0:
256,192,50825,1,8,0:0:0:0:
256,192,51328,1,0,0:0:0:0:
256,192,51831,1,8,0:0:0:0:
256,192,52501,1,0,0:0:0:0:
256,192,53171,1,8,0:0:0:0:
256,192,53507,1,8,0:0:0:0:
256,192,53842,1,0,0:0:0:0:
256,192,55183,1,12,0:0:0:0:
256,192,55685,1,0,0:0:0:0:
256,192,56188,1,8,0:0:0:0:
256,192,56691,1,0,0:0:0:0:
256,192,57194,1,8,0:0:0:0:
256,192,57864,1,0,0:0:0:0:
256,192,58535,1,8,0:0:0:0:
256,192,58870,1,8,0:0:0:0:
256,192,59205,1,0,0:0:0:0:
256,192,60546,1,4,0:0:0:0:
256,192,61887,1,8,0:0:0:0:
256,192,63227,1,0,0:0:0:0:
256,192,63898,1,8,0:0:0:0:
256,192,64568,1,8,0:0:0:0:
256,192,65909,1,0,0:0:0:0:
256,192,66579,1,8,0:0:0:0:
256,192,67250,1,0,0:0:0:0:
256,192,68590,1,8,0:0:0:0:
256,192,69261,1,0,0:0:0:0:
256,192,69931,1,8,0:0:0:0:
256,192,70266,1,8,0:0:0:0:
256,192,70602,1,8,0:0:0:0:
256,192,71272,1,4,0:0:0:0:
256,192,71775,1,8,0:0:0:0:
256,192,72278,1,0,0:0:0:0:
256,192,73283,1,8,0:0:0:0:
256,192,73954,1,0,0:0:0:0:
256,192,74289,1,0,0:0:0:0:
256,192,74624,1,0,0:0:0:0:
256,192,75294,1,8,0:0:0:0:
256,192,75965,1,0,0:0:0:0:
256,192,76635,1,8,0:0:0:0:
256,192,76970,1,8,0:0:0:0:
256,192,77306,1,8,0:0:0:0:
256,192,77976,1,0,0:0:0:0:
256,192,78646,1,8,0:0:0:0:
256,192,79317,1,0,0:0:0:0:
256,192,79652,1,0,0:0:0:0:
256,192,79987,1,0,0:0:0:0:
256,192,80658,1,8,0:0:0:0:
256,192,81328,1,0,0:0:0:0:
256,192,81998,1,8,0:0:0:0:
256,192,82333,1,8,0:0:0:0:
256,192,83339,1,0,0:0:0:0:
256,192,84009,1,8,0:0:0:0:
256,192,84680,1,0,0:0:0:0:
256,192,85015,1,8,0:0:0:0:
256,192,86021,1,8,0:0:0:0:
256,192,86691,1,0,0:0:0:0:
256,192,87361,1,8,0:0:0:0:
256,192,87697,1,8,0:0:0:0:
256,192,88702,1,0,0:0:0:0:
256,192,89373,1,8,0:0:0:0:
256,192,91049,12,0,92389,0:0:0:0:
256,192,92725,5,0,0:0:0:0:
256,192,93395,1,8,0:0:0:0:
256,192,94065,1,8,0:0:0:0:
256,192,94401,1,8,0:0:0:0:
256,192,94736,1,0,0:0:0:0:
256,192,95406,1,0,0:0:0:0:
256,192,96077,1,8,0:0:0:0:
256,192,96747,1,0,0:0:0:0:
256,192,98088,1,0,0:0:0:0:
256,192,98758,1,8,0:0:0:0:
256,192,99428,1,8,0:0:0:0:
256,192,99764,1,8,0:0:0:0:
256,192,100099,1,0,0:0:0:0:
256,192,100769,1,0,0:0:0:0:
256,192,101440,1,8,0:0:0:0:
256,192,103451,1,12,0:0:0:0:
256,192,104121,1,0,0:0:0:0:
256,192,104456,1,0,0:0:0:0:
256,192,104792,1,8,0:0:0:0:
256,192,105462,1,0,0:0:0:0:
256,192,106132,1,8,0:0:0:0:
256,192,106468,1,0,0:0:0:0:
256,192,106803,1,8,0:0:0:0:
256,192,107138,1,8,0:0:0:0:
256,192,107473,1,0,0:0:0:0:
256,192,108814,1,12,0:0:0:0:
256,192,109484,1,0,0:0:0:0:
256,192,109820,1,0,0:0:0:0:
256,192,110155,1,8,0:0:0:0:
256,192,110825,1,0,0:0:0:0:
256,192,111496,1,8,0:0:0:0:
256,192,111831,1,0,0:0:0:0:
256,192,112166,1,8,0:0:0:0:
256,192,112501,1,8,0:0:0:0:
256,192,114177,1,12,0:0:0:0:
256,192,114680,1,4,0:0:0:0:
256,192,115183,1,12,0:0:0:0:
256,192,115685,1,4,0:0:0:0:
256,192,116188,1,12,0:0:0:0:
256,192,116859,1,0,0:0:0:0:
256,192,117529,1,8,0:0:0:0:
256,192,117864,1,8,0:0:0:0:
256,192,118199,1,8,0:0:0:0:
256,192,118870,1,0,0:0:0:0:
256,192,119540,1,12,0:0:0:0:
256,192,120043,1,4,0:0:0:0:
256,192,120546,1,12,0:0:0:0:
256,192,121049,1,4,0:0:0:0:
256,192,121551,1,12,0:0:0:0:
256,192,122222,1,0,0:0:0:0:
256,192,122892,1,8,0:0:0:0:
256,192,123227,1,8,0:0:0:0:
256,192,123563,1,8,0:0:0:0:
256,192,124233,1,8,0:0:0:0:
256,192,124903,1,4,0:0:0:0:
256,192,125909,1,0,0:0:0:0:
256,192,126244,1,8,0:0:0:0:
256,192,126915,1,0,0:0:0:0:
256,192,127585,1,8,0:0:0:0:
256,192,128590,1,8,0:0:0:0:
256,192,128926,1,0,0:0:0:0:
256,192,129428,1,8,0:0:0:0:
256,192,129931,1,8,0:0:0:0:
256,192,130266,1,0,0:0:0:0:
256,192,130769,1,8,0:0:0:0:
256,192,131272,1,0,0:0:0:0:
256,192,131607,1,0,0:0:0:0:
256,192,132613,1,8,0:0:0:0:
256,192,132948,1,0,0:0:0:0:
256,192,133451,1,8,0:0:0:0:
256,192,133954,1,0,0:0:0:0:
256,192,134289,1,0,0:0:0:0:
256,192,134792,1,8,0:0:0:0:
256,192,135294,1,8,0:0:0:0:
