osu file format v14

[General]
AudioFilename: audio.mp3
AudioLeadIn: 0
PreviewTime: 103368
Countdown: 0
SampleSet: Soft
StackLeniency: 0.3
Mode: 0
LetterboxInBreaks: 0
WidescreenStoryboard: 1

[Editor]
DistanceSpacing: 1.1
BeatDivisor: 8
GridSize: 8
TimelineZoom: 4.299998

[Metadata]
Title:MONTERO (Call Me By Your Name)
TitleUnicode:MONTERO (Call Me By Your Name)
Artist:Lil Nas X
ArtistUnicode:Lil Nas X
Creator:Aranel
Version:FURSUM'S INSANE
Source:
Tags:pop english hip hop hiphop male vocals vocalist xandit xandeez nuts [poke] fursum -kemsyt aistre venax alphabet altai gay lgbt pride
BeatmapID:3245112
BeatmapSetID:1533112

[Difficulty]
HPDrainRate:5
CircleSize:4
OverallDifficulty:8
ApproachRate:9
SliderMultiplier:2
SliderTickRate:1

[Events]
//Background and Video events
0,0,"no.jpg",0,0
//Break Periods
//Storyboard Layer 0 (Background)
//Storyboard Layer 1 (Fail)
//Storyboard Layer 2 (Pass)
//Storyboard Layer 3 (Foreground)
//Storyboard Layer 4 (Overlay)
//Storyboard Sound Samples

[TimingPoints]
1553,670.391061452514,4,2,1,15,1,0
6915,-100,4,2,1,40,0,0
16636,-100,4,2,1,30,0,0
17642,-100,4,2,1,55,0,0
18144,-66.6666666666667,4,2,1,55,0,0
19485,-83.3333333333333,4,2,1,55,0,0
20826,-66.6666666666667,4,2,1,55,0,0
21664,-83.3333333333333,4,2,1,55,0,0
23508,-66.6666666666667,4,2,1,55,0,0
28368,-66.6666666666667,4,2,1,45,0,0
29038,-125,4,2,1,45,0,0
37753,-125,4,2,1,30,0,0
39094,-50,4,2,1,60,0,0
43787,-66.6666666666667,4,2,1,60,0,0
44457,-50,4,2,1,60,0,0
49485,-66.6666666666667,4,2,1,60,0,0
49820,-33.3333333333333,4,2,1,80,0,0
51329,-50,4,2,1,80,0,0
52502,-33.3333333333333,4,2,1,80,0,0
54346,-66.6666666666667,4,2,1,80,0,0
55184,-33.3333333333333,4,2,1,80,0,0
56692,-50,4,2,1,80,0,0
57865,-33.3333333333333,4,2,1,80,0,0
59206,-50,4,2,1,80,0,0
60212,-33.3333333333333,4,2,1,80,0,0
60547,-83.3333333333333,4,2,1,45,0,0
63228,-50,4,2,1,45,0,0
63396,-66.6666666666667,4,2,1,45,0,0
65239,-100,4,2,1,45,0,0
65910,-33.3333333333333,4,2,1,45,0,0
66077,-55.5555555555556,4,2,1,45,0,0
67921,-66.6666666666667,4,2,1,45,0,0
71273,-41.6666666666667,4,2,1,55,0,0
72279,-50,4,2,1,55,0,0
72614,-66.6666666666667,4,2,1,55,0,0
73955,-45.4545454545455,4,2,1,55,0,0
75295,-55.5555555555556,4,2,1,55,0,0
76636,-45.4545454545455,4,2,1,55,0,0
77642,-66.6666666666667,4,2,1,55,0,0
79318,-50,4,2,1,55,0,0
79988,-66.6666666666667,4,2,1,55,0,0
82502,-40,4,2,1,55,0,0
83508,-66.6666666666667,4,2,1,55,0,0
84681,-50,4,2,1,55,0,0
88871,-66.6666666666667,4,2,1,55,0,0
90044,-133.333333333333,4,2,1,30,0,0
90379,-125,4,2,1,30,0,0
91049,-83.3333333333333,4,2,1,30,0,0
92725,-83.3333333333333,4,2,1,50,0,0
102111,-125,4,2,1,30,0,0
103452,-50,4,2,1,60,0,0
108145,-66.6666666666667,4,2,1,60,0,0
108815,-50,4,2,1,60,0,0
112837,-66.6666666666667,4,2,1,60,0,0
113508,-50,4,2,1,60,0,0
114178,-33.3333333333333,4,2,1,80,0,0
114681,-40,4,2,1,80,0,0
115184,-40,4,2,1,80,0,0
115686,-50,4,2,1,80,0,0
116860,-33.3333333333333,4,2,1,80,0,0
117530,-40,4,2,1,80,0,0
119541,-33.3333333333333,4,2,1,80,0,0
120044,-40,4,2,1,80,0,0
120547,-40,4,2,1,80,0,0
121049,-50,4,2,1,80,0,0
122223,-33.3333333333333,4,2,1,80,0,0
122893,-40,4,2,1,80,0,0
124234,-50,4,2,1,80,0,0
124904,-66.6666666666667,4,2,1,45,0,0
125407,-100,4,2,1,45,0,0
130267,-100,4,2,1,30,0,0
135295,-333.333333333333,4,2,1,30,0,0
136301,-333.333333333333,4,2,1,10,0,0

[Colours]
Combo1 : 192,63,156
Combo2 : 198,47,47
Combo3 : 138,92,180
Combo4 : 190,91,78

[HitObjects]
189,196,16636,6,0,B|161:181|161:181|155:152|155:152|107:128,2,100,2|2|2,0:0|0:0|0:0,0:0:0:0:
257,248,17642,5,2,3:0:0:0:
347,203,17809,1,2,0:0:0:0:
268,252,17977,1,2,3:0:0:0:
319,358,18144,2,0,P|337:309|353:272,1,75.0000028610231,10|2,0:2|0:0,0:0:0:0:
269,158,18480,1,2,3:0:0:0:
424,319,18647,2,0,P|442:270|458:233,1,75.0000028610231,10|2,0:2|0:0,0:0:0:0:
414,49,18982,6,0,B|367:81|367:81|395:137,1,112.500004291535,2|0,3:0|0:0,0:0:0:0:
407,139,19318,1,0,3:0:0:0:
238,31,19485,2,0,B|167:45|215:85|128:105,1,119.999996337891,8|0,0:2|3:0,0:0:0:0:
295,159,19988,2,0,P|266:110|257:100,1,59.9999981689454,8|2,0:2|0:0,0:0:0:0:
42,233,20323,5,2,3:0:0:0:
110,283,20491,1,2,0:0:0:0:
120,201,20658,1,2,3:0:0:0:
65,384,20826,2,0,P|40:328|27:307,1,75.0000028610231,10|2,0:2|0:0,0:0:0:0:
204,328,21161,1,2,3:0:0:0:
120,201,21329,2,0,P|95:145|82:124,1,75.0000028610231,10|2,0:2|0:0,0:0:0:0:
220,231,21664,6,0,P|279:247|298:306,1,119.999996337891,2|0,3:0|3:0,0:0:0:0:
379,351,22167,2,0,P|395:306|409:273,1,59.9999981689454,8|2,0:2|0:0,0:0:0:0:
478,233,22502,1,2,3:0:0:0:
299,297,22670,2,0,P|315:252|329:219,1,59.9999981689454,10|2,0:2|0:0,0:0:0:0:
410,49,23005,5,2,3:0:0:0:
410,49,23340,1,2,3:0:0:0:
478,233,23508,2,0,P|494:188|508:155,1,75.0000028610231,10|2,0:2|0:0,0:0:0:0:
502,69,23843,1,2,3:0:0:0:
398,207,24010,2,0,P|414:162|428:129,1,75.0000028610231,10|2,0:2|0:0,0:0:0:0:
334,304,24346,6,0,B|272:320|272:320|265:335|265:335|274:377,1,112.500004291535,2|0,3:0|0:0,0:0:0:0:
283,377,24681,1,0,3:0:0:0:
181,360,24848,2,0,B|127:354|144:311|80:305,1,112.500004291535,8|0,0:2|0:0,0:0:0:0:
74,318,25184,1,0,3:0:0:0:
161,172,25351,2,0,P|181:208|187:226,1,37.5000014305115,10|0,0:2|0:0,0:0:0:0:
200,280,25519,1,2,0:0:0:0:
47,207,25686,5,2,3:0:0:0:
55,117,25854,1,2,0:0:0:0:
53,216,26022,1,2,3:0:0:0:
232,112,26189,2,0,P|249:144|263:179,1,75.0000028610231,10|2,0:2|0:0,0:0:0:0:
200,280,26524,1,2,3:0:0:0:
147,136,26692,2,0,P|164:168|178:203,1,75.0000028610231,10|2,0:2|0:0,0:0:0:0:
178,366,27027,5,2,3:0:0:0:
278,337,27195,1,2,0:0:0:0:
328,366,27362,1,2,3:0:0:0:
371,281,27530,2,0,P|358:316|347:352,1,75.0000028610231,10|2,0:2|0:0,0:0:0:0:
461,285,27865,1,2,3:0:0:0:
346,158,28033,2,0,P|309:158|283:237,1,112.500004291535,10|0,0:2|0:0,0:0:0:0:
282,231,28368,5,0,0:0:0:0:
87,115,28703,5,2,0:0:0:0:
87,115,29038,2,0,B|117:135|151:109|140:94|171:74|208:88,1,120,2|2,0:0|0:0,0:0:0:0:
288,55,29709,6,0,P|281:95|280:102,1,40,2|2,0:0|0:0,0:0:0:0:
177,205,30044,2,0,P|199:190|208:170,1,40,2|2,0:0|0:0,0:0:0:0:
101,51,30379,1,2,0:0:0:0:
92,48,31049,5,2,0:0:0:0:
64,124,31217,1,2,0:0:0:0:
140,152,31385,1,2,0:0:0:0:
168,76,31552,1,2,0:0:0:0:
118,99,31720,5,2,0:0:0:0:
118,99,32055,1,2,0:0:0:0:
262,248,32390,5,2,0:0:0:0:
313,172,32558,1,2,0:0:0:0:
382,206,32725,1,2,0:0:0:0:
426,179,32893,1,2,0:0:0:0:
453,181,33061,1,2,0:0:0:0:
460,179,33731,6,0,P|472:144|479:130,1,40,0|2,0:0|0:0,0:0:0:0:
416,56,34066,1,2,0:0:0:0:
416,56,34401,2,0,B|383:33|332:106|373:136,1,120,2|0,0:0|0:0,0:0:0:0:
449,182,35072,5,2,0:0:0:0:
483,260,35239,1,2,0:0:0:0:
428,322,35407,1,2,0:0:0:0:
398,247,35575,1,2,0:0:0:0:
449,182,35742,1,2,0:0:0:0:
449,182,36245,1,2,0:0:0:0:
289,276,36413,5,2,0:0:0:0:
188,244,36580,1,2,0:0:0:0:
118,284,36748,1,2,0:0:0:0:
115,321,36915,1,2,0:0:0:0:
121,336,37083,2,0,P|148:361|188:351,1,80,2|2,0:0|0:0,0:0:0:0:
260,193,37753,6,0,L|274:144,3,40,2|2|2|2,0:0|0:0|0:0|0:0,0:0:0:0:
232,272,38424,1,2,0:0:0:0:
232,272,39094,6,0,P|177:292|163:318,1,50,6|0,3:2|0:0,0:0:0:0:
124,345,39262,1,2,0:0:0:0:
156,173,39429,2,0,P|98:223|107:268,1,100,2|10,3:0|0:2,0:0:0:0:
387,268,39765,6,0,P|395:207|412:131,1,100,2|0,0:0|3:0,0:0:0:0:
327,350,40100,1,8,0:2:0:0:
336,345,40435,5,2,3:0:0:0:
295,174,40603,1,2,0:0:0:0:
251,258,40770,1,2,3:0:0:0:
335,86,40938,1,10,0:2:0:0:
163,178,41105,6,0,B|122:173|122:173|114:166|114:166|31:153,1,100,2|0,0:0|3:0,0:0:0:0:
301,167,41441,1,8,0:2:0:0:
53,46,41776,6,0,B|33:65|33:65|46:100,1,50,2|0,3:0|0:0,0:0:0:0:
97,236,41943,1,2,0:0:0:0:
159,0,42111,2,0,P|134:79|120:125,1,100,2|10,3:0|0:2,0:0:0:0:
279,340,42446,6,0,P|201:333|185:257,1,150,2|0,0:0|0:0,0:0:0:0:
180,262,42781,2,0,P|227:235|262:263,1,100,10|0,0:2|0:0,0:0:0:0:
440,331,43117,5,2,3:0:0:0:
386,183,43284,1,2,0:0:0:0:
490,226,43452,5,2,3:0:0:0:
342,280,43619,1,10,0:2:0:0:
383,174,43787,6,0,P|396:103|399:67,2,75.0000028610231,2|0|8,0:0|3:0|0:2,0:0:0:0:
70,341,44457,6,0,P|45:264|43:254,1,50,2|0,3:0|0:0,0:0:0:0:
59,208,44625,1,2,0:0:0:0:
236,327,44793,2,0,P|176:291|134:309,1,100,2|10,3:0|0:2,0:0:0:0:
74,122,45128,6,0,P|154:89|185:68,1,100,2|0,0:0|3:0,0:0:0:0:
42,293,45463,1,8,0:2:0:0:
52,294,45798,5,2,3:0:0:0:
219,180,45966,1,2,0:0:0:0:
114,207,46133,1,2,3:0:0:0:
316,224,46301,1,10,0:2:0:0:
224,89,46468,6,0,B|202:46|202:46|202:37|202:37|173:-18,1,100,2|0,0:0|3:0,0:0:0:0:
215,186,46804,1,8,0:2:0:0:
323,123,46971,5,4,0:3:0:0:
323,123,47055,1,4,0:3:0:0:
323,123,47139,2,0,L|387:139,1,50,2|0,3:0|0:0,0:0:0:0:
458,156,47306,1,2,0:0:0:0:
319,237,47474,2,0,B|256:258|256:258|261:280|279:293,1,100,2|10,3:0|0:2,0:0:0:0:
462,161,47809,6,0,P|473:102|508:1,1,150,2|0,0:0|0:0,0:0:0:0:
509,22,48144,2,0,P|453:63|412:40,1,100,10|0,0:2|0:0,0:0:0:0:
219,48,48480,5,2,3:0:0:0:
138,167,48647,1,2,0:0:0:0:
250,141,48815,1,2,3:0:0:0:
104,72,48982,1,10,0:2:0:0:
35,206,49150,6,0,P|63:273|79:327,1,100,2|0,0:0|3:0,0:0:0:0:
266,360,49485,2,0,B|292:332|292:332|217:277,1,112.500004291535,10|0,0:2|0:0,0:0:0:0:
221,289,49820,6,0,B|269:330|348:317|315:195|470:143|432:260|337:282,1,300.000011444092,6|0,3:1|3:0,0:0:0:0:
135,203,50323,6,0,B|87:178|129:117|106:63|106:63|131:115|219:123|189:188,1,300.000011444092,8|0,3:2|3:0,0:0:0:0:
140,337,50826,6,0,L|8:307,1,75.0000028610231,8|0,0:2|0:0,0:0:0:0:
145,344,51161,1,2,3:1:0:0:
226,352,51329,6,0,B|271:312|232:242|217:249|205:255|172:214|198:164,1,200,0|8,0:0|0:2,0:0:0:0:
252,106,51832,2,0,B|257:61|291:58|305:89|255:112,1,100,0|0,0:0|3:0,0:0:0:0:
177,257,52167,1,8,0:2:0:0:
42,133,52335,5,4,0:3:0:0:
42,133,52418,1,4,0:3:0:0:
42,133,52502,2,0,B|14:87|14:87|132:120|132:120|69:273,1,300.000011444092,2|0,3:1|3:0,0:0:0:0:
16,308,53005,6,0,B|37:355|37:355|117:329|117:329|126:321|126:321|219:291|219:291|237:342,1,300.000011444092,8|0,3:2|3:0,0:0:0:0:
321,331,53508,6,0,L|349:253,1,75.0000028610231,10|0,0:2|0:0,0:0:0:0:
324,342,53843,1,2,3:1:0:0:
242,211,54178,5,0,3:0:0:0:
236,199,54346,2,0,P|225:155|212:110,2,75.0000028610231,8|8|0,0:2|0:2|3:2,0:0:0:0:
168,311,54848,1,8,0:2:0:0:
168,311,55016,1,0,3:0:0:0:
288,98,55184,6,0,B|291:82|316:62|316:62|229:67|136:153|136:153|109:137|152:93,1,300.000011444092,2|0,3:1|3:0,0:0:0:0:
370,179,55686,6,0,B|379:185|393:204|393:204|436:188|506:202|506:202|441:170|413:128|413:128|392:142|346:132,1,300.000011444092,8|0,3:2|3:0,0:0:0:0:
324,277,56189,6,0,P|355:354|360:375,1,75.0000028610231,8|0,0:2|0:0,0:0:0:0:
256,351,56357,1,4,0:3:0:0:
256,351,56441,1,4,0:3:0:0:
256,351,56524,1,2,3:1:0:0:
352,346,56692,6,0,B|389:326|380:285|358:264|351:271|315:241|327:192|356:169|382:180,1,200,0|8,0:0|3:2,0:0:0:0:
445,200,57195,2,0,B|473:206|481:228|481:228|479:196|440:188,1,100,0|0,0:0|3:0,0:0:0:0:
296,119,57530,1,8,0:2:0:0:
296,119,57698,1,4,0:3:0:0:
151,288,57865,6,0,B|135:265|135:265|142:236|142:236|229:218|229:218|256:265|256:265|306:276|306:276|346:241|346:241,1,300.000011444092,2|0,3:1|3:0,0:0:0:0:
377,90,58368,6,0,B|376:52|376:52|310:36,1,75.0000028610231,8|0,3:2|0:0,0:0:0:0:
161,116,58536,6,0,B|181:142|181:142|320:113,1,150.000005722046,2|0,0:0|3:0,0:0:0:0:
461,79,58871,1,10,0:2:0:0:
469,77,59206,6,0,B|501:118|453:150|439:139|404:156|405:190,1,150,2|0,3:1|0:0,0:0:0:0:
413,199,59541,2,0,P|447:258|481:258,1,100,0|8,3:0|3:2,0:0:0:0:
477,252,60044,5,0,3:0:0:0:
192,265,60212,2,0,P|226:344|342:302,1,225.000008583069,8|0,0:2|0:0,0:0:0:0:
349,317,60547,6,0,B|327:232|327:232|322:229|322:229|298:128,1,179.999994506836,0|0,3:0|3:0,0:0:0:0:
283,64,61385,5,2,0:0:0:0:
283,64,61552,1,2,3:0:0:0:
283,64,61720,1,2,0:0:0:0:
181,149,61887,6,0,P|127:132|121:98,2,89.9999972534181,2|2|2,0:0|0:0|0:0,0:0:0:0:
283,64,62558,2,0,P|330:21|387:35,1,119.999996337891,2|2,0:0|0:0,0:0:0:0:
122,291,63228,6,0,L|31:268,1,50,0|0,3:0|0:0,0:0:0:0:
131,302,63396,6,0,B|169:290|169:290|180:291|180:291|222:278,1,75.0000028610231,2|2,0:0|0:0,0:0:0:0:
66,366,63731,1,2,3:0:0:0:
281,309,63899,2,0,P|300:246|321:176,2,112.500004291535,2|2|2,0:0|0:0|0:0,0:0:0:0:
391,359,64569,5,2,0:0:0:0:
398,350,64820,1,2,0:0:0:0:
405,341,65072,1,2,0:0:0:0:
277,315,65239,2,0,P|260:257|240:202,1,100,2|2,0:0|0:0,0:0:0:0:
449,24,65910,6,0,P|421:89|417:110,1,75.0000028610231,0|0,3:0|0:0,0:0:0:0:
423,103,66077,6,0,P|356:29|334:18,1,89.9999972534181,2|2,0:0|0:0,0:0:0:0:
443,187,66413,1,2,3:0:0:0:
268,32,66580,6,0,P|240:68|307:108,2,134.999995880127,2|2|2,0:0|0:0|0:0,0:0:0:0:
447,197,67251,6,0,B|404:187|404:187|399:180|399:180|329:165,1,89.9999972534181,6|0,0:3|0:0,0:0:0:0:
353,183,67502,2,0,P|376:241|392:284,1,89.9999972534181,2|0,0:0|0:0,0:0:0:0:
383,282,67753,1,2,0:0:0:0:
295,320,67921,6,0,B|208:346|250:274|143:304,1,150.000005722046,2|2,0:0|0:0,0:0:0:0:
33,57,68591,6,0,B|11:97|11:97|49:180,2,112.500004291535,0|0|0,3:0|0:0|3:0,0:0:0:0:
128,168,69262,5,2,0:0:0:0:
139,163,69513,1,2,0:0:0:0:
150,158,69765,1,2,0:0:0:0:
112,240,69932,5,10,3:2:0:0:
150,158,70183,1,2,0:0:0:0:
188,74,70435,1,2,0:0:0:0:
230,297,70603,6,0,P|209:246|194:204,1,75.0000028610231,10|0,3:2|3:0,0:0:0:0:
90,95,70938,2,0,P|76:59|62:25,1,75.0000028610231,10|0,3:2|3:0,0:0:0:0:
287,183,71273,6,0,B|335:196|370:156|360:145|397:105|451:125,1,179.999994506836,2|0,3:0|0:0,0:0:0:0:
452,133,71608,1,0,3:0:0:0:
496,267,71776,2,0,P|428:250|425:200,1,119.999996337891,10|0,0:2|0:0,0:0:0:0:
294,100,72279,6,0,P|273:33|190:64,1,150,10|0,0:2|0:0,0:0:0:0:
202,52,72614,2,0,P|222:150|233:224,1,150.000005722046,0|0,3:0|3:0,0:0:0:0:
202,289,73117,5,10,0:2:0:0:
317,222,73284,2,0,P|304:288|301:314,1,75.0000028610231,2|0,0:0|3:0,0:0:0:0:
135,186,73619,2,0,P|82:173|44:160,1,75.0000028610231,8|6,0:2|0:3,0:0:0:0:
53,158,73871,1,4,0:3:0:0:
46,146,73955,6,0,P|96:78|128:107,1,110.000003356934,2|0,3:0|0:0,0:0:0:0:
227,191,74290,1,2,3:0:0:0:
107,289,74457,1,10,0:2:0:0:
225,377,74625,2,0,P|205:308|186:261,1,110.000003356934,2|0,0:0|3:0,0:0:0:0:
142,173,74960,1,10,0:2:0:0:
142,173,75128,1,2,0:0:0:0:
290,269,75295,6,0,B|339:262|309:236|384:225,1,89.9999972534181,2|0,3:0|0:0,0:0:0:0:
454,263,75630,1,2,3:0:0:0:
454,263,75798,1,10,0:2:0:0:
389,146,75966,2,0,P|331:120|300:99,1,89.9999972534181,2|0,0:0|3:0,0:0:0:0:
477,173,76301,1,10,0:2:0:0:
381,315,76468,1,2,3:0:0:0:
196,225,76636,6,0,B|172:199|172:199|220:61,1,165.000005035401,2|0,3:0|0:0,0:0:0:0:
226,64,76971,1,2,3:0:0:0:
272,176,77139,1,10,0:2:0:0:
126,91,77306,2,0,P|55:151|73:177,1,110.000003356934,2|0,0:0|3:0,0:0:0:0:
282,181,77642,2,0,P|339:164|378:157,1,75.0000028610231,10|2,0:2|0:0,0:0:0:0:
205,318,77977,6,0,P|151:299|42:289,1,150.000005722046,2|2,3:0|3:0,0:0:0:0:
13,357,78480,1,10,0:2:0:0:
91,214,78647,2,0,P|135:251|133:279,1,75.0000028610231,2|0,0:0|3:0,0:0:0:0:
278,369,78982,2,0,P|291:316|305:277,1,75.0000028610231,10|6,0:2|0:3,0:0:0:0:
308,290,79234,1,4,0:3:0:0:
321,291,79318,6,0,B|364:306|364:306|371:302|371:302|449:327,1,100,2|0,3:0|0:0,0:0:0:0:
499,354,79653,1,2,3:0:0:0:
414,223,79820,1,10,0:2:0:0:
483,153,79988,2,0,B|518:170|518:170|509:227,1,75.0000028610231,2|0,0:0|3:0,0:0:0:0:
320,207,80323,2,0,P|297:158|273:120,1,75.0000028610231,10|2,0:2|0:0,0:0:0:0:
441,0,80658,6,0,P|409:82|389:151,1,150.000005722046,2|2,3:0|3:0,0:0:0:0:
413,222,81161,1,10,0:2:0:0:
379,63,81329,2,0,P|344:30|297:31,1,75.0000028610231,2|0,0:0|3:0,0:0:0:0:
155,107,81664,6,0,P|154:132|173:154,1,37.5000014305115,10|0,0:2|0:0,0:0:0:0:
118,215,81832,2,0,P|167:219|176:207,1,37.5000014305115,2|0,0:0|0:0,0:0:0:0:
230,188,81999,1,2,3:0:0:0:
237,179,82334,5,2,3:0:0:0:
134,327,82502,2,0,B|107:355|61:342|50:304|50:304|7:120,1,250.600010286164,8|0,0:2|3:0,0:0:0:0:
226,267,83005,2,0,P|275:307|255:364,1,125.300005143082,8|0,0:2|0:0,0:0:0:0:
25,266,83340,5,2,3:0:0:0:
111,122,83508,2,0,P|173:100|212:84,2,75.0000028610231,2|2|10,0:0|3:0|0:2,0:0:0:0:
8,64,84010,1,2,0:0:0:0:
8,64,84178,1,2,3:0:0:0:
117,2,84346,1,10,0:2:0:0:
117,2,84513,1,6,0:3:0:0:
26,159,84681,6,0,B|61:133|61:133|176:207,1,150,2|0,3:0|0:0,0:0:0:0:
158,200,85016,1,2,3:0:0:0:
315,273,85184,2,0,B|355:288|355:288|397:256|397:256|371:202|371:202|319:203,1,200,8|0,0:2|3:0,0:0:0:0:
197,285,85686,2,0,P|218:342|232:390,1,100,8|0,0:2|0:0,0:0:0:0:
249,142,86022,5,2,3:0:0:0:
249,142,86189,1,2,0:0:0:0:
170,90,86357,1,2,3:0:0:0:
297,69,86524,1,10,0:2:0:0:
223,18,86692,5,2,0:0:0:0:
223,18,86860,1,2,3:0:0:0:
304,77,87027,1,10,0:2:0:0:
164,96,87195,1,2,0:0:0:0:
267,237,87362,5,2,3:0:0:0:
272,245,87698,1,2,3:0:0:0:
152,354,87865,2,0,B|186:324|186:324|292:337|292:337|338:300,1,200,8|0,0:2|3:0,0:0:0:0:
254,161,88368,2,0,B|205:168|205:168|189:224,1,100,8|0,0:2|0:0,0:0:0:0:
418,301,88703,5,0,3:0:0:0:
475,180,88871,2,0,P|456:118|448:79,2,75.0000028610231,2|2|10,0:0|3:0|0:2,0:0:0:0:
512,337,89374,1,2,0:0:0:0:
512,337,89541,1,2,3:0:0:0:
378,218,89709,1,10,0:2:0:0:
327,311,89876,2,0,P|240:293|219:291,1,75.0000028610231,2|2,0:0|0:0,0:0:0:0:
134,358,90379,6,0,B|106:374|60:387|40:327|75:316|92:342,1,120,2|2,0:0|0:0,0:0:0:0:
224,365,91050,6,0,P|228:293|240:199,1,149.999995422363,2|0,0:0|0:0,0:0:0:0:
243,202,91552,1,2,0:0:0:0:
256,192,91636,12,0,92725,3:0:0:0:
136,247,93061,6,0,P|178:240|186:214,1,59.9999981689454,2|8,3:0|0:2,0:0:0:0:
238,157,93396,2,0,P|277:107|337:131,1,119.999996337891,2|8,0:0|0:2,0:0:0:0:
359,355,94066,5,2,0:0:0:0:
395,248,94234,1,2,0:0:0:0:
441,178,94401,1,2,0:0:0:0:
475,150,94569,1,10,0:2:0:0:
492,142,94737,1,2,0:0:0:0:
492,142,95072,1,8,0:2:0:0:
355,171,95239,5,0,0:0:0:0:
355,171,95323,1,0,0:0:0:0:
355,171,95407,2,0,P|302:164|270:160,1,59.9999981689454,2|2,3:0|0:0,0:0:0:0:
402,67,95742,1,2,0:0:0:0:
402,67,95910,1,10,0:2:0:0:
282,17,96077,2,0,P|302:65|311:96,1,59.9999981689454,2|0,0:0|0:0,0:0:0:0:
212,168,96413,1,10,0:2:0:0:
212,168,96748,5,2,0:0:0:0:
123,142,96915,1,2,0:0:0:0:
188,89,97083,1,2,3:0:0:0:
147,222,97251,1,10,0:2:0:0:
169,154,97418,1,2,0:0:0:0:
384,373,97753,6,0,P|389:351|411:339,3,29.9999990844727,10|2|2|2,0:2|0:0|0:0|0:0,0:0:0:0:
410,342,98089,2,0,P|430:304|422:285,1,59.9999981689454,2|2,3:0|0:0,0:0:0:0:
230,327,98424,6,0,P|169:308|158:307,1,59.9999981689454,2|8,3:0|0:2,0:0:0:0:
275,247,98759,2,0,P|348:226|415:211,1,119.999996337891,2|8,0:0|0:2,0:0:0:0:
220,184,99429,5,2,0:0:0:0:
112,213,99597,1,2,0:0:0:0:
37,181,99765,1,2,0:0:0:0:
14,130,99932,1,10,0:2:0:0:
21,109,100100,1,2,0:0:0:0:
21,109,100435,1,8,0:2:0:0:
127,126,100603,5,2,0:0:0:0:
127,126,100686,1,0,0:0:0:0:
127,126,100770,2,0,P|147:83|139:58,1,59.9999981689454,2|2,3:0|0:0,0:0:0:0:
63,26,101105,1,2,0:0:0:0:
63,26,101273,1,10,0:2:0:0:
196,0,101441,2,0,P|262:30|265:73,1,119.999996337891,2|10,0:0|0:2,0:0:0:0:
276,275,102111,6,0,L|286:325,3,40,2|2|2|2,0:0|0:0|0:0|0:0,0:0:0:0:
256,192,102781,1,2,0:0:0:0:
256,192,103452,6,0,P|318:169|336:147,1,50,6|0,3:2|0:0,0:0:0:0:
370,116,103619,1,2,0:0:0:0:
409,290,103787,2,0,P|427:234|400:197,1,100,2|10,3:0|0:2,0:0:0:0:
159,257,104122,6,0,P|181:334|190:372,1,100,2|0,0:0|3:0,0:0:0:0:
164,159,104457,1,8,0:2:0:0:
169,149,104793,5,2,3:0:0:0:
44,207,104960,1,2,0:0:0:0:
53,96,105128,1,2,3:0:0:0:
34,323,105295,1,10,0:2:0:0:
166,253,105463,6,0,B|213:237|213:237|220:239|220:239|273:222,1,100,2|0,0:0|3:0,0:0:0:0:
52,201,105798,1,8,0:2:0:0:
330,293,106133,6,0,B|350:275|350:275|353:234,1,50,2|0,3:0|0:0,0:0:0:0:
334,165,106301,1,2,0:0:0:0:
443,272,106468,1,2,3:0:0:0:
329,160,106636,2,0,B|331:137|331:137|351:119,1,50,10|0,0:2|0:0,0:0:0:0:
431,96,106804,6,0,P|307:59|293:7,1,150,2|0,0:0|0:0,0:0:0:0:
306,37,107139,2,0,P|371:12|394:43,1,100,10|0,0:2|0:0,0:0:0:0:
243,141,107474,5,2,3:0:0:0:
121,105,107642,1,2,0:0:0:0:
245,127,107809,1,2,3:0:0:0:
114,119,107977,1,10,0:2:0:0:
170,244,108145,6,0,P|178:278|191:333,1,75.0000028610231,2|0,0:0|3:0,0:0:0:0:
199,40,108480,1,8,0:2:0:0:
199,40,108647,1,0,3:0:0:0:
367,142,108815,6,0,P|343:185|322:192,1,50,2|0,3:0|0:0,0:0:0:0:
259,221,108982,1,2,0:0:0:0:
372,360,109150,2,0,P|366:315|310:258,1,100,2|10,3:0|0:2,0:0:0:0:
173,132,109485,6,0,P|276:113|298:109,1,100,2|0,0:0|3:0,0:0:0:0:
420,220,109820,1,8,0:2:0:0:
431,217,110156,5,2,3:0:0:0:
491,58,110323,1,2,0:0:0:0:
511,156,110491,1,2,3:0:0:0:
387,36,110658,1,10,0:2:0:0:
338,183,110826,6,0,P|268:206|219:224,1,100,2|0,0:0|3:0,0:0:0:0:
415,123,111161,1,8,0:2:0:0:
304,89,111329,5,4,0:3:0:0:
304,89,111413,1,4,0:3:0:0:
304,89,111496,2,0,P|242:71|221:69,1,50,2|0,3:0|0:0,0:0:0:0:
151,87,111664,1,2,0:0:0:0:
207,8,111832,1,2,3:0:0:0:
145,96,111999,2,0,P|96:122|74:125,1,50,10|0,0:2|0:0,0:0:0:0:
24,114,112167,6,0,P|109:162|186:206,1,150,2|0,0:0|0:0,0:0:0:0:
161,197,112502,2,0,P|167:246|122:270,1,100,10|0,0:2|0:0,0:0:0:0:
40,384,112837,6,0,P|74:369|110:359,3,75.0000028610231,2|2|2|2,0:0|0:0|0:0|0:2,0:0:0:0:
39,301,113508,6,0,B|78:340|138:326|165:276|160:271|154:266|177:212|240:178|286:208|286:208|253:233|250:270,1,350,2|0,0:0|0:0,0:0:0:0:
267,256,114178,6,0,P|244:149|231:51,1,150.000005722046,6|0,3:1|0:0,0:0:0:0:
355,301,114513,1,0,3:0:0:0:
500,137,114681,2,0,P|486:49|355:99,1,250,10|0,3:2|3:0,0:0:0:0:
267,256,115184,6,0,P|218:340|117:281,1,187.5,10|0,0:2|0:0,0:0:0:0:
134,312,115519,1,2,3:1:0:0:
33,336,115686,2,0,P|57:251|69:123,1,200,2|8,0:0|0:2,0:0:0:0:
177,227,116189,2,0,P|160:160|152:105,1,100,2|0,0:0|3:0,0:0:0:0:
97,55,116524,1,8,0:2:0:0:
238,106,116692,5,4,0:3:0:0:
238,106,116776,1,4,0:3:0:0:
238,106,116860,2,0,B|315:94|315:94|327:76|327:76|481:54,1,225.000008583069,2|0,3:1|0:0,0:0:0:0:
467,57,117195,1,0,3:0:0:0:
375,156,117362,2,0,L|450:144,1,75.0000028610231,8|0,3:2|0:0,0:0:0:0:
459,151,117530,6,0,B|495:238|495:238|412:323,2,187.5,2|2|2,0:0|0:0|0:0,0:0:0:0:
340,306,118200,2,0,B|283:301|286:236|302:243|277:152|192:179,1,187.5,2|2,3:1|0:0,0:0:0:0:
220,164,118536,2,0,P|159:202|178:248,1,125,0|10,3:0|0:2,0:0:0:0:
258,372,118871,5,10,0:2:0:0:
258,372,119038,1,0,3:2:0:0:
372,221,119206,1,10,0:2:0:0:
323,125,119374,1,0,3:0:0:0:
323,125,119457,1,0,0:0:0:0:
323,125,119541,6,0,P|164:81|146:68,1,150.000005722046,2|0,3:1|0:0,0:0:0:0:
375,63,119876,1,0,3:0:0:0:
62,108,120044,2,0,P|86:240|181:220,1,250,10|0,3:2|3:0,0:0:0:0:
317,373,120547,6,0,P|346:263|437:284,1,187.5,10|0,0:2|0:0,0:0:0:0:
410,272,120882,1,2,3:1:0:0:
490,186,121049,2,0,P|377:162|290:127,1,200,2|8,0:0|3:2,0:0:0:0:
475,59,121552,2,0,P|405:70|374:66,1,100,2|0,0:0|3:0,0:0:0:0:
280,29,121887,1,8,0:2:0:0:
202,114,122055,5,4,0:3:0:0:
202,114,122139,1,4,0:3:0:0:
202,114,122223,2,0,B|216:125|216:125|225:205|225:205|216:212|216:212|228:338,1,225.000008583069,2|0,3:1|0:0,0:0:0:0:
229,342,122558,1,0,3:0:0:0:
305,230,122725,2,0,L|316:326,1,75.0000028610231,8|0,3:2|0:0,0:0:0:0:
136,343,122893,6,0,B|72:284|72:284|148:184,2,187.5,2|2|2,0:0|0:0|0:0,0:0:0:0:
215,243,123563,5,2,3:1:0:0:
137,193,123815,1,2,0:0:0:0:
59,143,124066,1,10,3:2:0:0:
3,304,124234,6,0,P|24:265|85:210,1,100,2|0,0:0|3:0,0:0:0:0:
219,157,124569,2,0,P|254:122|278:78,1,100,10|0,0:2|0:0,0:0:0:0:
76,0,124904,6,0,P|115:62|138:116,1,112.500004291535,0|0,3:0|0:0,0:0:0:0:
133,109,125239,1,0,0:0:0:0:
291,220,125407,2,0,P|349:216|362:163,1,100,8|2,0:2|0:0,0:0:0:0:
429,122,125910,2,0,P|419:96|419:79,1,25,10|0,0:2|0:0,0:0:0:0:
323,333,126245,5,2,0:0:0:0:
332,320,126496,2,0,P|393:313|411:334,1,75,2|10,0:0|0:2,0:0:0:0:
243,286,126915,2,0,L|179:277,3,50,2|0|10|0,0:0|0:2|0:2|0:0,0:0:0:0:
53,355,127586,5,0,3:0:0:0:
110,288,127753,1,2,0:0:0:0:
25,276,127921,1,2,0:0:0:0:
60,353,128089,1,8,0:2:0:0:
68,198,128256,6,0,L|57:141,2,50,2|2|8,0:0|0:0|0:2,0:0:0:0:
109,280,128759,1,2,0:0:0:0:
195,245,128927,5,2,0:0:0:0:
195,245,129094,1,2,0:0:0:0:
257,323,129262,1,2,0:0:0:0:
357,286,129429,2,0,P|377:300|393:318,1,50,10|2,0:2|0:0,0:0:0:0:
285,236,129765,1,2,0:0:0:0:
346,175,129932,2,0,P|375:144|392:136,1,50,10|2,0:2|0:0,0:0:0:0:
289,243,130267,6,0,L|305:307,2,50,2|2|2,0:0|0:0|0:0,0:0:0:0:
256,149,130770,1,10,0:2:0:0:
259,141,131105,1,2,0:0:0:0:
175,214,131273,2,0,L|113:236,1,50,10|2,0:2|0:0,0:0:0:0:
349,87,131608,6,0,L|403:106,2,50,2|2|2,0:0|0:0|0:0,0:0:0:0:
259,59,132111,1,2,0:0:0:0:
253,52,132446,1,2,0:0:0:0:
92,107,132614,1,2,0:0:0:0:
254,41,132949,6,0,L|306:18,2,50,2|0|0,0:0|0:0|0:0,0:0:0:0:
146,206,133452,2,0,P|58:182|46:180,1,100,2|2,0:0|0:0,0:0:0:0:
213,129,133955,1,2,0:0:0:0:
223,126,134290,6,0,L|234:178,2,50,2|0|0,0:0|0:0|0:0,0:0:0:0:
206,44,134793,1,2,0:0:0:0:
198,39,135128,1,0,0:0:0:0:
320,148,135296,6,0,B|376:142|362:135|349:130|408:124,1,89.9999972534181,2|0,0:0|0:0,0:0:0:0:
