osu file format v14

[General]
AudioFilename: audio.mp3
AudioLeadIn: 0
PreviewTime: 103368
Countdown: 0
SampleSet: Soft
StackLeniency: 0.7
Mode: 0
LetterboxInBreaks: 0
WidescreenStoryboard: 1

[Editor]
DistanceSpacing: 1
BeatDivisor: 4
GridSize: 8
TimelineZoom: 4.299998

[Metadata]
Title:MONTERO (Call Me By Your Name)
TitleUnicode:MONTERO (Call Me By Your Name)
Artist:Lil Nas X
ArtistUnicode:Lil Nas X
Creator:Aranel
Version:EXPERT
Source:
Tags:pop english hip hop hiphop male vocals vocalist xandit xandeez nuts [poke] fursum -kemsyt aistre venax alphabet altai gay lgbt pride
BeatmapID:3135338
BeatmapSetID:1533112

[Difficulty]
HPDrainRate:5
CircleSize:4.2
OverallDifficulty:9
ApproachRate:9.1
SliderMultiplier:2
SliderTickRate:1

[Events]
//Background and Video events
0,0,"no.jpg",0,0
//Break Periods
//Storyboard Layer 0 (Background)
//Storyboard Layer 1 (Fail)
//Storyboard Layer 2 (Pass)
//Storyboard Layer 3 (Foreground)
//Storyboard Layer 4 (Overlay)
//Storyboard Sound Samples

[TimingPoints]
1553,670.391061452514,4,2,1,15,1,0
6915,-100,4,2,1,40,0,0
16636,-100,4,2,1,30,0,0
17642,-71.4285714285714,4,2,1,55,0,0
28368,-133.333333333333,4,2,1,45,0,0
29709,-100,4,2,1,45,0,0
33563,-100,4,2,1,5,0,0
33731,-100,4,2,1,45,0,0
37335,-100,4,2,1,5,0,0
37418,-100,4,2,1,45,0,0
37753,-500,4,2,1,30,0,0
39094,-41.6666666666667,4,2,1,60,0,1
39178,-41.6666666666667,4,2,1,60,0,0
41776,-26.3157894736842,4,2,1,60,0,0
43117,-19.2307692307692,4,2,1,60,0,0
44122,-41.6666666666667,4,2,1,60,0,0
47139,-26.3157894736842,4,2,1,60,0,0
48480,-19.2307692307692,4,2,1,60,0,0
49821,-31.25,4,2,1,80,0,1
50072,-31.25,4,2,1,5,0,1
50156,-31.25,4,2,1,80,0,1
50575,-31.25,4,2,1,5,0,1
50659,-31.25,4,2,1,80,0,1
50826,-37.037037037037,4,2,1,80,0,1
51161,-31.25,4,2,1,80,0,1
51580,-31.25,4,2,1,5,0,1
51664,-31.25,4,2,1,80,0,1
51915,-31.25,4,2,1,5,0,1
51999,-31.25,4,2,1,80,0,1
52083,-31.25,4,2,1,5,0,1
52167,-31.25,4,2,1,80,0,1
52502,-26.3157894736842,4,2,1,80,0,1
53172,-31.25,4,2,1,80,0,1
53424,-31.25,4,2,1,5,0,1
53508,-31.25,4,2,1,80,0,1
54597,-31.25,4,2,1,5,0,1
54681,-31.25,4,2,1,80,0,1
54765,-31.25,4,2,1,5,0,1
54849,-33.3333333333333,4,2,1,80,0,1
54932,-31.25,4,2,1,5,0,1
55016,-33.3333333333333,4,2,1,80,0,1
55100,-31.25,4,2,1,5,0,1
55184,-31.25,4,2,1,80,0,1
55435,-31.25,4,2,1,5,0,1
55519,-31.25,4,2,1,80,0,1
55938,-31.25,4,2,1,5,0,1
56022,-31.25,4,2,1,80,0,1
56943,-31.25,4,2,1,5,0,1
57027,-31.25,4,2,1,80,0,1
57279,-31.25,4,2,1,5,0,1
57363,-31.25,4,2,1,80,0,1
57446,-31.25,4,2,1,5,0,1
57530,-31.25,4,2,1,80,0,1
58787,-31.25,4,2,1,5,0,1
58871,-31.25,4,2,1,80,0,1
59457,-31.25,4,2,1,5,0,1
59541,-31.25,4,2,1,80,0,1
59876,-33.3333333333333,4,2,1,80,0,1
59960,-29.4117647058824,4,2,1,5,0,1
60044,-33.3333333333333,4,2,1,80,0,1
60128,-33.3333333333333,4,2,1,5,0,1
60212,-27.7777777777778,4,2,1,80,0,1
60463,-27.7777777777778,4,2,1,5,0,1
60547,-83.3333333333333,4,2,1,45,0,0
67251,-116.279069767442,4,2,1,45,0,0
68591,-83.3333333333333,4,2,1,45,0,0
71273,-62.5,4,2,1,55,0,0
71525,-62.5,4,2,1,5,0,0
71608,-62.5,4,2,1,55,0,0
73117,-71.4285714285714,4,2,1,55,0,0
74876,-71.4285714285714,4,2,1,5,0,0
74960,-71.4285714285714,4,2,1,55,0,0
77558,-71.4285714285714,4,2,1,5,0,0
77642,-71.4285714285714,4,2,1,55,0,0
80239,-71.4285714285714,4,2,1,5,0,0
80323,-71.4285714285714,4,2,1,55,0,0
90044,-71.4285714285714,4,2,1,30,0,0
90379,-125,4,2,1,30,0,0
91049,-166.666666666667,4,2,1,30,0,0
91887,-250,4,2,1,30,0,0
92725,-71.4285714285714,4,2,1,50,0,0
93647,-71.4285714285714,4,2,1,5,0,0
93731,-71.4285714285714,4,2,1,50,0,0
96329,-71.4285714285714,4,2,1,5,0,0
96413,-71.4285714285714,4,2,1,50,0,0
99010,-71.4285714285714,4,2,1,5,0,0
99094,-71.4285714285714,4,2,1,50,0,0
101692,-71.4285714285714,4,2,1,5,0,0
101776,-71.4285714285714,4,2,1,50,0,0
102111,-500,4,2,1,30,0,0
103452,-41.6666666666667,4,2,1,60,0,1
103536,-41.6666666666667,4,2,1,60,0,0
106133,-26.3157894736842,4,2,1,60,0,0
107474,-19.2307692307692,4,2,1,60,0,0
108480,-41.6666666666667,4,2,1,60,0,0
111496,-26.3157894736842,4,2,1,60,0,0
112837,-66.6666666666667,4,2,1,60,0,0
113508,-50,4,2,1,60,0,0
113759,-100,4,2,1,5,0,0
113843,-100,4,2,1,60,0,0
114178,-29.4117647058824,4,2,1,80,0,1
114429,-29.4117647058824,4,2,1,5,0,1
114513,-29.4117647058824,4,2,1,80,0,1
114932,-29.4117647058824,4,2,1,5,0,1
115016,-29.4117647058824,4,2,1,80,0,1
115435,-29.4117647058824,4,2,1,5,0,1
115519,-29.4117647058824,4,2,1,80,0,1
115938,-29.4117647058824,4,2,1,5,0,1
116022,-29.4117647058824,4,2,1,80,0,1
116860,-26.3157894736842,4,2,1,80,0,1
117530,-29.4117647058824,4,2,1,80,0,1
118955,-29.4117647058824,4,2,1,5,0,1
119039,-29.4117647058824,4,2,1,80,0,1
119122,-29.4117647058824,4,2,1,5,0,1
119206,-29.4117647058824,4,2,1,80,0,1
119290,-29.4117647058824,4,2,1,5,0,1
119374,-29.4117647058824,4,2,1,80,0,1
119457,-29.4117647058824,4,2,1,5,0,1
119541,-29.4117647058824,4,2,1,80,0,1
119793,-29.4117647058824,4,2,1,5,0,1
119877,-29.4117647058824,4,2,1,80,0,1
120295,-29.4117647058824,4,2,1,5,0,1
120379,-29.4117647058824,4,2,1,80,0,1
120798,-29.4117647058824,4,2,1,5,0,1
120882,-29.4117647058824,4,2,1,80,0,1
121301,-29.4117647058824,4,2,1,5,0,1
121385,-29.4117647058824,4,2,1,80,0,1
122223,-26.3157894736842,4,2,1,80,0,1
122893,-22.3214285714286,4,2,1,80,0,1
123563,-29.4117647058824,4,2,1,80,0,1
123899,-31.25,4,2,1,80,0,1
124234,-50,4,2,1,80,0,1
124570,-27.7777777777778,4,2,1,80,0,1
124904,-83.3333333333333,4,2,1,45,0,0
130267,-83.3333333333333,4,2,1,30,0,0
132865,-83.3333333333333,4,2,1,5,0,0
132949,-83.3333333333333,4,2,1,30,0,0
135295,-100,4,2,1,30,0,0
136301,-100,4,2,1,5,0,0

[Colours]
Combo1 : 192,63,156
Combo2 : 198,47,47
Combo3 : 138,92,180
Combo4 : 190,91,78

[HitObjects]
53,91,16636,6,0,B|36:96|19:99|19:99|4:134|23:161,2,100,2|2|2,0:0|0:0|0:0,0:0:0:0:
53,91,17642,6,0,P|102:81|192:65,1,139.999995727539,2|2,3:0|3:0,0:0:0:0:
88,55,18144,1,10,0:2:0:0:
181,155,18312,2,0,L|195:250,1,69.9999978637696,2|2,0:0|3:0,0:0:0:0:
145,286,18647,1,10,0:2:0:0:
145,286,18815,1,2,0:0:0:0:
252,321,18982,2,0,B|243:300|221:295|221:295|262:272|299:323|279:320|301:373|361:373,1,209.999993591309,2|8,3:0|0:2,0:0:0:0:
353,372,19820,1,0,3:0:0:0:
457,281,19988,1,8,0:2:0:0:
457,281,20323,6,0,B|444:231|431:142,1,139.999995727539,2|2,3:0|3:0,0:0:0:0:
414,220,20825,1,10,0:2:0:0:
291,165,20994,1,2,0:0:0:0:
231,210,21161,1,2,3:0:0:0:
231,210,21329,1,10,0:2:0:0:
139,128,21496,1,2,0:0:0:0:
229,89,21663,2,0,B|190:55|133:94|133:94|141:112|139:130,1,139.999995727539,2|0,3:0|3:0,0:0:0:0:
139,128,22167,1,8,0:2:0:0:
34,302,22334,5,2,0:0:0:0:
14,221,22501,1,2,3:0:0:0:
95,201,22670,1,10,0:2:0:0:
115,282,22837,1,2,0:0:0:0:
38,147,23005,6,0,P|50:83|60:7,1,139.999995727539,2|2,3:0|3:0,0:0:0:0:
87,94,23508,1,10,0:2:0:0:
173,27,23675,2,0,L|242:38,1,69.9999978637696,2|2,0:0|3:0,0:0:0:0:
305,87,24010,1,10,0:2:0:0:
305,87,24178,1,2,0:0:0:0:
471,50,24346,2,0,B|464:26|432:7|403:17|403:17|399:15|399:15|359:73|386:120|431:136,1,209.999993591309,2|8,3:0|0:2,0:0:0:0:
407,123,25184,1,0,3:0:0:0:
376,251,25351,1,10,0:2:0:0:
376,251,25519,1,2,0:0:0:0:
427,368,25686,5,2,3:0:0:0:
364,320,25854,2,0,L|376:251,2,69.9999978637696,2|2|10,0:0|3:0|0:2,0:0:0:0:
270,206,26357,2,0,L|281:275,1,69.9999978637696,2|2,0:0|3:0,0:0:0:0:
218,335,26692,1,10,0:2:0:0:
218,335,26860,1,2,0:0:0:0:
427,368,27027,5,2,3:0:0:0:
427,368,27195,1,2,0:0:0:0:
364,320,27362,2,0,L|376:251,1,69.9999978637696,2|10,3:0|0:2,0:0:0:0:
270,206,27698,1,2,0:0:0:0:
281,275,27865,1,2,3:0:0:0:
216,349,28033,1,10,0:2:0:0:
216,349,28368,6,0,B|159:359|159:359|75:239|75:239|18:248,1,262.500010013581,0|2,0:0|0:0,0:0:0:0:
17,248,29709,2,0,B|14:210|32:182|32:182|27:152|27:152|48:124|48:124|45:87|65:58,1,200,2|2,0:0|0:0,0:0:0:0:
63,61,31049,5,2,0:0:0:0:
63,61,31217,2,0,L|54:11,2,50,2|2|2,0:0|0:0|0:0,0:0:0:0:
124,110,31720,2,0,L|110:219,1,100,2|2,0:0|0:0,0:0:0:0:
69,322,32390,2,0,L|15:331,2,50,2|2|2,0:0|0:0|0:0,0:0:0:0:
135,285,32893,1,2,0:0:0:0:
135,285,33061,2,0,L|290:302,1,150,2|0,0:0|0:0,0:0:0:0:
284,301,33731,6,0,B|350:310|369:378|369:378|358:316|396:274|396:274|386:233|353:227,1,300
354,227,35072,2,0,P|392:135|475:83,1,200,2|2,0:0|0:0,0:0:0:0:
474,83,36245,5,2,0:0:0:0:
474,83,36413,2,0,L|403:70,1,50,2|2,0:0|0:0,0:0:0:0:
361,33,36748,2,0,L|290:45,1,50,2|2,0:0|0:0,0:0:0:0:
239,61,37083,2,0,B|236:97|236:97|238:97|238:97|235:134,1,75,2|0,0:0|0:0,0:0:0:0:
231,171,37418,1,2,0:0:0:0:
335,282,37753,6,0,L|337:292,4,10,2|2|2|2|2,0:0|0:0|0:0|0:0|0:0,0:0:0:0:
38,354,39094,6,0,B|206:323|73:288|246:252,1,239.999992675781,6|2,3:2|3:0,0:0:0:0:
63,253,39597,1,10,0:2:0:0:
208,367,39765,2,0,P|269:371|327:379,1,119.999996337891,2|0,0:0|3:0,0:0:0:0:
327,379,40016,1,0,0:0:0:0:
327,379,40100,1,8,0:2:0:0:
245,252,40267,1,0,0:0:0:0:
512,140,40435,6,0,P|394:114|275:100,1,239.999992675781,2|2,3:0|3:0,0:0:0:0:
444,28,40938,1,10,0:2:0:0:
276,100,41105,2,0,P|217:111|157:116,1,119.999996337891,2|0,0:0|3:0,0:0:0:0:
354,204,41441,1,8,0:2:0:0:
147,266,41608,1,4,0:3:0:0:
147,266,41692,1,4,0:3:0:0:
147,266,41776,6,0,B|362:291|324:313,3,189.999994926453,2|2|2|10,3:0|0:0|3:0|0:2,0:0:0:0:
147,266,42446,1,2,0:0:0:0:
147,266,42614,1,0,3:0:0:0:
266,363,42781,1,10,0:2:0:0:
266,363,43117,6,0,B|244:96|203:119,3,259.999988098145,2|2|2|10,3:0|0:0|3:0|0:2,0:0:0:0:
266,363,43787,1,2,0:0:0:0:
266,363,43955,1,0,3:0:0:0:
464,229,44122,1,8,0:2:0:0:
464,229,44457,6,0,B|390:214|390:214|327:138|327:138|256:127,1,239.999992675781,2|2,3:0|3:0,0:0:0:0:
440,119,44960,1,10,0:2:0:0:
304,266,45128,2,0,B|263:287|263:287|185:276,1,119.999996337891,2|0,0:0|3:0,0:0:0:0:
189,276,45379,1,0,0:0:0:0:
189,276,45463,1,8,0:2:0:0:
0,243,45630,1,0,0:0:0:0:
45,31,45798,6,0,B|105:108|105:108|88:250,1,239.999992675781,2|2,3:0|3:0,0:0:0:0:
212,131,46301,1,10,0:2:0:0:
88,250,46468,2,0,B|81:306|81:306|123:359,1,119.999996337891,2|0,0:0|3:0,0:0:0:0:
5,135,46804,1,8,0:2:0:0:
189,276,46971,1,4,0:3:0:0:
189,276,47055,1,4,0:3:0:0:
189,276,47139,6,0,B|243:266|243:266|306:228|306:228|374:218,3,189.999994926453,2|2|2|10,3:0|0:0|3:0|0:2,0:0:0:0:
189,276,47809,1,2,0:0:0:0:
189,276,47977,1,0,3:0:0:0:
357,379,48144,1,10,0:2:0:0:
357,379,48480,6,0,B|343:307|343:307|293:223|293:223|280:134,3,259.999988098145,2|2|2|10,3:0|0:0|3:0|0:2,0:0:0:0:
357,379,49150,1,2,0:0:0:0:
250,330,49318,1,0,3:0:0:0:
492,198,49485,1,10,0:2:0:0:
469,274,49653,1,0,0:0:0:0:
166,144,49821,6,0,B|148:76|117:110|118:43|118:43|143:109|179:64|195:137,1,240,6|0,3:1|0:0,0:0:0:0:
205,203,50156,1,0,3:0:0:0:
346,144,50323,2,0,B|363:76|394:110|393:43|393:43|368:109|332:64|316:137,1,240,8|0,3:2|0:0,0:0:0:0:
307,203,50658,1,0,3:0:0:0:
145,335,50826,2,0,B|168:323|211:324|211:324|158:307|158:307|151:309|151:309|82:289,1,202.500000772476,8|0,0:2|0:0,0:0:0:0:
65,275,51161,5,2,3:1:0:0:
259,260,51329,2,0,B|348:209|435:314|373:288|424:368|496:352,1,240
491,270,51664,2,0,B|406:212|310:309|374:288|317:364|246:341,1,240,8|0,0:2|0:0,0:0:0:0:
267,342,51999,2,0,P|246:309|250:270,1,80,0|0,3:0|0:0,0:0:0:0:
307,203,52167,1,8,0:2:0:0:
336,31,52334,1,4,0:3:0:0:
336,31,52418,1,4,0:3:0:0:
336,31,52502,6,0,B|283:39|224:15|224:15|107:155|107:155|69:139|24:146,1,379.999989852906,2|0,3:1|3:0,0:0:0:0:
253,109,53005,1,8,3:2:0:0:
18,1,53172,2,0,L|55:253,1,240,2|0,0:0|0:0,0:0:0:0:
71,341,53508,2,0,P|12:299|52:239,1,160,10|0,0:2|0:0,0:0:0:0:
320,250,53843,6,0,P|166:243|158:99,1,320,2|0,3:1|3:0,0:0:0:0:
256,384,54346,1,8,0:2:0:0:
354,120,54513,2,0,L|449:102,1,80,8|0,0:2|0:0,0:0:0:0:
292,55,54681,2,0,L|387:37,1,80,0|0,3:2|0:0,0:0:0:0:
488,232,54849,2,0,L|393:214,1,75.0000028610231,8|0,0:2|0:0,0:0:0:0:
512,213,55017,2,0,L|417:195,1,75.0000028610231,0|0,3:0|0:0,0:0:0:0:
429,384,55184,6,0,B|250:351|391:314|208:275,1,240,2|0,3:1|0:0,0:0:0:0:
150,252,55520,1,0,3:0:0:0:
83,384,55686,2,0,B|261:351|120:314|303:275,1,240,8|0,3:2|0:0,0:0:0:0:
362,252,56022,1,0,3:0:0:0:
256,384,56190,1,8,0:2:0:0:
256,144,56357,1,4,0:3:0:0:
256,144,56441,1,4,0:3:0:0:
256,144,56525,5,2,3:1:0:0:
35,63,56692,2,0,B|120:40|120:40|199:83|199:83|200:77|200:77|254:66,1,240
328,38,57027,2,0,B|289:34|262:-1|262:-1|276:80|276:80|281:84|281:84|303:193,1,240,8|0,3:2|0:0,0:0:0:0:
308,171,57362,2,0,L|291:303,1,80,0|0,3:0|0:0,0:0:0:0:
281,329,57530,1,8,0:2:0:0:
85,380,57698,1,4,0:3:0:0:
85,380,57781,1,4,0:3:0:0:
85,380,57866,6,0,B|104:373|104:373|125:377|125:377|160:299|160:299|165:296|165:296|197:217|197:217|246:205|246:205|248:207|248:207|298:195,1,320,2|0,3:1|3:0,0:0:0:0:
71,294,58369,1,8,3:2:0:0:
327,375,58536,2,0,B|312:284|312:284|316:278|316:278|305:225|305:225|300:220|300:220|283:128,1,240,2|0,0:0|0:0,0:0:0:0:
262,21,58872,2,0,B|285:39|285:39|285:45|285:45|321:71|321:71|300:106|300:106|301:111|301:111|285:141,1,160,10|0,0:2|0:0,0:0:0:0:
101,187,59206,6,0,B|138:161|138:161|141:162|141:162|168:143|168:143|212:182|212:182|214:187|214:187|240:213|240:213|245:214|245:214|283:250,1,240,2|0,3:1|0:0,0:0:0:0:
346,301,59541,2,0,B|424:294|424:294|426:291|426:291|504:282,1,160,0|8,3:0|3:2,0:0:0:0:
261,384,59877,6,0,L|176:373,1,75.0000028610231
159,251,60044,2,0,L|79:307,1,75.0000028610231,0|0,3:0|0:0,0:0:0:0:
21,93,60212,2,0,L|0:363,1,269.999991760254,8|0,0:2|0:0,0:0:0:0:
0,362,60547,6,0,B|106:379|106:379|236:287|236:287|327:304,1,359.999989013672,0|2,3:0|3:0,0:0:0:0:
327,304,61887,2,0,B|406:250|369:132|293:173|245:146|242:59|273:21|320:9,1,359.999989013672,2|2,0:0|0:0,0:0:0:0:
510,34,63117,5,0,0:0:0:0:
510,34,63228,6,0,P|501:93|494:153,1,119.999996337891,0|2,3:0|0:0,0:0:0:0:
404,98,63731,1,2,3:0:0:0:
419,205,63899,2,0,P|382:193|343:184,2,79.9999975585938,2|2|2,0:0|0:0|0:0,0:0:0:0:
498,279,64569,2,0,P|459:288|421:300,2,79.9999975585938,2|2|2,0:0|0:0|0:0,0:0:0:0:
376,363,65239,1,2,0:0:0:0:
256,288,65575,1,2,0:0:0:0:
65,369,65910,6,0,B|74:317|74:317|73:311|73:311|82:250,1,119.999996337891,0|2,3:0|0:0,0:0:0:0:
149,210,66413,2,0,P|103:173|44:181,1,119.999996337891,2|0,3:0|0:0,0:0:0:0:
82,250,66915,1,0,3:0:0:0:
0,47,67251,6,0,B|13:57|13:57|21:55|21:55|27:59|27:59|35:60|35:60|41:66|41:66|56:64|56:64|55:67|55:67|68:71|68:71|79:72|79:72|90:76|90:76|97:71|97:71|103:75|103:75|114:71|114:71|115:75|115:75|128:67|128:67|145:69|145:69|149:64|149:64|161:62|161:62|160:58|160:58|180:56|180:56|191:47|191:47|207:37|207:37|209:42|209:42|219:27|219:27|224:24|224:24,1,258.000003936768,6|2,0:3|0:0,0:0:0:0:
214,33,68480,5,0,0:0:0:0:
214,33,68591,6,0,B|258:28|258:28|294:35|294:35|332:29,1,119.999996337891,0|0,3:0|0:0,0:0:0:0:
412,5,69094,2,0,B|401:42|420:71|420:71|408:120|408:120|424:148|417:180,1,179.999994506836,0|0,3:0|3:0,0:0:0:0:
512,384,69932,5,10,3:2:0:0:
512,384,70267,1,8,3:2:0:0:
512,384,70603,1,10,3:2:0:0:
481,303,70770,1,0,3:0:0:0:
349,237,70938,1,10,3:2:0:0:
197,306,71105,1,0,3:0:0:0:
30,170,71273,6,0,B|48:201|48:201|22:321,1,120,2|0,3:0|0:0,0:0:0:0:
15,308,71608,1,0,3:0:0:0:
85,382,71776,2,0,L|122:227,1,160,10|0,0:2|3:0,0:0:0:0:
107,135,72279,2,0,B|192:88|287:150|225:188|306:240|392:204,1,320,10|0,0:2|3:0,0:0:0:0:
391,204,73117,1,10,0:2:0:0:
497,130,73284,2,0,P|482:200|475:268,1,139.999995727539,2|8,0:0|0:2,0:0:0:0:
512,384,73787,1,6,0:3:0:0:
512,384,73871,1,4,0:3:0:0:
512,384,73955,6,0,B|446:377|446:377|439:378|439:378|373:370,1,139.999995727539,2|2,3:0|3:0,0:0:0:0:
372,369,74457,1,10,0:2:0:0:
306,316,74625,2,0,B|256:321|256:321|251:320|251:320|201:326,1,104.999996795654,2|0,0:0|0:0,0:0:0:0:
164,341,74960,1,10,0:2:0:0:
164,341,75128,1,2,0:0:0:0:
67,302,75295,6,0,L|81:145,1,139.999995727539,2|2,3:0|3:0,0:0:0:0:
95,11,75798,1,10,0:2:0:0:
23,25,75966,2,0,P|38:62|68:83,1,69.9999978637696,2|0,0:0|3:0,0:0:0:0:
182,37,76301,1,10,0:2:0:0:
279,113,76468,1,2,3:0:0:0:
423,74,76636,6,0,P|386:133|391:210,1,139.999995727539,2|2,3:0|3:0,0:0:0:0:
387,201,77139,1,10,0:2:0:0:
266,197,77306,2,0,P|296:258|288:326,1,104.999996795654,2|0,0:0|0:0,0:0:0:0:
288,338,77641,1,10,0:2:0:0:
288,338,77809,1,2,0:0:0:0:
196,383,77976,6,0,L|353:372,1,139.999995727539,2|2,3:0|3:0,0:0:0:0:
436,339,78479,1,10,0:2:0:0:
495,386,78647,2,0,P|509:352|505:316,1,69.9999978637696,2|0,0:0|3:0,0:0:0:0:
432,189,78982,1,10,0:2:0:0:
487,95,79149,1,6,0:3:0:0:
487,95,79234,1,4,0:3:0:0:
487,95,79318,6,0,B|399:73|425:102|348:82,1,139.999995727539,2|2,3:0|3:0,0:0:0:0:
348,82,79821,1,10,0:2:0:0:
265,24,79988,2,0,B|207:38|227:17|162:33,1,104.999996795654,2|0,0:0|0:0,0:0:0:0:
123,46,80323,1,10,0:2:0:0:
123,46,80491,1,2,0:0:0:0:
19,0,80658,6,0,L|32:156,1,139.999995727539,2|2,3:0|3:0,0:0:0:0:
44,270,81161,1,10,0:2:0:0:
103,313,81329,2,0,P|116:278|111:242,1,69.9999978637696,2|0,0:0|3:0,0:0:0:0:
37,348,81664,1,10,0:2:0:0:
37,348,81832,1,2,0:0:0:0:
165,380,81999,6,0,P|233:367|303:359,1,139.999995727539,2|2,3:0|3:0,0:0:0:0:
291,286,82502,2,0,P|221:294|152:306,1,139.999995727539,8|0,0:2|3:0,0:0:0:0:
165,380,83005,1,8,0:2:0:0:
346,223,83340,5,2,3:0:0:0:
346,223,83508,1,2,0:0:0:0:
291,159,83675,2,0,P|256:154|221:148,1,69.9999978637696,2|10,3:0|0:2,0:0:0:0:
157,102,84010,1,2,0:0:0:0:
157,102,84178,1,2,3:0:0:0:
195,222,84346,1,10,0:2:0:0:
303,85,84513,1,6,0:3:0:0:
303,85,84597,1,4,0:3:0:0:
303,85,84681,6,0,P|372:93|441:105,1,139.999995727539,2|2,3:0|3:0,0:0:0:0:
453,32,85184,2,0,P|384:19|314:11,1,139.999995727539,8|0,0:2|3:0,0:0:0:0:
303,85,85687,1,8,0:2:0:0:
82,17,86022,5,2,3:0:0:0:
82,17,86189,1,2,0:0:0:0:
136,90,86357,1,2,3:0:0:0:
136,90,86524,1,10,0:2:0:0:
75,177,86692,1,2,0:0:0:0:
150,284,86860,1,2,3:0:0:0:
234,167,87027,1,10,0:2:0:0:
33,249,87195,1,2,0:0:0:0:
171,384,87362,6,0,P|239:371|309:363,1,139.999995727539,2|2,3:0|3:0,0:0:0:0:
297,290,87865,2,0,P|227:298|158:310,1,139.999995727539,8|0,0:2|3:0,0:0:0:0:
171,384,88368,1,8,0:2:0:0:
0,174,88703,5,0,3:0:0:0:
47,77,88871,1,2,0:0:0:0:
148,104,89038,1,2,3:0:0:0:
148,104,89206,1,10,0:2:0:0:
277,30,89374,1,2,0:0:0:0:
247,123,89541,1,2,3:0:0:0:
377,135,89709,1,10,0:2:0:0:
436,219,89876,1,2,0:0:0:0:
393,332,90044,5,2,0:0:0:0:
393,332,90379,2,0,P|434:373|493:375,1,119.999996337891,2|2,0:0|0:0,0:0:0:0:
493,374,91049,2,0,P|448:332|384:336,1,119.999996337891,2|2,0:0|0:0,0:0:0:0:
0,71,92725,6,0,P|68:57|137:45,1,139.999995727539,0|2,3:0|3:0,0:0:0:0:
137,44,93227,1,8,0:2:0:0:
212,63,93396,2,0,P|243:127|227:186,1,104.999996795654,2|0,0:0|0:0,0:0:0:0:
220,191,93730,1,8,0:2:0:0:
282,332,94066,2,0,P|331:322|421:306,1,139.999995727539,2|2,0:0|0:0,0:0:0:0:
419,306,94568,1,10,0:2:0:0:
368,364,94737,2,0,P|319:354|229:338,1,139.999995727539,2|8,0:0|0:2,0:0:0:0:
7,377,95295,5,0,0:0:0:0:
7,377,95407,5,2,3:0:0:0:
59,320,95575,2,0,B|52:287|52:287|53:284|53:284|45:242,2,69.9999978637696,2|2|10,0:0|0:0|0:2,0:0:0:0:
127,355,96077,2,0,B|177:344|177:344|182:346|182:346|246:334,1,104.999996795654,2|0,0:0|0:0,0:0:0:0:
267,327,96413,1,10,0:2:0:0:
424,348,96748,2,0,L|412:257,1,69.9999978637696,2|2,0:0|0:0,0:0:0:0:
441,208,97083,1,2,3:0:0:0:
441,208,97251,1,10,0:2:0:0:
389,150,97418,1,2,0:0:0:0:
509,56,97753,5,10,0:2:0:0:
467,65,97837,1,2,0:0:0:0:
426,60,97921,1,2,0:0:0:0:
393,37,98005,1,2,0:0:0:0:
368,2,98089,6,0,B|259:7|327:35|212:44,1,139.999995727539,2|2,3:0|3:0,0:0:0:0:
236,41,98591,1,8,0:2:0:0:
160,24,98759,2,0,P|173:89|180:142,1,104.999996795654,2|0,0:0|0:0,0:0:0:0:
182,165,99094,1,8,0:2:0:0:
132,310,99429,1,2,0:0:0:0:
132,310,99597,1,2,0:0:0:0:
208,303,99765,1,2,0:0:0:0:
263,355,99931,1,10,0:2:0:0:
337,333,100100,2,0,B|330:293|330:293|326:288|326:288|319:248|319:248|322:242|322:242|313:195,1,139.999995727539,2|8,0:0|0:2,0:0:0:0:
312,94,100658,5,0,0:0:0:0:
312,94,100770,6,0,L|236:80,1,69.9999978637696,2|2,3:0|0:0,0:0:0:0:
377,171,101105,2,0,L|313:197,1,69.9999978637696,2|10,0:0|0:2,0:0:0:0:
484,148,101441,2,0,B|470:196|470:196|467:195|467:195|453:244,1,104.999996795654,2|0,0:0|0:0,0:0:0:0:
437,280,101776,1,10,0:2:0:0:
512,384,102111,6,0,L|511:374,4,10,2|2|2|2|2,0:0|0:0|0:0|0:0|0:0,0:0:0:0:
302,67,103452,6,0,B|258:60|258:60|147:162|147:162|102:156,1,239.999992675781,6|2,3:2|3:0,0:0:0:0:
353,0,103955,1,10,0:2:0:0:
465,131,104123,2,0,B|477:185|477:185|430:245,1,119.999996337891,2|0,0:0|3:0,0:0:0:0:
437,235,104374,1,0,0:0:0:0:
437,235,104458,1,8,0:2:0:0:
288,376,104625,1,0,0:0:0:0:
0,332,104793,6,0,B|77:272|77:272|218:289,1,239.999992675781,2|2,3:0|3:0,0:0:0:0:
100,164,105296,1,10,0:2:0:0:
218,289,105463,2,0,B|274:296|274:296|327:254,1,119.999996337891,2|0,0:0|3:0,0:0:0:0:
462,131,105799,1,8,0:2:0:0:
256,56,105966,1,4,0:3:0:0:
256,56,106050,1,4,0:3:0:0:
256,56,106133,6,0,B|317:62|317:62|374:22|374:22|432:25,3,189.999994926453,2|2|2|10,3:0|0:0|3:0|0:2,0:0:0:0:
256,56,106804,1,2,0:0:0:0:
256,56,106972,1,0,3:0:0:0:
462,131,107139,1,10,0:2:0:0:
462,131,107474,6,0,B|475:214|475:214|424:295|424:295|433:374,3,259.999988098145,2|2|2|10,3:0|0:0|3:0|0:2,0:0:0:0:
462,131,108144,1,2,0:0:0:0:
462,131,108312,1,0,3:0:0:0:
256,344,108479,1,8,0:2:0:0:
512,384,108647,1,0,3:0:0:0:
256,192,108815,6,0,B|83:232|212:262|48:294,1,239.999992675781,2|2,3:0|3:0,0:0:0:0:
256,344,109318,1,10,0:2:0:0:
77,197,109486,2,0,P|54:128|47:68,1,119.999996337891,2|0,0:0|3:0,0:0:0:0:
47,81,109737,1,0,0:0:0:0:
47,81,109821,1,8,0:2:0:0:
256,192,109988,1,0,0:0:0:0:
512,112,110156,6,0,P|394:86|275:72,1,239.999992675781,2|2,3:0|3:0,0:0:0:0:
444,0,110659,1,10,0:2:0:0:
275,72,110826,2,0,P|217:82|157:87,1,119.999996337891,2|0,0:0|3:0,0:0:0:0:
11,11,111162,1,8,0:2:0:0:
222,273,111329,1,4,0:3:0:0:
222,273,111413,1,4,0:3:0:0:
222,273,111496,6,0,B|198:134|184:233|164:93,3,189.999994926453,2|2|2|10,3:0|0:0|3:0|0:2,0:0:0:0:
222,273,112167,1,2,0:0:0:0:
222,273,112335,1,0,3:0:0:0:
379,19,112502,1,10,0:2:0:0:
379,19,112838,6,0,B|371:72|364:40|356:91,3,75.0000028610231,2|2|2|2,0:0|0:0|0:0|0:2,0:0:0:0:
379,19,113508,2,0,P|458:44|479:146,1,150,2|0,0:0|0:0,0:0:0:0:
475,174,113843,1,2,0:2:0:0:
135,130,114178,6,0,B|116:57|83:94|84:22|84:22|111:93|150:45|167:123,1,255.000004863739,6|0,3:1|0:0,0:0:0:0:
179,193,114514,1,0,3:0:0:0:
377,130,114681,2,0,B|396:57|429:94|428:22|428:22|401:93|362:45|345:123,1,255.000004863739,10|0,3:2|0:0,0:0:0:0:
333,193,115017,1,0,3:0:0:0:
80,384,115184,6,0,B|259:351|118:314|301:275,1,255.000004863739,10|0,0:2|0:0,0:0:0:0:
380,259,115520,1,2,3:1:0:0:
432,384,115686,2,0,B|253:351|394:314|211:275,1,255.000004863739,2|0,0:0|0:0,0:0:0:0:
132,259,116022,1,8,0:2:0:0:
256,384,116190,5,2,0:0:0:0:
256,208,116357,1,0,3:0:0:0:
256,38,116525,1,8,0:2:0:0:
483,168,116692,1,4,0:3:0:0:
483,168,116776,1,4,0:3:0:0:
483,168,116860,6,0,B|423:81|423:81|360:103|360:103|357:99|357:99|304:115|304:115|304:120|304:120|222:145|222:145|211:120|211:120|208:119|208:119|194:91,1,379.999989852906,2|0,3:1|3:0,0:0:0:0:
388,184,117362,1,8,3:2:0:0:
505,0,117530,6,0,B|498:57|498:57|495:60|495:60|491:106|491:106|492:109|492:109|483:173,1,170.000003242493,2|0,0:0|3:0,0:0:0:0:
388,184,117782,1,2,0:0:0:0:
388,184,117865,2,0,B|394:126|394:126|397:123|397:123|401:77|401:77|400:74|400:74|409:10,1,170.000003242493,10|2,0:2|0:0,0:0:0:0:
308,267,118201,2,0,B|365:273|365:273|368:276|368:276|414:280|414:280|417:279|417:279|481:288,1,170.000003242493,2|0,3:1|0:0,0:0:0:0:
491,384,118453,1,2,0:0:0:0:
491,384,118536,2,0,B|433:377|433:377|430:374|430:374|384:370|384:370|381:371|381:371|317:362,1,170.000003242493,0|10,3:0|0:2,0:0:0:0:
84,172,118871,6,0,L|0:182,1,85.0000016212464,10|0,0:2|0:0,0:0:0:0:
104,9,119039,2,0,L|127:91,1,85.0000016212464,0|0,3:2|0:0,0:0:0:0:
111,282,119206,2,0,L|-16:266,1,85.0000016212464,10|0,0:2|0:0,0:0:0:0:
227,91,119374,2,0,L|213:175,1,85.0000016212464,0|0,3:0|0:0,0:0:0:0:
80,384,119541,6,0,B|259:351|118:314|301:275,1,255.000004863739,2|0,3:1|0:0,0:0:0:0:
380,259,119876,1,0,3:0:0:0:
432,384,120044,2,0,B|253:351|394:314|211:275,1,255.000004863739,10|0,3:2|0:0,0:0:0:0:
132,259,120379,1,0,3:0:0:0:
377,130,120547,6,0,B|396:57|429:94|428:22|428:22|401:93|362:45|345:123,1,255.000004863739,10|0,0:2|0:0,0:0:0:0:
333,193,120883,1,2,3:1:0:0:
135,130,121050,2,0,B|116:57|83:94|84:22|84:22|111:93|150:45|167:123,1,255.000004863739,2|0,0:0|0:0,0:0:0:0:
179,193,121386,1,8,3:2:0:0:
380,259,121552,5,2,0:0:0:0:
256,384,121720,1,0,3:0:0:0:
132,259,121887,1,8,0:2:0:0:
442,366,122055,1,4,0:3:0:0:
442,366,122139,1,4,0:3:0:0:
442,366,122223,6,0,B|552:255|456:103|440:151|376:95|402:25,1,379.999989852906,2|0,3:1|3:0,0:0:0:0:
381,259,122725,1,8,3:2:0:0:
487,8,122893,6,0,B|543:56|520:145|482:159|488:202|483:203|489:247,1,224.000002734375,2|0,0:0|3:0,0:0:0:0:
402,26,123228,1,10,0:2:0:0:
25,8,123563,6,0,B|-31:56|-15:144|41:168|33:208|25:240|17:256|25:272,1,226.66667098999,2|0,3:1|0:0,0:0:0:0:
110,26,124066,1,10,3:2:0:0:
210,341,124234,6,0,P|256:357|302:341,2,100,2|0|10,0:0|3:0|0:2,0:0:0:0:
456,194,124904,6,0,L|447:330,1,119.999996337891,0|0,3:0|0:0,0:0:0:0:
448,313,125407,1,8,0:2:0:0:
462,110,125742,1,2,0:0:0:0:
479,181,125910,1,10,0:2:0:0:
327,7,126245,6,0,L|336:143,1,119.999996337891,2|0,0:0|0:2,0:0:0:0:
334,126,126748,1,10,0:2:0:0:
252,104,126915,2,0,B|249:123|249:123|251:125|251:125|247:145|247:145|250:148|250:148|246:168,2,59.9999981689454,2|0|10,0:0|0:2|0:2,0:0:0:0:
252,104,127418,1,0,0:0:0:0:
168,26,127586,6,0,P|112:50|44:66,1,119.999996337891,0|2,3:0|0:0,0:0:0:0:
54,64,128089,1,8,0:2:0:0:
133,231,128424,5,2,0:0:0:0:
164,150,128591,1,8,0:2:0:0:
77,164,128759,1,2,0:0:0:0:
133,231,128927,2,0,L|196:244,2,59.9999981689454,2|2|2,0:0|0:0|0:0,0:0:0:0:
133,231,129430,1,10,0:2:0:0:
38,349,129765,5,2,0:0:0:0:
101,314,129932,1,10,0:2:0:0:
165,348,130100,1,2,0:0:0:0:
233,334,130267,6,0,B|351:358|351:358|313:350|305:318,1,179.999994506836,2|10,0:0|0:2,0:0:0:0:
305,242,131105,1,2,0:0:0:0:
305,242,131273,1,10,0:2:0:0:
438,126,131608,6,0,B|332:98|361:178|268:152,1,179.999994506836,2|2,0:0|0:0,0:0:0:0:
186,126,132446,1,2,0:0:0:0:
186,126,132614,2,0,B|191:142|191:142|186:140|186:140|188:149|188:149|191:158|191:158|190:165|190:165|188:161|188:161|192:172|192:172|190:182|190:182|193:188|193:188|191:194|191:194|196:206,1,89.9999972534181,2|0,0:0|0:0,0:0:0:0:
197,232,132949,6,0,B|136:242|136:242|99:285|99:285|38:295,1,179.999994506836,2|2,0:0|0:0,0:0:0:0:
60,207,133787,1,2,0:0:0:0:
60,207,133955,1,2,0:0:0:0:
176,312,134290,6,0,P|272:325|359:341,1,179.999994506836,2|2,0:0|0:0,0:0:0:0:
451,364,135128,1,0,0:0:0:0:
451,364,135296,2,0,B|442:333|442:333|503:295|520:240|493:169|430:149|378:180,1,299.999990844727,2|0,0:0|0:0,0:0:0:0:
