osu file format v14

[General]
AudioFilename: audio.mp3
AudioLeadIn: 0
PreviewTime: 103368
Countdown: 0
SampleSet: Soft
StackLeniency: 0.3
Mode: 0
LetterboxInBreaks: 0
WidescreenStoryboard: 1

[Editor]
Bookmarks: 6915,17642,28368,39094,49820,60547,81999,92725,103452,114178,124904,135630
DistanceSpacing: 1.1
BeatDivisor: 8
GridSize: 16
TimelineZoom: 4.399998

[Metadata]
Title:MONTERO (Call Me By Your Name)
TitleUnicode:MONTERO (Call Me By Your Name)
Artist:Lil Nas X
ArtistUnicode:Lil Nas X
Creator:Aranel
Version:AISTRE X ALTAI'S GENESIS
Source:
Tags:pop english hip hop hiphop male vocals vocalist xandit xandeez nuts [poke] fursum -kemsyt aistre venax alphabet altai gay lgbt pride
BeatmapID:3243939
BeatmapSetID:1533112

[Difficulty]
HPDrainRate:5
CircleSize:4
OverallDifficulty:8.2
ApproachRate:9.2
SliderMultiplier:3.59999990463257
SliderTickRate:1

[Events]
//Background and Video events
0,0,"no.jpg",0,0
//Break Periods
//Storyboard Layer 0 (Background)
//Storyboard Layer 1 (Fail)
//Storyboard Layer 2 (Pass)
//Storyboard Layer 3 (Foreground)
//Storyboard Layer 4 (Overlay)
//Storyboard Sound Samples

[TimingPoints]
1553,670.391061452514,4,2,1,50,1,0
1553,-100,4,2,1,15,0,0
6915,-125,4,2,1,40,0,0
16636,-200,4,2,1,30,0,0
17642,-200,4,2,1,55,0,0
18144,-83.3333333333333,4,2,1,55,0,0
18982,-100,4,2,1,55,0,0
19485,-166.666666666667,4,2,1,55,0,0
20826,-83.3333333333333,4,2,1,55,0,0
21664,-100,4,2,1,55,0,0
22167,-166.666666666667,4,2,1,55,0,0
22670,-100,4,2,1,55,0,0
23508,-76.9230769230769,4,2,1,55,0,0
24346,-100,4,2,1,55,0,0
24848,-166.666666666667,4,2,1,55,0,0
26189,-83.3333333333333,4,2,1,55,0,0
26692,-66.6666666666667,4,2,1,55,0,0
27027,-166.666666666667,4,2,1,55,0,0
27698,-50,4,2,1,55,0,0
28368,-50,4,2,1,45,0,0
28703,-133.333333333333,4,2,1,45,0,0
33563,-133.333333333333,4,2,1,5,0,0
33731,-133.333333333333,4,2,1,45,0,0
37335,-133.333333333333,4,2,1,5,0,0
37418,-133.333333333333,4,2,1,45,0,0
37753,-133.333333333333,4,2,1,30,0,0
38424,-200,4,2,1,30,0,0
39094,-50,4,2,1,60,0,0
39429,-66.6666666666667,4,2,1,60,0,0
39765,-44.4444444444445,4,2,1,60,0,0
40435,-50,4,2,1,60,0,0
41552,-133.333333333333,4,2,1,60,0,0
41776,-50,4,2,1,60,0,0
42446,-44.4444444444445,4,2,1,60,0,0
42781,-66.6666666666667,4,2,1,60,0,0
43117,-133.333333333333,4,2,1,60,0,0
43787,-80,4,2,1,60,0,0
43913,-80,4,2,1,5,0,0
43955,-80,4,2,1,60,0,0
44457,-50,4,2,1,60,0,0
44792,-66.6666666666667,4,2,1,60,0,0
45128,-44.4444444444445,4,2,1,60,0,0
45798,-50,4,2,1,60,0,0
46915,-133.333333333333,4,2,1,60,0,0
47139,-50,4,2,1,60,0,0
47809,-44.4444444444445,4,2,1,60,0,0
48144,-66.6666666666667,4,2,1,60,0,0
48480,-133.333333333333,4,2,1,60,0,0
49150,-80,4,2,1,60,0,0
49276,-80,4,2,1,5,0,0
49318,-80,4,2,1,60,0,0
49485,-50,4,2,1,60,0,0
49820,-40,4,2,1,80,0,0
50156,-40,4,2,1,80,0,0
50323,-50,4,2,1,80,0,0
50575,-50,4,2,1,5,0,0
50659,-50,4,2,1,80,0,0
51329,-66.6666666666667,4,2,1,80,0,0
51580,-66.6666666666667,4,2,1,5,0,0
51664,-66.6666666666667,4,2,1,80,0,0
51915,-66.6666666666667,4,2,1,5,0,0
51999,-66.6666666666667,4,2,1,80,0,0
52083,-66.6666666666667,4,2,1,5,0,0
52167,-66.6666666666667,4,2,1,80,0,0
52502,-40,4,2,1,80,0,0
52837,-40,4,2,1,80,0,0
53172,-66.6666666666667,4,2,1,80,0,0
53508,-66.6666666666667,4,2,1,80,0,0
54597,-66.6666666666667,4,2,1,5,0,0
54681,-66.6666666666667,4,2,1,80,0,0
54765,-66.6666666666667,4,2,1,5,0,0
54849,-66.6666666666667,4,2,1,80,0,0
54932,-66.6666666666667,4,2,1,5,0,0
55016,-66.6666666666667,4,2,1,80,0,0
55100,-66.6666666666667,4,2,1,5,0,0
55184,-40,4,2,1,80,0,0
55519,-40,4,2,1,80,0,0
55686,-50,4,2,1,80,0,0
55938,-50,4,2,1,5,0,0
56022,-50,4,2,1,80,0,0
56692,-66.6666666666667,4,2,1,80,0,0
57027,-66.6666666666667,4,2,1,80,0,0
57279,-66.6666666666667,4,2,1,5,0,0
57363,-66.6666666666667,4,2,1,80,0,0
57446,-66.6666666666667,4,2,1,5,0,0
57530,-66.6666666666667,4,2,1,80,0,0
57865,-40,4,2,1,80,0,0
58201,-40,4,2,1,80,0,0
58536,-66.6666666666667,4,2,1,80,0,0
58871,-66.6666666666667,4,2,1,80,0,0
59457,-66.6666666666667,4,2,1,5,0,0
59541,-66.6666666666667,4,2,1,80,0,0
60547,-200,4,2,1,45,0,0
61887,-133.333333333333,4,2,1,45,0,0
63228,-105.263157894737,4,2,1,45,0,0
63731,-153.846153846154,4,2,1,45,0,0
64569,-153.846153846154,4,2,1,45,0,0
65910,-76.9230769230769,4,2,1,45,0,0
67251,-250,4,2,1,45,0,0
68591,-117.647058823529,4,2,1,45,0,0
71273,-117.647058823529,4,2,1,55,0,0
71776,-66.6666666666667,4,2,1,55,0,0
72279,-200,4,2,1,55,0,0
73117,-66.6666666666667,4,2,1,55,0,0
73619,-100,4,2,1,55,0,0
73955,-100,4,2,1,55,0,0
74876,-100,4,2,1,5,0,0
74960,-100,4,2,1,55,0,0
76636,-66.6666666666667,4,2,1,55,0,0
77558,-66.6666666666667,4,2,1,5,0,0
77642,-66.6666666666667,4,2,1,55,0,0
77977,-80,4,2,1,55,0,0
79318,-66.6666666666667,4,2,1,55,0,0
80239,-66.6666666666667,4,2,1,5,0,0
80323,-66.6666666666667,4,2,1,55,0,0
80658,-86.9565217391304,4,2,1,55,0,0
81329,-66.6666666666667,4,2,1,55,0,0
81664,-50,4,2,1,55,0,0
81999,-50,4,2,1,55,0,0
82502,-66.6666666666667,4,2,1,55,0,0
85184,-50,4,2,1,55,0,0
86022,-66.6666666666667,4,2,1,55,0,0
87865,-50,4,2,1,55,0,0
88871,-80,4,2,1,55,0,0
90044,-80,4,2,1,30,0,0
91049,-71.4285714285714,4,2,1,30,0,0
92725,-117.647058823529,4,2,1,50,0,0
93647,-117.647058823529,4,2,1,5,0,0
93731,-117.647058823529,4,2,1,50,0,0
96329,-117.647058823529,4,2,1,5,0,0
96413,-117.647058823529,4,2,1,50,0,0
99010,-117.647058823529,4,2,1,5,0,0
99094,-117.647058823529,4,2,1,50,0,0
101692,-117.647058823529,4,2,1,5,0,0
101776,-117.647058823529,4,2,1,50,0,0
102111,-117.647058823529,4,2,1,30,0,0
103452,-50,4,2,1,60,0,0
103787,-66.6666666666667,4,2,1,60,0,0
104122,-44.4444444444445,4,2,1,60,0,0
104793,-50,4,2,1,60,0,0
105966,-133.333333333333,4,2,1,60,0,0
106133,-50,4,2,1,60,0,0
106804,-44.4444444444445,4,2,1,60,0,0
107139,-66.6666666666667,4,2,1,60,0,0
107474,-133.333333333333,4,2,1,60,0,0
108144,-80,4,2,1,60,0,0
108815,-50,4,2,1,60,0,0
109150,-66.6666666666667,4,2,1,60,0,0
109485,-44.4444444444445,4,2,1,60,0,0
110156,-50,4,2,1,60,0,0
111329,-133.333333333333,4,2,1,60,0,0
111496,-50,4,2,1,60,0,0
112167,-44.4444444444445,4,2,1,60,0,0
112502,-66.6666666666667,4,2,1,60,0,0
112837,-133.333333333333,4,2,1,60,0,0
113508,-66.6666666666667,4,2,1,60,0,0
113759,-66.6666666666667,4,2,1,5,0,0
113843,-44.4444444444445,4,2,1,60,0,0
114094,-44.4444444444445,4,2,1,5,0,0
114178,-40,4,2,1,80,0,1
114429,-40,4,2,1,5,0,1
114513,-40,4,2,1,80,0,1
114681,-50,4,2,1,80,0,1
114932,-50,4,2,1,5,0,1
115016,-100,4,2,1,80,0,1
115184,-40,4,2,1,80,0,1
115435,-40,4,2,1,5,0,1
115519,-100,4,2,1,80,0,1
115686,-50,4,2,1,80,0,1
115938,-50,4,2,1,5,0,1
116022,-50,4,2,1,80,0,1
116189,-40,4,2,1,80,0,1
116860,-50,4,2,1,80,0,1
117530,-50,4,2,1,80,0,1
118200,-40,4,2,1,80,0,1
118955,-40,4,2,1,5,0,1
119038,-100,4,2,1,80,0,1
119206,-100,4,2,1,80,0,1
119374,-100,4,2,1,80,0,1
119541,-40,4,2,1,80,0,1
119793,-40,4,2,1,5,0,1
119876,-66.6666666666667,4,2,1,80,0,1
120044,-50,4,2,1,80,0,1
120295,-50,4,2,1,5,0,1
120379,-100,4,2,1,80,0,1
120547,-40,4,2,1,80,0,1
120882,-40,4,2,1,80,0,1
121049,-46.5116279069767,4,2,1,80,0,1
121301,-46.5116279069767,4,2,1,5,0,1
121385,-46.5116279069767,4,2,1,80,0,1
121552,-40,4,2,1,80,0,1
122223,-50,4,2,1,80,0,1
122893,-50,4,2,1,80,0,1
123019,-50,4,2,1,5,0,1
123061,-50,4,2,1,80,0,1
123186,-50,4,2,1,5,0,1
123228,-50,4,2,1,80,0,1
123563,-40,4,2,1,80,0,1
124234,-80,4,2,1,80,0,1
124904,-100,4,2,1,45,0,0
130267,-400,4,2,1,30,0,0
130687,-400,4,2,1,5,0,0
130770,-40,4,2,1,30,0,0
131608,-400,4,2,1,30,0,0
132027,-400,4,2,1,5,0,0
132111,-40,4,2,1,30,0,0
132865,-40,4,2,1,5,0,0
132949,-400,4,2,1,30,0,0
133368,-400,4,2,1,5,0,0
133452,-40,4,2,1,30,0,0
134290,-400,4,2,1,30,0,0
134709,-400,4,2,1,5,0,0
134793,-40,4,2,1,30,0,0
135295,-666.666666666667,4,2,1,30,0,0
136301,-666.666666666667,4,2,1,5,0,0

[Colours]
Combo1 : 215,19,236
Combo2 : 226,29,18
Combo3 : 112,55,217
Combo4 : 190,91,78

[HitObjects]
256,289,6916,5,2,0:0:0:0:
209,351,7084,2,0,P|142:325|149:288,2,108,2|0|2,0:0|0:0|0:0,0:0:0:0:
303,227,7922,2,0,P|361:251|368:270,1,72,2|2,0:0|0:0,0:0:0:0:
427,365,8257,6,0,P|439:298|513:283,1,144,2|0,0:0|0:0,0:0:0:0:
256,289,9430,5,2,0:0:0:0:
209,351,9598,2,0,P|174:338|130:333,1,72,2|2,0:0|0:0,0:0:0:0:
303,227,9933,2,0,P|338:240|382:245,1,72,2|2,0:0|0:0,0:0:0:0:
136,322,10268,6,0,P|160:251|179:178,1,144,2|2,0:0|0:0,0:0:0:0:
242,141,10771,1,2,0:0:0:0:
206,76,10939,2,0,P|136:57|68:34,1,144,2|0,0:0|0:0,0:0:0:0:
256,289,12112,5,2,0:0:0:0:
303,351,12280,2,0,P|358:333|363:302,1,72,2|2,0:0|0:0,0:0:0:0:
209,227,12615,2,0,P|154:245|149:276,1,72,2|2,0:0|0:0,0:0:0:0:
348,249,12950,6,0,P|364:176|388:99,1,144,2|2,0:0|0:0,0:0:0:0:
344,44,13453,1,2,0:0:0:0:
410,8,13620,2,0,P|471:34|451:109,1,144,2|0,0:0|0:0,0:0:0:0:
357,243,14123,5,2,0:0:0:0:
188,152,14291,2,0,P|246:132|272:126,1,71.9999980926514,2|2,0:0|0:0,0:0:0:0:
213,223,14626,2,0,P|271:203|297:197,1,71.9999980926514,2|2,0:0|0:0,0:0:0:0:
137,87,14961,6,0,P|85:74|49:63,1,72,2|2,0:0|0:0,0:0:0:0:
66,206,15296,2,0,P|28:244|1:270,1,72,2|0,0:0|0:0,0:0:0:0:
172,298,15631,2,0,P|255:325|324:361,1,144,2|2,0:0|0:0,0:0:0:0:
370,309,16134,1,2,0:0:0:0:
419,367,16302,2,0,P|467:345|453:291,1,108,2|0,0:0|0:0,0:0:0:0:
461,220,16637,6,0,B|473:180|473:180|471:175|471:175|485:125,2,90,2|2|2,0:0|0:0|0:0,0:0:0:0:
257,115,17643,6,0,P|277:157|327:161,1,90,2|2,3:0|3:0,0:0:0:0:
342,76,18145,2,0,P|246:96|152:106,1,161.999995056153,10|0,0:2|0:0,0:0:0:0:
177,113,18481,1,2,3:0:0:0:
18,82,18648,6,0,P|-4:29|44:2,1,107.999996704102,10|2,0:2|0:0,0:0:0:0:
95,65,18983,2,0,B|111:110|75:158|59:128|27:178|52:234,1,180,2|0,3:0|3:0,0:0:0:0:
56,366,19486,6,0,P|35:332|19:315,1,53.9999983520508,8|0,0:2|0:0,0:0:0:0:
186,326,19821,1,0,3:0:0:0:
183,317,19989,2,0,P|201:281|208:259,1,53.9999983520508,8|2,0:2|0:0,0:0:0:0:
314,383,20324,6,0,P|353:381|376:376,2,53.9999983520508,2|2|2,3:0|0:0|3:0,0:0:0:0:
386,231,20827,2,0,P|457:228|469:354,1,215.999993408203,10|2,0:2|3:0,0:0:0:0:
309,374,21330,2,0,P|294:330|350:302,1,107.999996704102,10|2,0:2|0:0,0:0:0:0:
458,201,21665,6,0,P|468:119|476:65,1,135,2|0,3:0|0:0,0:0:0:0:
469,73,22000,1,0,3:0:0:0:
294,97,22168,6,0,P|275:72|275:48,2,53.9999983520508,8|2|2,0:2|0:0|3:0,0:0:0:0:
356,13,22671,2,0,P|382:47|381:92,1,90,10|2,0:2|0:0,0:0:0:0:
337,296,23006,6,0,P|254:277|144:265,1,180,2|2,3:0|3:0,0:0:0:0:
11,316,23509,2,0,P|-7:256|99:244,1,175.499991966248,10|0,0:2|0:0,0:0:0:0:
85,234,23844,1,2,3:0:0:0:
149,372,24011,6,0,P|223:360|230:315,1,116.999994644165,10|2,0:2|0:0,0:0:0:0:
276,151,24347,2,0,B|285:190|234:230|223:216|196:207|164:233|164:284,1,180,2|0,3:0|3:0,0:0:0:0:
399,384,24849,6,0,P|415:378|433:372,1,26.9999991760254,8|0,0:2|0:0,0:0:0:0:
472,223,25185,1,0,3:0:0:0:
478,234,25352,2,0,P|491:244|505:257,2,26.9999991760254,10|0|2,0:2|0:0|0:0,0:0:0:0:
467,45,25687,5,2,3:0:0:0:
396,73,25855,1,2,0:0:0:0:
412,146,26023,1,2,3:0:0:0:
230,321,26190,6,0,P|234:263|285:248,1,107.999996704102,10|2,0:2|0:0,0:0:0:0:
343,282,26525,1,2,3:0:0:0:
398,338,26693,2,0,P|447:344|481:356,2,67.5000007867814,10|0|2,0:2|0:0|0:0,0:0:0:0:
183,157,27028,5,2,3:0:0:0:
125,205,27196,1,2,0:0:0:0:
60,166,27363,1,2,3:0:0:0:
0,212,27531,1,10,0:2:0:0:
80,96,27699,6,0,P|92:183|108:276,2,179.999995231629,2|2|10,0:0|3:0|0:2,0:0:0:0:
398,338,28369,5,0,0:0:0:0:
398,338,28704,5,2,0:0:0:0:
373,263,29039,2,0,P|291:259|295:363,1,202.500002360344,2|2,0:0|0:0,0:0:0:0:
201,373,29710,6,0,P|151:364|118:362,1,67.5000007867814,2|2,0:0|0:0,0:0:0:0:
230,272,30045,2,0,P|280:281|313:283,1,67.5000007867814,2|2,0:0|0:0,0:0:0:0:
190,186,30380,1,2,0:0:0:0:
477,353,31050,6,0,P|493:298|501:275,1,67.5000007867814,2|2,0:0|0:0,0:0:0:0:
468,155,31386,2,0,P|457:187|448:219,1,67.5000007867814,2|2,0:0|0:0,0:0:0:0:
390,317,31721,2,0,P|367:247|342:188,1,135.000001573563,2|2,0:0|0:0,0:0:0:0:
495,18,32391,6,0,P|452:32|440:60,1,67.5000007867814,2|2,0:0|0:0,0:0:0:0:
359,46,32726,2,0,P|349:90|367:114,1,67.5000007867814,2|2,0:0|0:0,0:0:0:0:
343,190,33062,1,2,0:0:0:0:
11,369,33732,5,0,0:0:0:0:
77,324,33900,1,2,0:0:0:0:
33,256,34067,1,2,0:0:0:0:
187,225,34402,2,0,P|200:166|220:95,1,135.000001573563,2|0,0:0|0:0,0:0:0:0:
3,1,35073,6,0,P|23:48|29:78,1,67.5000007867814,2|2,0:0|0:0,0:0:0:0:
15,183,35408,2,0,P|53:141|84:127,1,67.5000007867814,2|2,0:0|0:0,0:0:0:0:
149,54,35743,1,2,0:0:0:0:
149,54,36246,5,2,0:0:0:0:
220,94,36414,2,0,P|258:70|291:71,1,67.5000007867814,2|2,0:0|0:0,0:0:0:0:
341,18,36749,2,0,P|379:42|412:41,1,67.5000007867814,2|2,0:0|0:0,0:0:0:0:
497,30,37084,2,0,P|467:106|460:166,1,135.000001573563,2|2,0:0|0:0,0:0:0:0:
321,218,37754,6,0,P|349:268|349:292,1,67.5000007867814,2|2,0:0|0:0,0:0:0:0:
384,374,38090,2,0,P|415:329|444:315,1,67.5000007867814,2|2,0:0|0:0,0:0:0:0:
512,261,38425,6,0,P|439:245|421:239,1,89.9999976158143,2|0,0:0|0:0,0:0:0:0:
24,168,39095,6,0,P|35:84|118:72,1,179.999995231629,6|2,3:2|0:0,0:0:0:0:
213,264,39430,6,0,P|240:245|246:213,1,67.5000007867814,2|0,3:0|0:0,0:0:0:0:
149,224,39598,2,0,P|153:191|180:173,1,67.5000007867814,10|0,0:2|0:0,0:0:0:0:
98,330,39766,6,0,P|183:274|264:324,1,202.500002360344,2|0,0:0|3:0,0:0:0:0:
262,329,40017,1,0,0:0:0:0:
259,338,40101,1,8,0:2:0:0:
451,68,40436,6,0,B|411:30|487:-36|549:101|424:196|323:98,1,269.999992847443,2|0,3:0|0:0,0:0:0:0:
290,16,40771,1,2,3:0:0:0:
290,16,40939,2,0,P|254:44|268:101,1,89.9999976158143,10|0,0:2|0:0,0:0:0:0:
359,300,41106,6,0,B|347:209|347:209|350:203|350:203|339:120,2,179.999995231629,2|0|8,0:0|3:0|0:2,0:0:0:0:
487,370,41609,6,0,L|515:378,2,22.5000002622605,4|4|4,0:3|0:3|0:3,0:0:0:0:
365,308,41777,2,0,P|265:319|173:331,1,179.999995231629,2|2,3:0|0:0,0:0:0:0:
27,109,42112,2,0,P|72:107|99:157,1,89.9999976158143,2|0,3:0|0:0,0:0:0:0:
168,179,42280,2,0,P|183:221|144:262,1,89.9999976158143,10|0,0:2|0:0,0:0:0:0:
129,379,42447,6,0,B|166:303|90:201|61:284|1:176|34:114,1,303.750003540516,2|0,0:0|0:0,0:0:0:0:
106,137,42782,2,0,P|75:230|58:365,1,202.500002360344,10|0,0:2|0:0,0:0:0:0:
133,384,43118,6,0,P|157:361|153:320,2,67.5000007867814,2|2|2,3:0|0:0|3:0,0:0:0:0:
65,340,43620,1,10,0:2:0:0:
337,273,43788,6,0,B|299:267|299:267|294:269|294:269|242:262,1,84.3749977648258,2|0,0:0|0:0,0:0:0:0:
243,268,43956,1,0,3:0:0:0:
482,368,44123,5,8,0:2:0:0:
225,6,44458,6,0,B|180:36|180:36|311:84,1,179.999995231629,2|2,3:0|0:0,0:0:0:0:
473,81,44794,6,0,P|464:32|432:18,1,67.5000007867814,2|0,3:0|0:0,0:0:0:0:
380,47,44961,2,0,P|389:96|421:110,1,67.5000007867814,10|0,0:2|0:0,0:0:0:0:
469,250,45129,6,0,P|411:141|208:177,1,303.750003540516,2|0,0:0|0:0,0:0:0:0:
251,147,45464,1,8,0:2:0:0:
68,43,45799,6,0,B|67:2|6:-29|-48:25|-43:98|36:152|115:117,1,269.999992847443,2|0,3:0|0:0,0:0:0:0:
242,17,46134,1,2,3:0:0:0:
242,17,46302,2,0,P|289:53|283:91,1,89.9999976158143,10|0,0:2|0:0,0:0:0:0:
174,244,46469,6,0,P|166:135|158:58,2,179.999995231629,2|0|8,0:0|3:0|0:2,0:0:0:0:
334,348,46972,6,0,L|343:369,2,22.5000002622605,4|4|4,0:3|0:3|0:3,0:0:0:0:
101,280,47140,2,0,B|138:251|199:278|176:310|224:340|277:315,1,179.999995231629,2|2,3:0|0:0,0:0:0:0:
480,175,47475,2,0,P|439:161|400:181,1,89.9999976158143,2|0,3:0|0:0,0:0:0:0:
326,154,47643,2,0,P|300:189|307:233,1,89.9999976158143,10|0,0:2|0:0,0:0:0:0:
433,339,47810,6,0,P|447:223|488:23,1,303.750003540516,2|0,0:0|0:0,0:0:0:0:
472,47,48145,2,0,P|496:149|516:263,1,202.500002360344,10|0,0:2|0:0,0:0:0:0:
331,62,48481,6,0,P|334:26|371:9,2,67.5000007867814,2|2|2,3:0|0:0|3:0,0:0:0:0:
401,91,48983,1,10,0:2:0:0:
135,109,49151,6,0,B|158:107|179:116|172:124|197:137|215:135,1,84.3749977648258,2|0,0:0|0:0,0:0:0:0:
221,147,49319,1,0,3:0:0:0:
3,9,49486,6,0,B|13:88|13:88|11:95|11:95|25:212,1,179.999995231629,10|0,0:2|0:0,0:0:0:0:
290,265,49821,6,0,B|209:269|185:380|185:380|203:266|127:235,1,337.499991059303,6|0,3:1|0:0,0:0:0:0:
133,244,50157,1,0,3:0:0:0:
463,256,50324,6,0,B|497:223|481:181|455:152|388:152|316:222|375:336|464:392,1,359.999990463257,8|0,3:2|3:0,0:0:0:0:
221,147,50827,5,8,0:2:0:0:
501,21,51162,6,0,P|454:42|408:45,1,89.9999976158143,2|0,3:1|0:0,0:0:0:0:
315,61,51330,2,0,P|411:79|496:140,1,202.500002360344
496,131,51665,1,8,0:2:0:0:
290,265,51833,5,0,0:0:0:0:
372,193,52000,1,0,3:0:0:0:
290,265,52168,1,8,0:2:0:0:
65,68,52335,5,4,0:3:0:0:
71,60,52419,1,4,0:3:0:0:
77,54,52503,2,0,B|158:58|182:169|182:169|164:55|240:24,1,337.499991059303,2|0,3:1|0:0,0:0:0:0:
246,29,52838,1,0,3:0:0:0:
397,294,53006,5,8,3:2:0:0:
207,376,53173,6,0,P|216:331|230:306,1,67.5000007867814,2|0,0:0|0:0,0:0:0:0:
96,245,53341,2,0,P|130:285|139:310,1,67.5000007867814,0|0,3:0|0:0,0:0:0:0:
290,265,53509,2,0,P|302:190|237:173,1,135.000001573563,10|0,0:2|0:0,0:0:0:0:
14,268,53844,5,2,3:1:0:0:
98,235,54179,1,0,3:0:0:0:
64,151,54347,1,8,0:2:0:0:
207,376,54514,5,8,0:2:0:0:
258,168,54682,1,0,3:2:0:0:
207,376,54849,1,8,0:2:0:0:
355,281,55017,6,0,P|293:265|269:262,1,67.5000007867814,0|0,3:0|0:0,0:0:0:0:
64,151,55185,6,0,B|166:199|208:79|202:78|192:78|225:-26|327:2,1,337.499991059303,2|0,3:1|0:0,0:0:0:0:
316,7,55520,1,0,3:0:0:0:
101,69,55687,6,0,B|185:78|287:157|251:250|190:279|154:263|122:232|139:188,1,359.999990463257,8|0,3:2|3:0,0:0:0:0:
425,95,56190,5,8,0:2:0:0:
269,360,56358,5,4,0:3:0:0:
279,314,56442,1,4,0:3:0:0:
289,264,56525,1,2,3:1:0:0:
445,301,56693,6,0,P|495:242|403:232,1,202.500002360344
414,227,57028,1,8,3:2:0:0:
245,45,57196,5,0,0:0:0:0:
425,95,57363,1,0,3:0:0:0:
245,45,57531,1,8,0:2:0:0:
296,245,57699,5,4,0:3:0:0:
292,255,57782,1,4,0:3:0:0:
289,264,57866,2,0,B|187:312|145:192|151:191|161:191|128:87|26:115,1,337.499991059303,2|0,3:1|0:0,0:0:0:0:
37,119,58201,1,0,3:0:0:0:
249,180,58369,5,8,3:2:0:0:
7,371,58537,6,0,P|43:347|72:345,1,67.5000007867814,2|0,0:0|0:0,0:0:0:0:
181,373,58704,2,0,P|144:330|134:297,1,67.5000007867814,0|0,3:0|0:0,0:0:0:0:
113,140,58872,2,0,P|90:234|78:285,1,135.000001573563,10|0,0:2|0:0,0:0:0:0:
245,45,59207,5,2,3:1:0:0:
303,108,59542,1,0,3:0:0:0:
376,63,59710,1,8,3:2:0:0:
258,366,60045,5,0,3:0:0:0:
113,140,60213,1,8,0:2:0:0:
258,366,60380,1,0,0:0:0:0:
30,277,60547,6,0,P|205:246|363:222,1,337.499991059303,0|0,3:0|0:0,0:0:0:0:
362,222,61888,2,0,B|375:201|413:231|380:287|318:241|318:241|278:210|186:151|59:279|182:411|272:317|241:285,1,450.000005245209,2|0,0:0|0:0,0:0:0:0:
252,287,63117,1,0,0:0:0:0:
258,282,63229,6,0,B|211:249|154:290|175:315|128:357|62:331,1,213.749988629818,0|0,3:0|0:0,0:0:0:0:
12,377,63732,2,0,B|21:295|21:295|17:290|17:290|25:192,1,175.499987317086,2|0,3:0|3:0,0:0:0:0:
306,152,64570,6,0,B|201:149|160:290|160:290|193:145|98:98,1,438.749968292715,2|0,0:0|0:0,0:0:0:0:
97,111,65911,6,0,B|39:87|58:-26|227:-8|227:138,1,292.49997886181,2|0,3:2|0:0,0:0:0:0:
342,9,66414,2,0,P|309:104|260:304,1,292.49997886181,2|0,3:0|0:0,0:0:0:0:
273,308,66916,2,0,P|258:239|221:139,1,175.499987317086,2|0,3:2|0:0,0:0:0:0:
227,126,67252,6,0,B|273:96|342:121|315:158|380:191|430:158,1,215.999994277954,6|2,0:3|0:0,0:0:0:0:
499,363,68592,6,0,P|500:299|391:288,1,191.24999858141,0|0,3:0|0:0,0:0:0:0:
361,353,69095,2,0,P|269:328|118:305,1,229.499998297691,0|0,3:0|3:0,0:0:0:0:
2,189,69933,5,10,3:2:0:0:
11,190,70268,1,8,3:2:0:0:
19,196,70604,5,10,3:2:0:0:
79,239,70771,1,0,3:0:0:0:
182,255,70939,1,10,3:2:0:0:
305,196,71106,1,0,3:0:0:0:
372,45,71274,6,0,B|333:57|323:99|323:99|315:55|279:35,1,152.999998865128,2|0,3:0|3:0,0:0:0:0:
243,107,71777,2,0,P|356:88|458:72,1,202.500002360344,10|0,0:2|0:0,0:0:0:0:
447,65,72112,1,0,3:0:0:0:
177,14,72280,1,10,0:2:0:0:
177,14,72615,2,0,P|134:12|107:57,1,89.9999976158143,0|0,3:0|3:0,0:0:0:0:
9,101,73118,6,0,B|38:49|142:48|172:128|136:176|93:123,1,202.500002360344,10|0,0:2|0:0,0:0:0:0:
111,147,73453,1,0,3:0:0:0:
299,54,73620,1,8,0:2:0:0:
432,229,73788,6,0,L|425:262,2,29.9999992052714,6|4|4,0:3|0:3|0:3,0:0:0:0:
499,190,73956,6,0,B|459:209|414:189|428:155|379:128|331:146,1,179.999995231629,2|2,3:0|3:0,0:0:0:0:
196,270,74458,2,0,P|203:300|205:324,1,44.9999988079071,10|0,0:2|0:0,0:0:0:0:
126,232,74626,6,0,P|115:176|205:194,1,179.999995231629,2|10,0:0|0:2,0:0:0:0:
205,188,75129,1,2,0:0:0:0:
15,289,75296,6,0,P|88:279|195:268,1,179.999995231629,2|2,3:0|3:0,0:0:0:0:
352,340,75799,2,0,P|345:370|343:394,1,44.9999988079071,10|0,0:2|0:0,0:0:0:0:
284,299,75967,6,0,P|357:309|464:320,1,179.999995231629,2|10,0:0|0:2,0:0:0:0:
213,381,76469,1,2,3:0:0:0:
213,381,76637,6,0,B|204:267|204:267|206:262|206:262|192:104,1,270.000003147125,2|2,3:0|3:0,0:0:0:0:
44,11,77140,2,0,P|81:22|100:53,1,67.5000007867814,10|0,0:2|0:0,0:0:0:0:
200,106,77307,6,0,P|120:81|55:170,1,202.500002360344,2|0,0:0|0:0,0:0:0:0:
44,177,77643,1,10,0:2:0:0:
186,253,77810,1,2,0:0:0:0:
338,152,77978,6,0,B|505:135|505:135|476:147|464:179,1,224.999994039536,2|2,3:0|3:0,0:0:0:0:
450,273,78481,2,0,P|420:258|408:232,1,56.2499985098839,10|0,0:2|0:0,0:0:0:0:
484,67,78648,6,0,P|475:126|466:198,1,112.499997019768,2|0,0:0|3:0,0:0:0:0:
298,333,78983,1,10,0:2:0:0:
372,371,79151,6,0,L|414:365,2,37.4999990065893,6|4|4,0:3|0:3|0:3,0:0:0:0:
291,339,79319,6,0,B|250:371|189:351|177:308|182:302|187:296|162:227|116:216|58:254,1,270.000003147125,2|2,3:0|3:0,0:0:0:0:
221,195,79821,2,0,P|253:218|253:254,1,67.5000007867814,10|0,0:2|0:0,0:0:0:0:
173,343,79989,6,0,P|178:244|154:126,1,202.500002360344,2|0,0:0|0:0,0:0:0:0:
166,131,80324,1,10,0:2:0:0:
49,6,80492,2,0,P|15:20|3:56,1,67.5000007867814,2|0,0:0|0:0,0:0:0:0:
8,64,80659,6,0,B|112:53|112:53|118:56|118:56|238:43,1,206.999998464584,2|2,3:0|3:0,0:0:0:0:
279,88,81162,1,10,0:2:0:0:
448,40,81330,6,0,B|456:9|481:2|481:2|427:-7|390:61|410:108,1,202.500002360344,2|0,0:0|0:0,0:0:0:0:
356,156,81665,2,0,B|397:138|441:158|461:209|461:209|431:222|428:254,1,179.999995231629,10|2,0:2|0:0,0:0:0:0:
501,279,82000,6,0,P|394:273|276:376,1,269.999992847443,2|0,3:0|0:0,0:0:0:0:
276,374,82335,1,2,3:0:0:0:
204,123,82503,6,0,B|215:153|152:176|152:176|219:159|261:211,1,202.500002360344,8|0,0:2|0:0,0:0:0:0:
259,209,82838,1,0,3:0:0:0:
46,348,83006,6,0,P|153:333|189:234,1,202.500002360344,8|0,0:2|0:0,0:0:0:0:
190,255,83341,1,2,3:0:0:0:
410,363,83509,5,2,0:0:0:0:
367,193,83676,1,2,3:0:0:0:
410,363,83844,1,10,0:2:0:0:
153,176,84011,5,2,0:0:0:0:
459,253,84178,1,2,3:0:0:0:
153,176,84346,1,10,0:2:0:0:
459,253,84513,1,6,0:3:0:0:
266,67,84681,6,0,B|274:85|274:85|258:153,1,67.5000007867814,2|0,3:0|0:0,0:0:0:0:
256,134,85017,1,2,3:0:0:0:
17,381,85185,6,0,B|89:336|148:222|76:152|9:152|-16:181|-32:223|1:256,1,359.999990463257,8|0,0:2|3:0,0:0:0:0:
154,348,85687,6,0,B|324:312|324:312|266:318|225:283,1,269.999992847443,8|0,0:2|0:0,0:0:0:0:
232,289,86023,5,2,3:0:0:0:
258,208,86190,1,2,0:0:0:0:
402,173,86358,5,2,3:0:0:0:
320,147,86525,1,10,0:2:0:0:
285,3,86693,6,0,L|262:83,1,67.5000007867814,2|0,0:0|0:0,0:0:0:0:
329,141,86861,2,0,L|352:61,1,67.5000007867814,2|0,3:0|0:0,0:0:0:0:
127,107,87028,5,10,0:2:0:0:
209,133,87195,1,2,0:0:0:0:
44,239,87363,6,0,B|56:206|56:206|26:173,1,67.5000007867814,2|0,3:0|0:0,0:0:0:0:
28,186,87699,1,2,3:0:0:0:
179,370,87866,6,0,B|217:366|240:333|235:298|235:298|208:126,1,269.999992847443,8|0,0:2|0:0,0:0:0:0:
203,141,88201,1,0,3:0:0:0:
285,3,88369,6,0,B|317:187|317:187|314:127|346:107,1,269.999992847443,8|0,0:2|0:0,0:0:0:0:
341,110,88704,1,0,3:0:0:0:
457,204,88872,5,2,0:0:0:0:
246,231,89039,1,2,3:0:0:0:
457,204,89207,1,10,0:2:0:0:
377,380,89375,6,0,B|401:273|401:273|380:234,1,149.999996026357,2|0,0:0|0:0,0:0:0:0:
381,237,89710,2,0,B|332:249|332:249|315:322,1,112.499997019768,10|2,0:2|0:0,0:0:0:0:
168,350,90045,6,0,P|85:312|106:247,1,168.749995529652,2|0,0:0|0:0,0:0:0:0:
100,251,90380,1,2,0:0:0:0:
340,133,90883,6,0,P|370:141|395:148,1,56.2499985098839,2|0,0:0|0:0,0:0:0:0:
457,204,91050,2,0,P|502:100|344:31,1,314.999982042313,2|0,0:0|0:0,0:0:0:0:
351,26,91553,1,2,0:0:0:0:
5,104,92726,5,0,3:0:0:0:
5,104,93062,1,2,3:0:0:0:
63,31,93229,2,0,P|127:27|140:106,1,152.999998865128,8|0,0:2|0:0,0:0:0:0:
43,225,93732,1,8,0:2:0:0:
43,225,94067,6,0,P|76:229|128:237,1,76.4999994325638,2|2,0:0|0:0,0:0:0:0:
274,153,94402,1,2,0:0:0:0:
148,107,94569,1,10,0:2:0:0:
152,102,94737,2,0,P|190:97|228:92,2,76.4999994325638,2|2|8,0:2|0:0|0:0,0:0:0:0:
356,286,95408,6,0,P|361:323|364:361,1,76.4999994325638,2|2,3:0|0:0,0:0:0:0:
453,274,95743,1,2,0:0:0:0:
298,190,95911,1,10,0:2:0:0:
453,274,96078,2,0,P|379:235|398:165,1,152.999998865128,2|10,0:0|0:2,0:0:0:0:
432,26,96749,6,0,P|471:29|523:20,2,76.4999994325638,2|2|2,0:0|0:0|3:0,0:0:0:0:
361,58,97252,1,10,0:2:0:0:
184,14,97419,1,2,0:0:0:0:
190,10,97754,5,10,0:2:0:0:
229,23,97838,1,2,0:0:0:0:
247,60,97922,1,2,0:0:0:0:
237,101,98006,1,2,0:0:0:0:
199,120,98090,6,0,P|119:103|60:105,1,114.749999148846,2|0,3:0|0:0,0:0:0:0:
81,97,98425,1,2,3:0:0:0:
323,92,98592,1,8,0:2:0:0:
323,92,99095,2,0,P|316:153|314:177,1,76.4999994325638,8|0,0:2|0:0,0:0:0:0:
262,238,99430,5,2,0:0:0:0:
382,318,99598,1,2,0:0:0:0:
262,238,99766,2,0,P|208:245|193:269,1,76.4999994325638,2|10,0:0|0:2,0:0:0:0:
173,333,100101,1,2,0:0:0:0:
173,333,100436,1,8,0:2:0:0:
38,203,100771,6,0,P|31:150|20:118,1,76.4999994325638,2|2,3:0|0:0,0:0:0:0:
126,6,101106,2,0,P|115:42|112:80,1,76.4999994325638,2|10,0:0|0:2,0:0:0:0:
47,211,101442,2,0,B|69:225|99:224|120:202|115:196|111:189|132:166|160:155|185:166,1,152.999998865128,2|10,0:0|0:2,0:0:0:0:
396,34,102112,5,2,0:0:0:0:
466,50,102280,1,2,0:0:0:0:
473,122,102447,1,2,0:0:0:0:
406,151,102615,1,2,0:0:0:0:
358,96,102782,1,2,0:0:0:0:
358,96,103453,6,0,B|369:121|369:121|338:287,1,179.999995231629,6|2,3:2|0:0,0:0:0:0:
276,370,103788,6,0,P|239:346|234:314,1,67.5000007867814,2|0,3:0|0:0,0:0:0:0:
428,229,103956,2,0,P|465:253|470:285,1,67.5000007867814,10|0,0:2|0:0,0:0:0:0:
267,199,104123,6,0,B|241:59|241:59|246:94|222:118,1,202.500002360344,2|0,0:0|3:0,0:0:0:0:
218,112,104374,1,0,0:0:0:0:
211,109,104458,1,8,0:2:0:0:
31,295,104794,6,0,B|71:257|-5:191|-67:328|58:423|159:325,1,269.999992847443,2|0,3:0|0:0,0:0:0:0:
168,199,105129,1,2,3:0:0:0:
168,199,105297,2,0,P|181:246|191:296,1,89.9999976158143,10|0,0:2|0:0,0:0:0:0:
365,365,105464,6,0,B|377:274|377:274|374:268|374:268|385:185,2,179.999995231629,2|0|8,0:0|3:0|0:2,0:0:0:0:
487,74,105967,6,0,L|523:61,2,22.5000002622605,4|4|4,0:3|0:3|0:3,0:0:0:0:
410,17,106134,2,0,P|334:37|336:128,1,179.999995231629,2|2,3:0|0:0,0:0:0:0:
511,277,106469,6,0,P|452:265|420:264,1,89.9999976158143,2|0,3:0|0:0,0:0:0:0:
168,199,106637,2,0,P|227:211|259:212,1,89.9999976158143,10|0,0:2|0:0,0:0:0:0:
465,188,106805,6,0,B|429:146|346:160|344:236|348:235|354:237|352:314|275:327|238:286,1,303.750003540516,2|0,0:0|0:0,0:0:0:0:
204,381,107140,2,0,P|196:289|95:321,1,202.500002360344,10|0,0:2|0:0,0:0:0:0:
71,215,107475,6,0,B|44:216|44:216|41:220|41:220|-3:223,2,67.5000007867814,2|2|2,3:0|0:0|3:0,0:0:0:0:
99,295,107978,1,10,0:2:0:0:
126,121,108145,5,2,0:0:0:0:
241,289,108313,1,0,3:0:0:0:
126,121,108481,1,8,0:2:0:0:
336,15,108648,5,0,3:0:0:0:
175,238,108816,2,0,B|222:174|308:166|308:166|319:159|313:141,1,179.999995231629,2|2,3:0|0:0,0:0:0:0:
424,48,109151,6,0,P|415:84|401:127,1,67.5000007867814,2|0,3:0|0:0,0:0:0:0:
490,266,109319,2,0,P|499:235|510:201,1,67.5000007867814,10|0,0:2|0:0,0:0:0:0:
320,154,109486,6,0,B|371:142|426:182|416:242|416:242|383:246|371:287,1,202.500002360344,2|0,0:0|3:0,0:0:0:0:
383,274,109738,1,0,0:0:0:0:
387,280,109821,1,8,0:2:0:0:
151,325,110157,6,0,B|205:352|284:298|289:225|235:171|174:202|173:243,1,269.999992847443,2|0,3:0|0:0,0:0:0:0:
62,365,110492,1,2,3:0:0:0:
62,365,110660,2,0,B|49:351|49:351|31:269,1,89.9999976158143,10|0,0:2|0:0,0:0:0:0:
0,132,110827,6,0,B|31:152|31:152|176:120,2,179.999995231629,2|0|8,0:0|3:0|0:2,0:0:0:0:
314,53,111330,6,0,L|320:15,2,22.5000002622605,4|4|4,0:3|0:3|0:3,0:0:0:0:
369,113,111497,2,0,B|461:94|461:94|441:-11,1,179.999995231629,2|2,3:0|0:0,0:0:0:0:
246,98,111833,6,0,P|266:159|271:197,1,89.9999976158143,2|0,3:0|0:0,0:0:0:0:
482,277,112000,2,0,P|462:216|457:178,1,89.9999976158143,10|0,0:2|0:0,0:0:0:0:
138,314,112168,6,0,B|173:355|256:341|258:265|254:266|248:264|250:187|327:174|364:215,1,303.750003540516,2|0,0:0|0:0,0:0:0:0:
318,358,112503,2,0,P|246:253|174:248,1,202.500002360344,10|0,0:2|0:0,0:0:0:0:
114,192,112838,6,0,B|107:161|107:161|103:158|103:158|91:114,2,67.5000007867814,2|2|2,0:0|0:0|0:0,0:0:0:0:
300,37,113341,5,2,0:2:0:0:
297,30,113425,1,0,0:0:0:0:
295,22,113509,2,0,P|214:19|236:126,1,202.500002360344,2|0,0:0|0:0,0:0:0:0:
0,177,113844,6,0,P|159:183|250:318,1,303.750003540516,2|0,0:2|0:0,0:0:0:0:
381,292,114179,6,0,B|360:313|366:353|366:353|404:241|511:202|511:202|484:222|481:259,1,337.499991059303,6|0,3:1|0:0,0:0:0:0:
505,324,114514,2,0,B|493:354|515:376|515:376|528:347|505:324,1,112.499997019768,0|0,3:0|0:0,0:0:0:0:
347,84,114682,6,0,B|330:93|324:56|300:62|300:62|236:87|469:130|498:173|370:336|405:187|388:163|365:155,1,359.999990463257,10|0,3:2|3:0,0:0:0:0:
488,136,115101,5,0,0:0:0:0:
488,136,115185,2,0,P|340:148|239:302,1,337.499991059303,10|0,0:2|0:0,0:0:0:0:
289,353,115520,2,0,B|300:372|300:372|283:357,1,44.9999988079071,2|0,3:1|0:0,0:0:0:0:
34,258,115687,6,0,B|4:248|4:248|261:191|261:191|226:189|201:164,1,359.999990463257,2|8,0:0|0:2,0:0:0:0:
96,127,116106,1,0,0:0:0:0:
96,127,116190,2,0,B|77:163|84:200|109:219|119:222|131:223|163:245|170:292|146:325,2,224.999994039536,2|0|8,0:0|3:0|0:2,0:0:0:0:
442,71,116777,6,0,P|455:64|440:70,1,56.2499985098839,4|0,0:3|0:0,0:0:0:0:
449,81,116861,2,0,B|369:122|374:234|374:234|361:122|276:92,1,359.999990463257,2|0,3:1|3:0,0:0:0:0:
279,93,117363,1,8,3:2:0:0:
156,326,117531,6,0,B|203:362|241:319|242:309|241:299|275:268|320:289,1,179.999995231629,2|0,0:0|3:0,0:0:0:0:
307,361,117782,2,0,B|248:372|233:317|236:308|241:299|225:256|175:255,1,179.999995231629,2|0,0:0|0:0,0:0:0:0:
178,250,118034,1,2,0:0:0:0:
106,7,118201,6,0,P|207:73|178:164,1,224.999994039536,2|0,3:1|0:0,0:0:0:0:
109,195,118453,2,0,P|8:129|37:38,1,224.999994039536,2|0,0:0|0:0,0:0:0:0:
39,47,118704,1,10,0:2:0:0:
364,8,118872,5,10,0:2:0:0:
477,153,119039,6,0,L|480:176,1,22.4999994039536,0|0,3:2|0:0,0:0:0:0:
373,213,119207,2,0,L|376:236,1,22.4999994039536,10|0,0:2|0:0,0:0:0:0:
266,175,119375,2,0,L|269:198,1,22.4999994039536,0|0,3:0|0:0,0:0:0:0:
68,313,119542,6,0,B|90:351|141:334|142:245|49:267|95:286|-9:320|-68:164|96:96|129:211,1,337.499991059303,2|0,3:1|0:0,0:0:0:0:
178,243,119877,2,0,P|201:246|178:246,1,67.5000007867814,0|0,3:0|0:0,0:0:0:0:
10,384,120045,6,0,P|105:273|302:343,1,359.999990463257,10|0,3:2|3:0,0:0:0:0:
456,229,120548,2,0,B|489:173|576:218|549:310|483:336|423:313,1,224.999994039536,10|0,0:2|0:0,0:0:0:0:
376,341,120799,5,0,0:0:0:0:
376,341,120883,2,0,B|387:326|384:309|370:285|365:286|359:289|340:285|329:257|342:232,1,112.499997019768,2|0,3:1|0:0,0:0:0:0:
424,76,121050,6,0,B|344:-58|543:-51|579:146|529:119|447:30|361:162,1,386.999995653153,2|8,0:0|3:2,0:0:0:0:
336,69,121469,1,0,0:0:0:0:
336,69,121553,2,0,B|283:48|223:68|200:126|200:126|249:127|273:197,2,224.999994039536,2|0|8,0:0|3:0|0:2,0:0:0:0:
6,258,122140,6,0,P|-3:242|7:257,1,56.2499985098839,4|0,0:3|0:0,0:0:0:0:
11,266,122224,2,0,B|-36:333|-25:353|77:449|99:242|117:264|117:264|134:196|212:200,1,359.999990463257,2|0,3:1|3:0,0:0:0:0:
188,200,122726,1,8,3:2:0:0:
503,259,122894,6,0,P|423:269|409:329,1,134.999996423721,2|0,0:0|0:0,0:0:0:0:
324,284,123062,2,0,P|297:339|352:364,1,134.999996423721,0|0,3:0|0:0,0:0:0:0:
414,318,123229,1,10,0:2:0:0:
53,60,123564,6,0,B|106:8|191:-2|224:73|214:85|210:104|239:164|321:138,2,299.999992052714,2|2|2,3:1|0:0|0:0,0:0:0:0:
299,56,124235,6,0,P|214:72|75:144,2,224.999994039536,2|10|0,0:0|0:2|3:0,0:0:0:0:
291,143,125240,1,0,0:0:0:0:
375,6,125408,1,8,0:2:0:0:
496,266,125743,5,2,0:0:0:0:
416,250,125995,5,0,0:0:0:0:
432,170,126246,5,2,0:0:0:0:
330,348,126497,5,2,0:0:0:0:
327,337,126581,1,0,0:0:0:0:
217,275,126749,5,10,0:2:0:0:
28,362,126916,6,0,B|40:371|40:371|135:349,2,89.9999976158143,2|0|10,0:0|0:0|0:2,0:0:0:0:
62,254,127587,5,0,3:0:0:0:
159,84,127754,5,2,0:0:0:0:
5,50,127922,1,2,0:0:0:0:
159,84,128090,1,8,0:2:0:0:
275,191,128257,5,2,0:0:0:0:
356,177,128425,1,2,0:0:0:0:
342,96,128592,1,10,0:2:0:0:
261,110,128760,1,2,0:0:0:0:
134,224,128928,5,2,0:0:0:0:
203,240,129095,1,2,0:0:0:0:
253,291,129263,1,2,0:0:0:0:
279,357,129430,1,10,0:2:0:0:
357,266,129598,5,2,0:0:0:0:
399,256,129765,1,2,0:0:0:0:
430,224,129933,1,10,0:2:0:0:
446,183,130100,1,2,0:0:0:0:
439,327,130268,6,0,P|473:337|488:357,1,56.2499985098839,2|0,0:0|0:0,0:0:0:0:
358,341,130771,6,0,P|404:304|394:249,1,112.499997019768,10|0,0:2|0:0,0:0:0:0:
256,368,131106,5,2,0:0:0:0:
256,288,131274,1,10,0:2:0:0:
256,208,131442,1,2,0:0:0:0:
73,327,131609,6,0,P|39:337|24:357,1,56.2499985098839,2|0,0:0|0:0,0:0:0:0:
154,341,132112,6,0,P|108:304|118:249,1,112.499997019768,2|0,0:0|0:0,0:0:0:0:
256,368,132447,5,2,0:0:0:0:
256,208,132615,1,2,0:0:0:0:
439,327,132950,6,0,P|473:337|488:357,1,56.2499985098839,2|0,0:0|0:0,0:0:0:0:
358,341,133453,6,0,P|404:304|394:249,1,112.499997019768,2|0,0:0|0:0,0:0:0:0:
256,208,133788,5,2,0:0:0:0:
256,368,133956,1,2,0:0:0:0:
73,327,134291,6,0,P|39:337|24:357,1,56.2499985098839,2|0,0:0|0:0,0:0:0:0:
154,341,134794,6,0,P|108:304|118:249,1,112.499997019768,2|0,0:0|0:0,0:0:0:0:
256,208,135129,5,2,0:0:0:0:
256,368,135296,2,0,L|256:282,1,80.9999953823091,2|0,0:0|0:0,0:0:0:0:
