osu file format v14

[General]
AudioFilename: audio.mp3
AudioLeadIn: 0
PreviewTime: 175472
Countdown: 0
SampleSet: Soft
StackLeniency: 1
Mode: 0
LetterboxInBreaks: 0
WidescreenStoryboard: 1

[Editor]
Bookmarks: 10372,23172,35972,48772,59972,64772,75972,87172,99972,112772,125572,128772,141572,154372,163972,175172,189572,202372
DistanceSpacing: 0.7
BeatDivisor: 4
GridSize: 32
TimelineZoom: 1

[Metadata]
Title:INDUSTRY BABY (feat. Jack Harlow)
TitleUnicode:INDUSTRY BABY (feat. Jack Harlow)
Artist:Lil Nas X
ArtistUnicode:Lil Nas X
Creator:xandeez nuts
Version:YUUYA'S HARD
Source:
Tags:pop trap hip-hop hiphop english male vocals vocalist feat collab [poke] mimari dooe -doodle jas CraEZy yuuya_ke montero take a daytrip kanye west
BeatmapID:3200309
BeatmapSetID:1539995

[Difficulty]
HPDrainRate:3.5
CircleSize:3.3
OverallDifficulty:7.5
ApproachRate:8
SliderMultiplier:1.5
SliderTickRate:1

[Events]
//Background and Video events
0,0,"wallpapersden.com_neon-wave-futuristic-city_1920x1080.jpg",0,0
//Break Periods
//Storyboard Layer 0 (Background)
//Storyboard Layer 1 (Fail)
//Storyboard Layer 2 (Pass)
//Storyboard Layer 3 (Foreground)
//Storyboard Layer 4 (Overlay)
//Storyboard Sound Samples

[TimingPoints]
3991,400,4,2,1,60,1,0
3991,-100,4,2,1,60,0,0
5472,-100,4,2,1,60,0,0
5572,-100,4,2,1,60,0,0
7072,-100,4,2,1,60,0,0
7172,-100,4,2,1,60,0,0
8672,-100,4,2,1,60,0,0
8772,-100,4,2,1,60,0,0
10372,400,4,2,1,60,1,0
23172,-100,4,2,1,50,0,0
34772,-100,4,2,1,45,0,0
35172,-100,4,2,1,55,0,0
35572,-100,4,2,1,65,0,0
35972,-100,4,2,1,80,0,0
58372,-100,4,2,1,80,0,0
59172,-100,4,2,1,60,0,0
61572,-100,4,2,1,60,0,0
63972,-100,4,2,1,40,0,0
64372,-100,4,2,1,60,0,0
86772,-100,4,2,1,50,0,0
98772,-100,4,2,1,45,0,0
99172,-100,4,2,1,55,0,0
99572,-100,4,2,1,65,0,0
99972,-100,4,2,1,80,0,0
122372,-100,4,2,1,80,0,0
123172,-100,4,2,1,60,0,0
125572,-100,4,2,1,60,0,0
127972,-100,4,2,1,40,0,0
128772,-100,4,2,1,60,0,0
138372,-100,4,2,1,40,0,0
141572,-100,4,2,1,60,0,0
153572,-100,4,2,1,40,0,0
154372,-100,4,2,1,60,0,0
175572,-100,4,2,1,45,0,0
175972,-100,4,2,1,55,0,0
176372,-100,4,2,1,65,0,0
176772,-100,4,2,1,80,0,0
177372,-100,4,2,1,60,0,0
179972,-100,4,2,1,80,0,0
199172,-100,4,2,1,80,0,0
199972,-100,4,2,1,60,0,0
202272,-100,4,2,1,60,0,0
202372,-100,4,2,1,80,0,0
202472,-100,4,2,1,80,0,0
214772,-100,4,2,1,80,0,0

[Colours]
Combo1 : 91,85,221
Combo2 : 238,47,119
Combo3 : 255,244,45

[HitObjects]
17,45,10372,6,0,P|67:108|61:135,1,112.5,2|0,1:0|0:0,0:0:0:0:
63,134,10772,2,0,P|104:127|137:124,1,75,2|0,0:0|0:0,0:0:0:0:
130,34,11172,2,0,P|167:29|204:26,1,75
290,72,11572,1,2,0:0:0:0:
290,72,11772,1,2,0:0:0:0:
376,42,11972,6,0,B|434:25|434:25|471:64|522:57,1,150,2|0,0:0|1:0,0:0:0:0:
376,42,13572,1,2,1:0:0:0:
376,42,13772,1,2,0:0:0:0:
290,72,13972,2,0,P|296:113|298:152,1,75,2|0,0:0|0:0,0:0:0:0:
346,222,14372,2,0,B|420:208|420:208|493:223,1,150,8|0,0:1|0:0,0:0:0:0:
493,223,14972,1,8,0:0:0:0:
507,321,15172,5,0,0:0:0:0:
507,321,15372,1,0,1:0:0:0:
435,367,15572,2,0,P|381:356|324:346,1,112.5,2|0,1:0|0:0,0:0:0:0:
324,346,15972,2,0,P|268:353|212:361,1,112.5,10|0,1:0|0:0,0:0:0:0:
212,360,16372,2,0,P|157:353|100:344,1,112.5,2|0,1:0|0:0,0:0:0:0:
100,344,16772,6,0,P|96:310|84:270,1,75,2|2,1:0|0:0,0:0:0:0:
141,198,17172,1,2,0:0:0:0:
230,223,17372,2,0,P|273:226|306:229,2,75,0|8|0,0:0|0:1|0:0,0:0:0:0:
149,206,17972,1,2,0:0:0:0:
149,206,18172,1,10,0:0:0:0:
133,117,18372,6,0,P|124:80|131:44,1,75,2|0,0:0|1:0,0:0:0:0:
210,0,18772,2,0,P|239:68|221:148,1,150,0|8,1:0|0:1,0:0:0:0:
74,356,19772,1,0,1:0:0:0:
159,384,19972,6,0,P|198:379|236:376,1,75,2|2,1:0|0:0,0:0:0:0:
313,330,20372,2,0,P|350:334|387:338,1,75,2|0,0:0|0:0,0:0:0:0:
462,286,20772,2,0,P|373:280|339:234,1,150,8|0,0:1|0:0,0:0:0:0:
423,204,21372,1,8,0:0:0:0:
450,117,21572,6,0,P|452:78|450:40,1,75,0|8,0:0|0:1,0:0:0:0:
364,76,21972,2,0,P|332:78|289:83,1,75,2|0,0:0|0:0,0:0:0:0:
246,163,22372,2,0,P|209:159|172:159,1,75,10|0,0:1|0:0,0:0:0:0:
96,121,22772,1,2,0:0:0:0:
96,121,22972,1,0,0:0:0:0:
13,157,23172,6,0,P|-11:100|12:11,1,150,6|2,0:1|3:0,0:0:0:0:
179,74,23972,1,8,3:1:0:0:
350,9,24372,1,2,3:0:0:0:
350,9,24572,1,2,0:0:0:0:
401,90,24772,6,0,P|440:84|515:108,1,112.5,2|0,3:0|0:0,0:0:0:0:
509,104,25172,2,0,P|502:149|497:188,1,75,0|0,3:0|0:0,0:0:0:0:
424,225,25572,2,0,P|431:299|425:374,1,150,8|8,3:1|3:2,0:0:0:0:
425,374,26072,1,8,0:3:0:0:
425,374,26172,2,0,L|380:371,1,37.5,4|4,0:3|0:3,0:0:0:0:
341,341,26372,6,0,B|271:352|278:310|195:324,2,150,2|2|8,3:0|3:0|3:1,0:0:0:0:
285,169,27572,2,0,P|248:172|203:173,1,75,0|0,3:0|0:0,0:0:0:0:
134,134,27972,5,0,3:0:0:0:
134,134,28172,1,0,0:0:0:0:
56,181,28372,2,0,P|61:222|63:259,1,75,2|0,3:0|0:0,0:0:0:0:
78,342,28772,2,0,P|42:335|5:337,1,75,10|0,3:1|0:0,0:0:0:0:
149,289,29172,2,0,P|185:292|223:286,1,75,2|0,3:0|0:0,0:0:0:0:
294,344,29572,6,0,B|400:320|400:320|382:358,1,150,6|2,0:1|3:0,0:0:0:0:
297,197,30372,1,8,3:1:0:0:
412,61,30772,1,2,3:0:0:0:
412,61,30972,1,2,0:0:0:0:
495,107,31172,6,0,P|478:161|482:220,1,112.5,2|0,3:0|0:0,0:0:0:0:
481,216,31572,2,0,P|443:223|400:232,1,75,0|0,3:0|0:0,0:0:0:0:
347,179,31972,2,0,P|274:186|217:139,1,150,8|8,3:1|3:2,0:0:0:0:
217,139,32472,1,8,0:3:0:0:
217,139,32572,2,0,L|225:102,1,37.5,4|4,0:3|0:3,0:0:0:0:
210,50,32772,6,0,B|135:60|148:17|62:30,2,150,2|2|8,3:0|3:0|3:1,0:0:0:0:
98,192,33972,2,0,P|94:155|89:118,1,75,0|0,3:0|0:0,0:0:0:0:
15,220,34372,1,0,0:0:0:0:
15,220,34572,1,8,0:1:0:0:
86,291,34772,6,0,P|149:280|203:292,1,112.5,2|0,1:0|0:0,0:0:0:0:
195,289,35172,2,0,P|258:278|306:286,1,112.5,10|0,1:0|0:0,0:0:0:0:
305,285,35572,2,0,P|361:273|416:283,1,112.5,2|0,1:0|0:0,0:0:0:0:
414,282,35972,5,6,1:2:0:0:
490,220,36172,1,2,0:0:0:0:
397,190,36372,2,0,P|395:120|387:37,1,150,2|8,0:0|0:1,0:0:0:0:
388,41,37172,1,2,0:0:0:0:
310,98,37372,6,0,P|274:103|231:93,1,75,10|2,0:0|0:0,0:0:0:0:
179,16,37772,1,0,1:0:0:0:
100,75,37972,2,0,P|78:153|94:221,1,150,0|8,1:0|0:1,0:0:0:0:
157,293,38572,1,0,0:0:0:0:
253,270,38772,2,0,P|257:307|260:344,1,75
194,201,39172,5,2,1:0:0:0:
194,201,39372,1,2,0:0:0:0:
92,218,39572,2,0,B|40:226|-16:198|-16:198|1:214|13:244,2,150,2|8|0,0:0|0:1|0:0,0:0:0:0:
92,218,40572,1,8,0:0:0:0:
167,40,40972,1,0,1:0:0:0:
139,138,41172,6,0,P|186:103|243:125,1,112.5,2|0,1:0|0:0,0:0:0:0:
234,116,41572,2,0,P|276:158|332:147,1,112.5,10|0,1:0|0:0,0:0:0:0:
324,151,41972,2,0,P|388:143|452:137,1,112.5,2|0,1:0|0:0,0:0:0:0:
435,138,42372,5,2,1:0:0:0:
505,216,42572,1,2,0:0:0:0:
438,288,42772,2,0,B|366:279|373:320|293:314,1,150,2|8,0:0|0:1,0:0:0:0:
143,189,43572,1,2,0:0:0:0:
232,226,43772,6,0,P|269:223|306:219,1,75,10|2,0:0|0:0,0:0:0:0:
224,135,44172,1,0,1:0:0:0:
290,64,44372,1,0,1:0:0:0:
290,64,44472,1,0,0:0:0:0:
290,64,44572,1,0,0:0:0:0:
206,14,44772,2,0,P|172:18|128:18,1,75,8|0,0:1|0:0,0:0:0:0:
31,21,45172,2,0,P|34:59|36:99,1,75
0,189,45572,6,0,P|36:180|74:181,1,75,2|2,1:0|0:0,0:0:0:0:
161,225,45972,2,0,B|241:233|241:233|304:199,1,150,2|8,0:0|0:1,0:0:0:0:
64,359,46972,1,8,0:0:0:0:
12,277,47172,6,0,P|8:240|2:203,1,75,0|0,0:0|1:0,0:0:0:0:
110,285,47572,2,0,P|150:289|186:286,1,75,2|0,1:0|0:0,0:0:0:0:
281,263,47972,2,0,P|277:300|275:337,1,75,10|0,1:0|0:0,0:0:0:0:
212,193,48372,1,2,1:0:0:0:
250,103,48572,1,0,0:0:0:0:
213,14,48772,5,2,1:0:0:0:
311,26,48972,2,0,B|348:29|348:29|386:24,2,75,2|2|0,0:0|0:0|0:0,0:0:0:0:
250,103,49572,2,0,P|212:105|173:108,1,75,10|0,0:1|0:0,0:0:0:0:
97,51,49972,1,2,0:0:0:0:
76,147,50172,6,0,P|109:130|146:129,1,75,10|2,0:0|0:0,0:0:0:0:
218,194,50572,1,0,1:0:0:0:
207,296,50772,1,0,1:0:0:0:
207,296,50872,1,0,0:0:0:0:
207,296,50972,2,0,L|202:334,1,37.5
192,384,51172,2,0,L|269:376,1,75,8|0,0:1|0:0,0:0:0:0:
380,296,51572,2,0,L|306:289,1,75
248,215,51972,5,2,1:0:0:0:
248,215,52172,1,2,0:0:0:0:
318,147,52372,2,0,L|324:73,1,75,2|0,0:0|0:0,0:0:0:0:
391,4,52772,2,0,P|428:14|470:15,1,75,8|0,0:1|0:0,0:0:0:0:
512,98,53172,1,0,0:0:0:0:
456,175,53372,6,0,P|454:249|468:323,1,150,8|0,0:0|1:0,0:0:0:0:
360,267,53972,2,0,P|304:273|244:282,1,112.5,2|0,1:0|0:0,0:0:0:0:
248,281,54372,2,0,P|192:273|134:264,1,112.5,10|0,1:0|0:0,0:0:0:0:
136,264,54772,2,0,P|71:274|22:282,1,112.5,2|0,1:0|0:0,0:0:0:0:
24,281,55172,5,2,1:0:0:0:
41,186,55372,1,2,0:0:0:0:
8,94,55572,2,0,P|61:136|154:119,1,150,2|8,0:0|0:1,0:0:0:0:
301,19,56372,1,2,0:0:0:0:
207,0,56572,6,0,P|212:37|218:78,1,75,10|2,0:0|0:0,0:0:0:0:
282,149,56972,1,0,1:0:0:0:
231,237,57172,1,0,1:0:0:0:
231,237,57272,1,0,0:0:0:0:
231,237,57372,1,0,0:0:0:0:
133,233,57572,2,0,L|58:228,1,75,8|0,0:1|0:0,0:0:0:0:
181,318,57972,2,0,L|255:322,1,75
330,256,58372,5,2,1:0:0:0:
330,256,58572,1,2,0:0:0:0:
425,281,58772,2,0,P|511:259|397:198,1,300,2|0,0:0|0:0,0:0:0:0:
330,256,59772,2,0,P|335:296|340:339,1,75
339,330,60372,6,0,P|334:293|330:256,1,75,2|0,0:0|0:0,0:0:0:0:
259,197,60772,2,0,P|280:146|290:86,1,112.5,2|0,0:0|0:0,0:0:0:0:
289,89,61172,2,0,L|281:9,1,75,2|0,0:0|0:0,0:0:0:0:
192,53,61572,5,0,0:0:0:0:
392,93,62372,1,0,0:0:0:0:
159,215,63172,1,0,0:0:0:0:
380,192,63972,1,8,0:1:0:0:
281,365,64372,1,2,1:0:0:0:
281,365,64572,1,2,1:0:0:0:
193,346,64772,6,0,P|123:336|44:359,2,150,2|2|8,1:0|0:0|0:1,0:0:0:0:
300,205,65972,2,0,P|282:203|261:200,2,37.5,0|0|8,0:0|0:0|0:0,0:0:0:0:
313,294,66372,5,0,0:0:0:0:
401,317,66572,1,10,1:0:0:0:
471,260,66772,2,0,L|462:186,1,75,2|0,1:0|0:0,0:0:0:0:
445,101,67172,2,0,P|383:126|325:112,1,112.5,10|0,1:0|0:0,0:0:0:0:
339,118,67572,2,0,L|301:113,2,37.5,2|0|0,1:0|0:0|0:0,0:0:0:0:
379,38,67972,5,2,1:0:0:0:
379,38,68172,2,0,L|297:27,1,75,2|2,0:0|0:0,0:0:0:0:
223,73,68572,1,0,0:0:0:0:
140,49,68772,1,8,0:1:0:0:
140,49,69172,2,0,L|134:7,2,37.5,2|0|10,0:0|0:0|0:0,0:0:0:0:
80,117,69572,5,2,0:0:0:0:
80,117,69772,1,0,1:0:0:0:
136,189,69972,2,0,P|140:229|144:264,1,75,0|0,1:0|0:0,0:0:0:0:
105,346,70372,1,8,0:1:0:0:
105,346,70772,2,0,P|100:308|96:271,1,75
38,202,71172,5,2,1:0:0:0:
38,202,71372,2,0,P|33:159|28:123,2,75,2|2|0,0:0|0:0|0:0,0:0:0:0:
99,269,71972,1,8,0:1:0:0:
195,241,72172,1,0,0:0:0:0:
195,241,72372,2,0,P|234:247|270:228,1,75,0|8,0:0|0:0,0:0:0:0:
265,232,72672,1,0,0:0:0:0:
265,232,72772,6,0,L|306:233,1,37.5
349,207,72972,1,0,1:0:0:0:
308,127,73172,2,0,P|309:81|299:52,1,75,2|0,1:0|0:0,0:0:0:0:
377,6,73572,2,0,P|441:33|491:23,1,112.5,10|0,1:0|0:0,0:0:0:0:
480,27,73972,2,0,P|472:96|493:133,1,112.5,2|0,1:0|0:0,0:0:0:0:
491,131,74372,5,2,1:2:0:0:
316,135,75572,1,2,0:0:0:0:
316,135,75772,1,2,0:0:0:0:
405,150,75972,2,0,P|418:228|414:303,1,150,2|0,0:0|1:0,0:0:0:0:
422,306,77172,1,0,1:0:0:0:
422,306,77372,1,0,1:0:0:0:
354,370,77572,6,0,P|318:362|280:353,1,75,6|2,1:2|0:0,0:0:0:0:
195,323,77972,1,2,0:0:0:0:
232,240,78172,1,0,0:0:0:0:
178,167,78372,2,0,P|213:162|252:156,1,75,8|0,0:1|0:0,0:0:0:0:
284,72,78772,2,0,P|321:81|359:90,1,75,0|8,0:0|0:0,0:0:0:0:
457,119,79172,5,0,0:0:0:0:
457,119,79572,2,0,P|407:125|333:139,1,112.5,2|0,1:0|0:0,0:0:0:0:
345,136,79972,2,0,P|289:138|232:133,1,112.5,10|0,1:0|0:0,0:0:0:0:
232,133,80372,2,0,P|176:114|115:101,1,112.5,2|0,1:0|0:0,0:0:0:0:
123,102,80772,5,2,1:0:0:0:
50,57,80972,1,2,0:0:0:0:
128,15,81172,2,0,P|172:20|205:28,1,75,2|0,0:0|0:0,0:0:0:0:
290,50,81572,2,0,B|339:41|359:60|412:45,1,112.5,8|0,0:1|0:0,0:0:0:0:
401,47,81972,1,2,0:0:0:0:
486,90,82172,6,0,P|478:130|474:175,1,75,10|2,0:0|0:0,0:0:0:0:
400,217,82572,1,0,1:0:0:0:
328,160,82772,2,0,B|285:122|226:143|226:143|249:153|263:178,1,150,0|8,1:0|0:1,0:0:0:0:
91,378,83772,1,0,0:0:0:0:
29,321,83972,5,2,1:0:0:0:
29,321,84172,1,2,0:0:0:0:
86,252,84372,2,0,P|89:210|93:172,1,75,2|0,0:0|0:0,0:0:0:0:
20,119,84772,2,0,P|106:141|152:106,1,150,8|0,0:1|0:0,0:0:0:0:
234,33,85372,2,0,P|239:73|243:108,1,75,8|0,0:0|0:0,0:0:0:0:
243,108,85972,5,2,1:0:0:0:
243,108,86172,1,0,0:0:0:0:
162,96,86372,2,0,P|120:87|82:79,1,75,10|0,1:0|0:0,0:0:0:0:
75,170,86772,2,0,P|39:176|2:186,1,75,2|0,1:0|0:0,0:0:0:0:
148,228,87172,5,6,0:1:0:0:
319,178,87572,1,2,3:0:0:0:
485,246,87972,1,8,3:1:0:0:
327,186,88372,1,2,3:0:0:0:
327,186,88572,1,2,0:0:0:0:
418,177,88772,6,0,B|440:97|392:115|416:27,1,150,2|0,3:0|3:0,0:0:0:0:
415,30,89372,1,0,0:0:0:0:
319,83,89572,2,0,P|281:84|227:96,1,75,8|0,3:1|0:0,0:0:0:0:
151,68,89972,1,8,3:2:0:0:
151,68,90072,1,8,0:3:0:0:
151,68,90172,2,0,P|153:87|155:110,1,37.5,4|4,0:3|0:3,0:0:0:0:
118,144,90372,6,0,P|66:166|-7:108,2,150,2|2|8,3:0|3:0|3:1,0:0:0:0:
245,280,91572,2,0,P|209:264|159:265,1,75,0|0,3:0|0:0,0:0:0:0:
106,327,91972,5,0,3:0:0:0:
188,361,92172,1,0,0:0:0:0:
266,310,92372,2,0,L|349:303,1,75,2|0,3:0|0:0,0:0:0:0:
432,337,92772,1,10,3:1:0:0:
432,337,92972,2,0,P|437:294|447:257,2,75,0|2|0,0:0|3:0|0:0,0:0:0:0:
364,214,93572,6,0,P|356:139|348:61,1,150,6|2,0:1|3:0,0:0:0:0:
175,16,94372,1,8,3:1:0:0:
17,106,94772,1,2,3:0:0:0:
17,106,94972,1,2,0:0:0:0:
3,199,95172,6,0,P|36:160|105:173,1,112.5,2|0,3:0|0:0,0:0:0:0:
93,163,95572,2,0,P|132:168|169:176,1,75,0|0,3:0|0:0,0:0:0:0:
257,192,95972,2,0,P|255:154|252:117,1,75,8|0,3:1|0:0,0:0:0:0:
205,268,96372,1,8,3:2:0:0:
205,268,96472,1,8,0:3:0:0:
205,268,96572,2,0,P|207:289|209:309,1,37.5,4|4,0:3|0:3,0:0:0:0:
179,350,96772,6,0,B|139:349|109:374|109:374|61:380|28:357,1,150,2|2,3:0|3:0,0:0:0:0:
45,185,97572,2,0,B|11:169|11:169|29:251,1,112.5,8|0,3:1|0:0,0:0:0:0:
28,242,97972,2,0,L|119:233,1,75,0|0,3:0|0:0,0:0:0:0:
352,367,98772,6,0,P|296:341|237:345,1,112.5,2|0,1:0|0:0,0:0:0:0:
245,342,99172,2,0,P|282:316|317:251,1,112.5,2|0,1:0|0:0,0:0:0:0:
315,258,99572,2,0,P|265:237|199:243,1,112.5,2|0,1:0|0:0,0:0:0:0:
207,240,99972,5,6,1:2:0:0:
232,149,100172,1,2,0:0:0:0:
140,181,100372,2,0,P|107:110|99:32,2,150,2|8|2,0:0|0:1|0:0,0:0:0:0:
140,181,101372,1,10,0:0:0:0:
232,149,101572,5,2,0:0:0:0:
325,180,101772,1,0,1:0:0:0:
411,132,101972,2,0,L|416:89,3,37.5,0|0|0|0,1:0|0:0|0:0|0:0,0:0:0:0:
425,42,102372,2,0,P|502:93|511:146,1,150,8|0,0:1|0:0,0:0:0:0:
452,224,102972,1,0,0:0:0:0:
499,316,103172,5,2,1:0:0:0:
499,316,103372,1,2,0:0:0:0:
421,375,103572,2,0,B|347:389|359:342|270:360,1,150,2|8,0:0|0:1,0:0:0:0:
196,301,104172,2,0,P|202:262|207:220,1,75
279,160,104572,5,8,0:0:0:0:
159,1,104972,1,0,1:0:0:0:
229,86,105172,2,0,P|173:107|117:95,1,112.5,2|0,1:0|0:0,0:0:0:0:
122,97,105572,2,0,P|97:151|51:182,1,112.5,10|0,1:0|0:0,0:0:0:0:
54,180,105972,2,0,P|75:229|65:287,1,112.5,2|0,1:0|0:0,0:0:0:0:
65,285,106372,5,2,1:0:0:0:
122,372,106572,1,2,0:0:0:0:
214,335,106772,2,0,P|290:335|362:323,1,150,2|8,0:0|0:1,0:0:0:0:
367,327,107572,2,0,P|333:324|285:320,1,75,2|10,0:0|0:0,0:0:0:0:
224,251,107972,5,2,0:0:0:0:
276,167,108172,1,0,1:0:0:0:
221,99,108372,1,0,1:0:0:0:
221,99,108472,1,0,0:0:0:0:
221,99,108572,2,0,L|184:114,1,37.5
149,151,108772,2,0,P|116:145|58:153,1,75,8|0,0:1|0:0,0:0:0:0:
12,40,109172,2,0,P|48:49|85:44,1,75
85,44,109472,1,0,0:0:0:0:
85,44,109572,6,0,P|125:37|160:31,1,75,2|2,1:0|0:0,0:0:0:0:
240,87,109972,2,0,P|297:66|385:71,1,150,2|8,0:0|0:1,0:0:0:0:
503,227,110772,2,0,P|492:274|489:311,1,75,0|8,0:0|0:0,0:0:0:0:
429,378,111172,5,0,0:0:0:0:
349,331,111372,1,0,1:0:0:0:
349,331,111572,2,0,P|308:328|268:343,1,75,2|0,1:0|0:0,0:0:0:0:
234,253,111972,2,0,P|237:216|240:179,1,75,10|0,1:0|0:0,0:0:0:0:
159,316,112372,1,2,1:0:0:0:
159,316,112572,1,0,0:0:0:0:
103,235,112772,6,0,P|67:242|25:249,1,75,2|2,1:0|0:0,0:0:0:0:
44,149,113172,2,0,P|46:112|51:75,1,75,2|0,0:0|0:0,0:0:0:0:
147,147,113572,1,10,0:1:0:0:
147,147,113772,1,0,0:0:0:0:
215,76,113972,2,0,P|222:36|210:-2,2,75,2|10|2,0:0|0:0|0:0,0:0:0:0:
286,146,114572,5,0,1:0:0:0:
236,232,114772,1,0,1:0:0:0:
236,232,114872,1,0,0:0:0:0:
236,232,114972,1,0,0:0:0:0:
271,323,115172,2,0,P|308:318|352:317,1,75,8|0,0:1|0:0,0:0:0:0:
475,236,115572,1,0,0:0:0:0:
445,326,115772,1,0,0:0:0:0:
475,236,115972,6,0,P|407:224|307:228,1,150,2|2,1:0|0:0,0:0:0:0:
326,225,116572,1,0,0:0:0:0:
373,134,116772,2,0,P|377:94|384:59,1,75,8|0,0:1|0:0,0:0:0:0:
275,137,117172,2,0,P|240:141|194:140,2,75,0|8|0,0:0|0:0|0:0,0:0:0:0:
286,41,117772,5,0,1:0:0:0:
195,53,117972,2,0,P|146:48|81:42,1,112.5,2|0,1:0|0:0,0:0:0:0:
83,42,118372,2,0,P|88:105|92:167,1,112.5,10|0,1:0|0:0,0:0:0:0:
91,154,118772,2,0,P|96:215|101:276,1,112.5,2|0,1:0|0:0,0:0:0:0:
100,266,119172,5,2,1:0:0:0:
191,226,119372,1,2,0:0:0:0:
281,264,119572,2,0,B|352:250|355:287|428:275,1,150,2|8,0:0|0:1,0:0:0:0:
428,274,120172,1,0,0:0:0:0:
450,373,120372,2,0,P|487:369|531:363,2,75,2|10|2,0:0|0:0|0:0,0:0:0:0:
357,345,120972,5,0,1:0:0:0:
263,368,121172,2,0,L|260:320,3,37.5,0|0|0|0,1:0|0:0|0:0|0:0,0:0:0:0:
229,289,121572,1,8,0:1:0:0:
153,350,121772,1,0,0:0:0:0:
79,307,121972,2,0,B|68:267|68:267|74:230,1,75
73,233,122272,1,0,0:0:0:0:
73,233,122372,6,0,L|83:158,1,75,2|2,1:0|0:0,0:0:0:0:
147,86,122772,2,0,P|75:115|-4:100,2,150,2|8|0,0:0|0:1|0:0,0:0:0:0:
163,102,123772,2,0,P|168:142|174:181,1,75,8|0,0:0|0:0,0:0:0:0:
173,176,124372,6,0,P|177:119|180:62,1,112.5,2|0,1:2|0:0,0:0:0:0:
179,63,124772,2,0,P|234:49|289:34,1,112.5,2|0,1:2|0:0,0:0:0:0:
287,34,125172,2,0,P|316:78|337:108,1,75,2|0,1:2|0:0,0:0:0:0:
173,176,127972,5,8,0:1:0:0:
17,270,128372,1,2,1:0:0:0:
17,270,128572,1,2,1:0:0:0:
97,313,128772,6,0,P|94:238|85:160,2,150,2|2|8,1:0|0:0|0:1,0:0:0:0:
179,375,129772,1,0,0:0:0:0:
179,375,129872,1,0,0:0:0:0:
179,375,129972,2,0,P|216:372|256:368,1,75,0|8,0:0|0:0,0:0:0:0:
332,321,130372,5,0,0:0:0:0:
425,341,130572,1,10,1:0:0:0:
425,341,130772,2,0,P|427:301|433:265,1,75,2|0,1:0|0:0,0:0:0:0:
446,184,131172,2,0,P|411:190|372:197,1,75,10|0,1:0|0:0,0:0:0:0:
372,197,131472,1,0,0:0:0:0:
372,197,131572,2,0,P|334:191|295:187,1,75,2|0,1:0|0:0,0:0:0:0:
297,98,131972,6,0,P|302:57|307:23,1,75,2|2,1:0|0:0,0:0:0:0:
217,0,132372,1,2,0:0:0:0:
142,50,132572,1,0,0:0:0:0:
142,50,132772,2,0,B|104:37|104:37|74:65|25:65,2,112.5,8|0|10,0:1|0:0|0:0,0:0:0:0:
212,109,133572,5,2,0:0:0:0:
176,197,133772,1,0,1:0:0:0:
176,197,133872,1,0,0:0:0:0:
176,197,133972,2,0,P|183:242|188:276,1,75,0|0,1:0|0:0,0:0:0:0:
143,351,134372,2,0,P|83:336|33:330,1,112.5,8|0,0:1|0:0,0:0:0:0:
0,251,134872,1,0,0:0:0:0:
0,251,134972,1,0,0:0:0:0:
56,180,135172,6,0,P|87:102|58:38,1,150,2|2,1:0|0:0,0:0:0:0:
145,2,135772,1,0,0:0:0:0:
223,51,135972,2,0,L|345:39,1,112.5,8|0,0:1|0:0,0:0:0:0:
414,94,136472,1,0,0:0:0:0:
414,94,136572,1,8,0:0:0:0:
507,91,136772,5,0,0:0:0:0:
508,182,136972,1,0,1:0:0:0:
508,272,137172,2,0,P|470:272|433:274,1,75,2|0,1:0|0:0,0:0:0:0:
323,202,137572,2,0,P|364:201|397:197,1,75,10|0,1:0|0:0,0:0:0:0:
398,198,137872,1,0,0:0:0:0:
398,198,137972,2,0,L|405:122,1,75,2|0,1:0|0:0,0:0:0:0:
404,123,138272,1,0,0:0:0:0:
404,123,138372,1,0,1:0:0:0:
278,41,138772,5,0,3:0:0:0:
278,41,139172,1,0,3:0:0:0:
278,41,139572,1,2,3:0:0:0:
278,41,139972,1,2,3:0:0:0:
278,41,140372,1,0,3:0:0:0:
286,49,141172,5,0,1:0:0:0:
286,49,141372,1,0,1:0:0:0:
231,120,141572,6,0,P|237:162|234:201,1,75,6|2,1:2|0:0,0:0:0:0:
308,258,141972,1,2,0:0:0:0:
308,258,142072,1,0,0:0:0:0:
289,350,142272,1,0,0:0:0:0:
289,350,142372,2,0,P|334:347|373:346,1,75,8|0,0:1|0:0,0:0:0:0:
451,370,142772,2,0,P|452:332|448:290,1,75,0|8,0:0|0:0,0:0:0:0:
434,221,143172,5,0,0:0:0:0:
434,221,143572,2,0,P|396:232|353:229,1,75,2|0,1:0|0:0,0:0:0:0:
360,230,143872,1,0,0:0:0:0:
360,230,143972,2,0,L|352:156,1,75,10|0,1:0|0:0,0:0:0:0:
428,104,144372,2,0,L|420:30,1,75,2|0,1:0|0:0,0:0:0:0:
333,67,144772,6,0,P|276:70|222:58,1,112.5,2|0,1:0|0:0,0:0:0:0:
222,58,145172,2,0,L|146:63,1,75,2|0,0:0|0:0,0:0:0:0:
147,62,145472,1,0,0:0:0:0:
147,62,145572,1,8,0:1:0:0:
72,34,145772,1,0,0:0:0:0:
0,87,145972,2,0,P|23:148|13:200,1,112.5,2|0,0:0|0:0,0:0:0:0:
15,193,146372,1,2,0:0:0:0:
96,245,146572,5,0,1:0:0:0:
81,334,146772,2,0,P|118:337|155:342,1,75,0|0,1:0|0:0,0:0:0:0:
247,355,147172,1,8,0:1:0:0:
313,91,147772,1,0,0:0:0:0:
243,32,147972,6,0,P|267:120|238:174,1,150,2|2,1:0|0:0,0:0:0:0:
242,169,148572,1,0,0:0:0:0:
154,168,148772,1,8,0:1:0:0:
204,258,148972,1,0,0:0:0:0:
204,258,149072,1,0,0:0:0:0:
204,258,149172,2,0,P|249:261|285:266,1,75,0|8,1:0|0:0,0:0:0:0:
363,229,149572,5,0,0:0:0:0:
289,172,149772,1,0,1:0:0:0:
289,172,149972,2,0,P|294:134|298:95,1,75,2|0,1:0|0:0,0:0:0:0:
301,14,150372,2,0,P|337:21|375:22,1,75,10|0,1:0|0:0,0:0:0:0:
375,22,150672,1,0,0:0:0:0:
375,22,150772,2,0,P|415:18|450:22,1,75,2|0,1:0|0:0,0:0:0:0:
512,88,151172,5,2,1:0:0:0:
289,172,153172,2,0,B|207:185|207:185|170:176,1,112.5,2|0,0:0|0:0,0:0:0:0:
178,178,153572,1,8,0:1:0:0:
350,261,153972,1,2,1:0:0:0:
350,261,154172,1,2,1:0:0:0:
308,341,154372,6,0,P|276:333|229:326,1,75,6|2,1:2|0:0,0:0:0:0:
153,369,154772,2,0,P|121:361|74:354,1,75,2|0,0:0|0:0,0:0:0:0:
43,228,155172,1,8,0:1:0:0:
3,309,155372,1,0,0:0:0:0:
43,228,155572,2,0,P|86:223|127:216,1,75,0|8,1:0|0:0,0:0:0:0:
181,154,155972,5,0,0:0:0:0:
101,137,156172,1,0,1:0:0:0:
101,137,156272,1,0,0:0:0:0:
101,137,156372,2,0,P|104:81|84:16,1,112.5,2|0,1:0|0:0,0:0:0:0:
89,27,156772,2,0,L|162:43,1,75,10|0,1:0|0:0,0:0:0:0:
316,80,157172,2,0,L|241:91,1,75,2|0,1:0|0:0,0:0:0:0:
181,154,157572,6,0,P|247:123|320:138,1,150,2|2,1:0|0:0,0:0:0:0:
357,223,158172,2,0,L|354:301,2,75,0|8|0,0:0|0:1|0:0,0:0:0:0:
409,151,158772,2,0,P|445:158|482:150,1,75,2|10,0:0|0:0,0:0:0:0:
500,61,159172,5,2,0:0:0:0:
500,61,159372,1,0,1:0:0:0:
422,14,159572,2,0,P|386:21|342:29,1,75,0|0,1:0|0:0,0:0:0:0:
278,83,159972,2,0,B|223:83|232:70|166:70,1,112.5,8|0,0:1|0:0,0:0:0:0:
166,70,160372,2,0,P|172:111|175:148,1,75,0|0,1:0|1:0,0:0:0:0:
107,205,160772,6,0,P|70:198|32:195,1,75,2|2,1:0|0:0,0:0:0:0:
154,286,161172,2,0,P|116:289|79:295,1,75,2|0,0:0|0:0,0:0:0:0:
198,370,161572,1,8,0:1:0:0:
198,370,161772,1,0,0:0:0:0:
278,332,161972,2,0,P|279:291|286:257,1,75,0|8,1:0|0:0,0:0:0:0:
292,166,162372,6,0,L|368:189,1,75,0|0,0:0|1:0,0:0:0:0:
382,277,162772,2,0,B|488:260|488:260|527:240,1,150,2|10,1:0|1:0,0:0:0:0:
499,67,163572,1,2,1:0:0:0:
499,67,163772,1,0,0:0:0:0:
418,102,163972,6,0,P|425:140|428:179,1,75,6|2,1:2|0:0,0:0:0:0:
490,243,164372,2,0,B|459:292|475:361|475:361|448:331,1,150,2|8,0:0|0:1,0:0:0:0:
456,340,165172,2,0,L|374:350,1,75,2|10,0:0|0:0,0:0:0:0:
298,308,165572,5,2,0:0:0:0:
390,154,165972,2,0,L|392:110,2,37.5,0|0|0,1:0|0:0|0:0,0:0:0:0:
372,245,166372,1,8,0:1:0:0:
302,187,166572,2,0,L|225:190,1,75
50,198,167172,5,2,1:0:0:0:
50,198,167372,1,2,0:0:0:0:
113,261,167572,2,0,P|95:176|103:114,1,150,2|8,0:0|0:1,0:0:0:0:
102,114,168372,2,0,L|176:131,1,75,0|8,0:0|0:0,0:0:0:0:
242,70,168772,5,0,0:0:0:0:
242,70,168972,1,0,1:0:0:0:
187,0,169172,2,0,P|153:15|113:16,1,75,2|0,1:0|0:0,0:0:0:0:
22,13,169572,2,0,P|18:55|14:90,1,75,10|0,1:0|0:0,0:0:0:0:
102,114,169972,2,0,P|98:156|94:191,1,75,2|0,1:0|0:0,0:0:0:0:
28,251,170372,5,2,0:0:0:0:
191,172,170772,1,2,0:0:0:0:
295,324,171172,2,0,P|257:308|218:310,1,75,8|0,0:1|0:0,0:0:0:0:
141,347,171572,2,0,P|137:310|133:271,2,75,2|10|2,0:0|0:0|0:0,0:0:0:0:
151,256,172172,5,8,0:1:0:0:
191,172,172372,2,0,L|232:174,2,37.5
178,81,172772,1,8,0:1:0:0:
226,3,172972,2,0,B|266:11|266:11|299:6,1,75
481,0,173572,5,2,3:0:0:0:
413,171,173972,1,0,3:0:0:0:
236,200,174372,1,8,3:1:0:0:
179,378,174772,1,8,3:2:0:0:
179,378,174872,1,8,0:3:0:0:
179,378,174972,1,4,0:3:0:0:
179,378,175072,1,4,0:3:0:0:
179,378,175172,1,0,3:0:0:0:
244,208,175572,6,0,P|192:201|131:187,1,112.5,2|0,3:0|0:0,0:0:0:0:
133,187,175972,2,0,P|119:242|114:309,1,112.5,8|0,3:1|0:0,0:0:0:0:
113,297,176372,2,0,P|53:283|-2:277,1,112.5,0|0,3:0|0:0,0:0:0:0:
2,277,176772,5,6,1:2:0:0:
34,189,176972,1,2,0:0:0:0:
34,189,177172,2,0,B|37:174|37:174|23:110,1,75,2|0,0:0|0:0,0:0:0:0:
256,192,177572,12,8,179172,0:1:0:0:
367,366,179972,5,6,1:2:0:0:
448,312,180172,1,2,0:0:0:0:
358,270,180372,2,0,P|356:229|352:190,1,75,2|0,0:0|0:0,0:0:0:0:
422,126,180772,1,8,0:1:0:0:
422,126,180972,2,0,B|462:136|462:136|502:129,2,75,0|0|8,0:0|0:0|0:0,0:0:0:0:
390,33,181572,5,0,0:0:0:0:
324,102,181772,1,0,1:0:0:0:
266,37,181972,2,0,P|210:49|150:22,1,112.5,2|0,1:0|0:0,0:0:0:0:
160,30,182372,2,0,L|49:50,1,112.5,10|0,1:0|0:0,0:0:0:0:
49,49,182772,2,0,P|50:96|45:137,1,75,2|0,1:0|0:0,0:0:0:0:
48,124,183072,1,0,0:0:0:0:
48,124,183172,5,2,1:0:0:0:
135,188,183372,1,2,0:0:0:0:
76,265,183572,2,0,B|162:253|149:286|230:276,2,150,2|8|2,0:0|0:1|0:0,0:0:0:0:
9,336,184572,1,10,0:0:0:0:
117,371,184772,5,2,0:0:0:0:
117,371,184972,2,0,P|155:376|194:384,1,75,0|0,1:0|1:0,0:0:0:0:
190,383,185272,1,0,0:0:0:0:
190,383,185372,2,0,L|233:378,2,37.5,0|0|8,0:0|0:0|0:1,0:0:0:0:
216,288,185772,1,0,0:0:0:0:
305,326,185972,2,0,P|346:337|379:334,1,75
378,334,186272,1,0,0:0:0:0:
378,334,186372,5,2,1:0:0:0:
479,371,186572,1,2,0:0:0:0:
504,277,186772,2,0,P|508:219|513:161,1,112.5,2|0,0:0|0:0,0:0:0:0:
512,164,187172,1,8,0:1:0:0:
420,195,187372,1,0,0:0:0:0:
330,229,187572,2,0,P|294:222|252:214,1,75,0|8,0:0|0:0,0:0:0:0:
136,139,187972,5,0,0:0:0:0:
136,139,188172,2,0,P|181:139|215:128,1,75,0|2,1:0|1:0,0:0:0:0:
279,61,188572,1,0,0:0:0:0:
367,103,188772,2,0,P|370:66|374:29,1,75,10|0,1:0|0:0,0:0:0:0:
470,107,189172,1,2,1:0:0:0:
470,107,189372,1,0,0:0:0:0:
418,189,189572,6,0,P|413:226|410:263,1,75,2|2,1:0|0:0,0:0:0:0:
438,355,189972,2,0,P|475:349|512:343,1,75,2|0,0:0|0:0,0:0:0:0:
343,334,190372,1,10,0:1:0:0:
260,380,190572,1,0,0:0:0:0:
260,380,190772,2,0,P|222:384|181:369,2,75,2|10|2,0:0|0:0|0:0,0:0:0:0:
259,281,191372,5,0,1:0:0:0:
189,224,191572,1,0,1:0:0:0:
189,224,191672,1,0,0:0:0:0:
189,224,191772,1,0,0:0:0:0:
189,224,191872,1,0,0:0:0:0:
189,224,191972,2,0,B|197:185|197:185|187:141,1,75,8|0,0:1|0:0,0:0:0:0:
199,54,192372,2,0,B|191:93|191:93|201:134,1,75
106,136,192772,5,2,1:0:0:0:
106,136,192972,1,2,0:0:0:0:
3,110,193172,2,0,P|10:149|15:185,1,75,2|0,0:0|0:0,0:0:0:0:
107,231,193572,2,0,P|101:269|95:309,1,75,8|0,0:1|0:0,0:0:0:0:
159,379,193972,5,0,0:0:0:0:
191,287,194172,2,0,P|228:285|266:284,1,75,8|0,0:0|0:0,0:0:0:0:
440,278,194572,1,0,1:0:0:0:
357,334,194772,2,0,P|357:276|351:213,1,112.5,2|0,1:0|0:0,0:0:0:0:
352,221,195172,2,0,P|344:160|333:110,1,112.5,10|0,1:0|0:0,0:0:0:0:
333,110,195572,1,2,1:0:0:0:
268,58,195772,5,0,0:0:0:0:
268,58,195872,1,0,0:0:0:0:
268,58,195972,1,2,1:0:0:0:
196,124,196172,1,2,0:0:0:0:
105,88,196372,2,0,P|143:141|108:193,1,112.5,2|0,0:0|0:0,0:0:0:0:
127,179,196772,1,8,0:1:0:0:
289,312,197172,1,2,0:0:0:0:
289,312,197372,1,10,0:0:0:0:
212,370,197572,5,2,0:0:0:0:
150,299,197772,2,0,P|111:296|58:293,1,75,0|0,1:0|1:0,0:0:0:0:
5,201,198172,2,0,P|42:198|80:196,1,75,0|8,0:0|0:1,0:0:0:0:
157,137,198572,1,0,0:0:0:0:
61,103,198772,2,0,P|58:62|55:25,1,75
55,28,199072,1,0,0:0:0:0:
55,28,199172,5,2,1:0:0:0:
158,12,199372,1,2,0:0:0:0:
247,74,199572,2,0,P|298:105|365:93,1,112.5,2|0,0:0|0:0,0:0:0:0:
348,101,199972,2,0,P|373:73|386:111,1,150,8|0,0:1|0:0,0:0:0:0:
419,233,200572,2,0,L|494:226,1,75,8|0,0:0|0:0,0:0:0:0:
327,382,201172,6,0,P|273:364|208:367,1,112.5,2|0,0:0|0:0,0:0:0:0:
217,364,201572,2,0,P|262:328|286:272,1,112.5,2|0,0:0|0:0,0:0:0:0:
284,279,201972,2,0,L|277:203,1,75,2|0,0:0|0:0,0:0:0:0:
230,119,202372,5,6,0:1:0:0:
414,193,202772,1,2,3:0:0:0:
497,16,203172,2,0,P|459:20|414:25,1,75,8|0,3:1|0:0,0:0:0:0:
358,96,203572,2,0,P|321:90|273:83,1,75,2|2,3:0|0:0,0:0:0:0:
197,42,203972,5,2,3:0:0:0:
44,169,204372,2,0,P|78:154|116:154,1,75,0|0,3:0|0:0,0:0:0:0:
106,247,204772,1,8,3:1:0:0:
139,337,204972,2,0,L|220:336,1,75,0|8,0:0|3:2,0:0:0:0:
213,336,205272,1,8,0:3:0:0:
213,336,205372,1,4,0:3:0:0:
213,336,205472,1,4,0:3:0:0:
213,336,205572,5,2,3:0:0:0:
288,273,205772,1,2,0:0:0:0:
202,235,205972,2,0,P|212:180|191:129,1,112.5,2|0,3:0|0:0,0:0:0:0:
191,129,206372,2,0,B|230:134|230:134|265:126,1,75,8|0,3:1|0:0,0:0:0:0:
363,128,206772,2,0,B|324:123|324:123|289:131,1,75,0|0,3:0|0:0,0:0:0:0:
274,33,207172,5,0,3:0:0:0:
455,112,207572,2,0,P|448:153|442:195,1,75,2|0,3:0|0:0,0:0:0:0:
501,266,207972,2,0,B|456:266|442:289|382:276,1,112.5,10|0,3:1|0:0,0:0:0:0:
389,276,208372,2,0,P|397:313|399:351,1,75,2|0,3:0|0:0,0:0:0:0:
306,249,208772,5,2,1:0:0:0:
306,249,208972,1,2,0:0:0:0:
231,307,209172,2,0,P|194:320|154:318,1,75,2|0,0:0|0:0,0:0:0:0:
74,260,209572,2,0,P|153:262|199:210,1,150,8|0,0:1|0:0,0:0:0:0:
136,139,210172,1,8,0:0:0:0:
177,50,210372,5,2,0:0:0:0:
239,127,210572,1,0,1:0:0:0:
136,139,210772,2,0,P|98:144|57:151,1,75,0|0,1:0|0:0,0:0:0:0:
177,50,211172,2,0,P|221:43|261:36,1,75,8|2,0:1|0:0,0:0:0:0:
89,57,211572,1,10,0:0:0:0:
89,57,211672,1,8,0:3:0:0:
89,57,211772,1,8,0:3:0:0:
89,57,211872,1,8,0:3:0:0:
89,57,211972,5,2,1:0:0:0:
61,150,212172,1,2,0:0:0:0:
34,247,212372,2,0,P|44:307|48:362,1,112.5,2|0,3:0|0:0,0:0:0:0:
47,358,212772,2,0,P|86:349|122:342,1,75,8|0,3:1|0:0,0:0:0:0:
236,272,213172,2,0,P|199:268|163:257,1,75,0|8,3:0|0:0,0:0:0:0:
101,178,213572,6,0,P|93:108|82:30,1,150,2|2,0:0|0:0,0:0:0:0:
249,140,214372,2,0,B|319:151|327:115|400:126,1,150,2|2,0:0|0:0,0:0:0:0:
