osu file format v14

[General]
AudioFilename: audio.mp3
AudioLeadIn: 0
PreviewTime: 175472
Countdown: 0
SampleSet: Soft
StackLeniency: 0.2
Mode: 0
LetterboxInBreaks: 0
WidescreenStoryboard: 0

[Editor]
DistanceSpacing: 0.6
BeatDivisor: 4
GridSize: 32
TimelineZoom: 1

[Metadata]
Title:INDUSTRY BABY (feat. Jack Harlow)
TitleUnicode:INDUSTRY BABY (feat. Jack Harlow)
Artist:Lil Nas X
ArtistUnicode:Lil Nas X
Creator:xandeez nuts
Version:MONTERO
Source:
Tags:pop trap hip-hop hiphop english male vocals vocalist feat collab [poke] mimari dooe -doodle jas CraEZy yuuya_ke montero take a daytrip kanye west
BeatmapID:3148192
BeatmapSetID:1539995

[Difficulty]
HPDrainRate:6
CircleSize:3.8
OverallDifficulty:8.5
ApproachRate:9.2
SliderMultiplier:2
SliderTickRate:1

[Events]
//Background and Video events
0,0,"wallpapersden.com_neon-wave-futuristic-city_1920x1080.jpg",0,0
//Break Periods
2,61772,63402
2,125772,127402
2,151372,153002
//Storyboard Layer 0 (Background)
//Storyboard Layer 1 (Fail)
//Storyboard Layer 2 (Pass)
//Storyboard Layer 3 (Foreground)
//Storyboard Layer 4 (Overlay)
//Storyboard Sound Samples

[TimingPoints]
3991,400,4,2,1,60,1,0
3991,-178.571428571429,4,2,1,60,0,0
8791,-1000,4,2,1,60,0,0
10372,400,4,2,1,60,1,0
10372,-119.047619047619,4,2,1,60,0,0
13572,-68.4931506849315,4,2,1,60,0,0
15572,-119.047619047619,4,2,1,60,0,0
15972,-100,4,2,1,60,0,0
16372,-80.6451612903226,4,2,1,60,0,0
16772,-68.4931506849315,4,2,1,60,0,0
17572,-119.047619047619,4,2,1,60,0,0
17972,-90.0900900900901,4,2,1,60,0,0
18772,-68.4931506849315,4,2,1,60,0,0
20772,-119.047619047619,4,2,1,60,0,0
22372,-100,4,2,1,60,0,0
22772,-80.6451612903226,4,2,1,60,0,0
23172,-75.7575757575758,4,2,1,50,0,0
23572,-100,4,2,1,50,0,0
24772,-119.047619047619,4,2,1,50,0,0
26772,-133.333333333333,4,2,1,50,0,0
28772,-119.047619047619,4,2,1,50,0,0
29172,-100,4,2,1,50,0,0
29572,-74.6268656716418,4,2,1,50,0,0
29972,-100,4,2,1,50,0,0
31172,-119.047619047619,4,2,1,50,0,0
33172,-133.333333333333,4,2,1,50,0,0
34772,-156.25,4,2,1,45,0,0
35172,-104.166666666667,4,2,1,55,0,0
35572,-74.0740740740741,4,2,1,65,0,0
35972,-63.6942675159236,4,2,1,80,0,0
36372,-106.382978723404,4,2,1,80,0,0
37172,-75.7575757575758,4,2,1,80,0,0
37972,-64.5161290322581,4,2,1,80,0,0
38372,-90.0900900900901,4,2,1,80,0,0
39172,-63.6942675159236,4,2,1,80,0,0
39572,-106.382978723404,4,2,1,80,0,0
41172,-128.205128205128,4,2,1,80,0,0
41572,-100,4,2,1,80,0,0
41972,-72.992700729927,4,2,1,80,0,0
42372,-63.2911392405063,4,2,1,80,0,0
42772,-106.382978723404,4,2,1,80,0,0
43572,-75.7575757575758,4,2,1,80,0,0
44372,-63.2911392405063,4,2,1,80,0,0
44772,-90.0900900900901,4,2,1,80,0,0
45572,-63.2911392405063,4,2,1,80,0,0
47572,-128.205128205128,4,2,1,80,0,0
47972,-100,4,2,1,80,0,0
48372,-72.992700729927,4,2,1,80,0,0
48772,-63.2911392405063,4,2,1,80,0,0
49972,-75.7575757575758,4,2,1,80,0,0
50772,-63.2911392405063,4,2,1,80,0,0
51172,-90.0900900900901,4,2,1,80,0,0
51972,-63.2911392405063,4,2,1,80,0,0
53172,-105.263157894737,4,2,1,80,0,0
53972,-128.205128205128,4,2,1,80,0,0
54372,-100,4,2,1,80,0,0
54772,-72.992700729927,4,2,1,80,0,0
55172,-63.2911392405063,4,2,1,80,0,0
55572,-107.52688172043,4,2,1,80,0,0
56372,-78.7401574803149,4,2,1,80,0,0
57172,-63.2911392405063,4,2,1,80,0,0
57572,-90.0900900900901,4,2,1,80,0,0
58372,-63.2911392405063,4,2,1,80,0,0
58772,-63.2911392405063,4,2,1,80,0,0
58972,-312.5,4,2,1,80,0,0
59172,-312.5,4,2,1,60,0,0
60372,-222.222222222222,4,2,1,60,0,0
60772,-119.047619047619,4,2,1,60,0,0
61172,-90.0900900900901,4,2,1,60,0,0
61572,-90.0900900900901,4,2,1,60,0,0
63972,-90.0900900900901,4,2,1,40,0,0
64372,-68.4931506849315,4,2,1,60,0,0
64772,-63.2911392405063,4,2,1,60,0,0
65172,-147.058823529412,4,2,1,60,0,0
66572,-222.222222222222,4,2,1,60,0,0
66772,-82.6446280991736,4,2,1,60,0,0
67172,-119.047619047619,4,2,1,60,0,0
67572,-82.6446280991736,4,2,1,60,0,0
67972,-68.4931506849315,4,2,1,60,0,0
68372,-90.0900900900901,4,2,1,60,0,0
69972,-68.4931506849315,4,2,1,60,0,0
71572,-119.047619047619,4,2,1,60,0,0
72372,-75.7575757575758,4,2,1,60,0,0
73572,-90.0900900900901,4,2,1,60,0,0
73972,-68.4931506849315,4,2,1,60,0,0
76372,-263.157894736842,4,2,1,60,0,0
77172,-80.6451612903226,4,2,1,60,0,0
77572,-68.4931506849315,4,2,1,60,0,0
79572,-136.986301369863,4,2,1,60,0,0
79972,-104.166666666667,4,2,1,60,0,0
80372,-81.3008130081301,4,2,1,60,0,0
80772,-68.4931506849315,4,2,1,60,0,0
81972,-100,4,2,1,60,0,0
82772,-68.4931506849315,4,2,1,60,0,0
84772,-119.047619047619,4,2,1,60,0,0
85572,-400,4,2,1,60,0,0
85972,-119.047619047619,4,2,1,60,0,0
86372,-90.0900900900901,4,2,1,60,0,0
86772,-74.6268656716418,4,2,1,50,0,0
87572,-100,4,2,1,50,0,0
88772,-119.047619047619,4,2,1,50,0,0
90772,-133.333333333333,4,2,1,50,0,0
92772,-119.047619047619,4,2,1,50,0,0
93172,-100,4,2,1,50,0,0
93572,-74.6268656716418,4,2,1,50,0,0
93972,-100,4,2,1,50,0,0
95172,-119.047619047619,4,2,1,50,0,0
97172,-133.333333333333,4,2,1,50,0,0
98772,-156.25,4,2,1,45,0,0
99172,-104.166666666667,4,2,1,55,0,0
99572,-74.0740740740741,4,2,1,65,0,0
99972,-63.6942675159236,4,2,1,80,0,0
100372,-106.382978723404,4,2,1,80,0,0
101172,-75.7575757575758,4,2,1,80,0,0
101972,-64.5161290322581,4,2,1,80,0,0
102372,-90.0900900900901,4,2,1,80,0,0
103172,-63.6942675159236,4,2,1,80,0,0
103572,-106.382978723404,4,2,1,80,0,0
105172,-128.205128205128,4,2,1,80,0,0
105572,-100,4,2,1,80,0,0
105972,-72.992700729927,4,2,1,80,0,0
106372,-63.2911392405063,4,2,1,80,0,0
106772,-106.382978723404,4,2,1,80,0,0
107572,-75.7575757575758,4,2,1,80,0,0
108372,-63.2911392405063,4,2,1,80,0,0
108772,-90.0900900900901,4,2,1,80,0,0
109572,-63.2911392405063,4,2,1,80,0,0
111572,-128.205128205128,4,2,1,80,0,0
111972,-100,4,2,1,80,0,0
112372,-72.992700729927,4,2,1,80,0,0
112772,-63.2911392405063,4,2,1,80,0,0
113972,-75.7575757575758,4,2,1,80,0,0
114772,-63.2911392405063,4,2,1,80,0,0
115172,-90.0900900900901,4,2,1,80,0,0
115972,-63.2911392405063,4,2,1,80,0,0
117172,-105.263157894737,4,2,1,80,0,0
117972,-128.205128205128,4,2,1,80,0,0
118372,-100,4,2,1,80,0,0
118772,-72.992700729927,4,2,1,80,0,0
119172,-63.2911392405063,4,2,1,80,0,0
119572,-107.52688172043,4,2,1,80,0,0
120372,-78.7401574803149,4,2,1,80,0,0
121172,-63.2911392405063,4,2,1,80,0,0
121572,-90.0900900900901,4,2,1,80,0,0
122372,-63.2911392405063,4,2,1,80,0,0
122772,-63.2911392405063,4,2,1,80,0,0
122972,-312.5,4,2,1,80,0,0
123172,-312.5,4,2,1,60,0,0
124372,-222.222222222222,4,2,1,60,0,0
124772,-119.047619047619,4,2,1,60,0,0
125172,-90.0900900900901,4,2,1,60,0,0
125572,-68.4931506849315,4,2,1,60,0,0
127972,-68.4931506849315,4,2,1,40,0,0
128772,-68.4931506849315,4,2,1,60,0,0
129172,-147.058823529412,4,2,1,60,0,0
131172,-119.047619047619,4,2,1,60,0,0
131572,-90.0900900900901,4,2,1,60,0,0
131972,-68.4931506849315,4,2,1,60,0,0
132772,-119.047619047619,4,2,1,60,0,0
133172,-90.0900900900901,4,2,1,60,0,0
133972,-68.4931506849315,4,2,1,60,0,0
135972,-119.047619047619,4,2,1,60,0,0
137172,-119.047619047619,4,2,1,60,0,0
137572,-100,4,2,1,60,0,0
137972,-80.6451612903226,4,2,1,60,0,0
138372,-400,4,2,1,40,0,0
140372,-263.157894736842,4,2,1,40,0,0
141172,-90.0900900900901,4,2,1,40,0,0
141572,-68.4931506849315,4,2,1,60,0,0
143572,-147.058823529412,4,2,1,60,0,0
143970,-119.047619047619,4,2,1,60,0,0
144372,-90.0900900900901,4,2,1,60,0,0
144772,-68.4931506849315,4,2,1,60,0,0
145172,-119.047619047619,4,2,1,60,0,0
146772,-68.4931506849315,4,2,1,60,0,0
149972,-119.047619047619,4,2,1,60,0,0
150372,-90.0900900900901,4,2,1,60,0,0
150772,-68.4931506849315,4,2,1,60,0,0
153572,-68.4931506849315,4,2,1,40,0,0
153972,-90.0900900900901,4,2,1,40,0,0
154372,-68.4931506849315,4,2,1,60,0,0
154772,-119.047619047619,4,2,1,60,0,0
155572,-90.0900900900901,4,2,1,60,0,0
156372,-119.047619047619,4,2,1,60,0,0
156772,-100,4,2,1,60,0,0
157172,-80.6451612903226,4,2,1,60,0,0
157572,-68.4931506849315,4,2,1,60,0,0
158772,-90.0900900900901,4,2,1,60,0,0
159572,-68.4931506849315,4,2,1,60,0,0
161172,-119.047619047619,4,2,1,60,0,0
163172,-100,4,2,1,60,0,0
163572,-80.6451612903226,4,2,1,60,0,0
163972,-68.4931506849315,4,2,1,60,0,0
164372,-119.047619047619,4,2,1,60,0,0
165972,-68.4931506849315,4,2,1,60,0,0
167572,-119.047619047619,4,2,1,60,0,0
169572,-90.0900900900901,4,2,1,60,0,0
169972,-75.7575757575758,4,2,1,60,0,0
170372,-68.4931506849315,4,2,1,60,0,0
170772,-119.047619047619,4,2,1,60,0,0
172372,-68.4931506849315,4,2,1,60,0,0
173572,-133.333333333333,4,2,1,60,0,0
175572,-156.25,4,2,1,45,0,0
175972,-104.166666666667,4,2,1,55,0,0
176372,-74.0740740740741,4,2,1,65,0,0
176772,-68.4931506849315,4,2,1,80,0,0
177372,-68.4931506849315,4,2,1,60,0,0
178772,-263.157894736842,4,2,1,60,0,0
179972,-63.2911392405063,4,2,1,80,0,0
181972,-128.205128205128,4,2,1,80,0,0
182372,-100,4,2,1,80,0,0
182772,-72.992700729927,4,2,1,80,0,0
183172,-63.2911392405063,4,2,1,80,0,0
183572,-119.047619047619,4,2,1,80,0,0
184372,-90.0900900900901,4,2,1,80,0,0
185172,-63.2911392405063,4,2,1,80,0,0
185572,-90.0900900900901,4,2,1,80,0,0
186372,-63.2911392405063,4,2,1,80,0,0
188372,-128.205128205128,4,2,1,80,0,0
188772,-100,4,2,1,80,0,0
189172,-72.992700729927,4,2,1,80,0,0
189572,-63.2911392405063,4,2,1,80,0,0
190772,-90.0900900900901,4,2,1,80,0,0
191572,-63.2911392405063,4,2,1,80,0,0
191972,-90.0900900900901,4,2,1,80,0,0
192772,-63.2911392405063,4,2,1,80,0,0
193972,-119.047619047619,4,2,1,80,0,0
194772,-128.205128205128,4,2,1,80,0,0
195172,-100,4,2,1,80,0,0
195572,-72.992700729927,4,2,1,80,0,0
195972,-63.2911392405063,4,2,1,80,0,0
197172,-90.0900900900901,4,2,1,80,0,0
197972,-63.2911392405063,4,2,1,80,0,0
198372,-90.0900900900901,4,2,1,80,0,0
199172,-63.2911392405063,4,2,1,80,0,0
199972,-68.4931506849315,4,2,1,60,0,0
201172,-222.222222222222,4,2,1,60,0,0
201572,-119.047619047619,4,2,1,60,0,0
201972,-90.0900900900901,4,2,1,60,0,0
202372,-90.0900900900901,4,2,1,80,0,0
202772,-119.047619047619,4,2,1,80,0,0
203172,-80,4,2,1,80,0,0
203972,-105.263157894737,4,2,1,80,0,0
205972,-119.047619047619,4,2,1,80,0,0
207172,-78.7401574803149,4,2,1,80,0,0
207572,-119.047619047619,4,2,1,80,0,0
207972,-81.9672131147541,4,2,1,80,0,0
208372,-68.4931506849315,4,2,1,80,0,0
208772,-63.2911392405063,4,2,1,80,0,0
209572,-90.0900900900901,4,2,1,80,0,0
209972,-133.333333333333,4,2,1,80,0,0
210772,-61.7283950617284,4,2,1,80,0,0
213572,-263.157894736842,4,2,1,80,0,0
213972,-133.333333333333,4,2,1,80,0,0
214372,-80,4,2,1,80,0,0
214772,-119.047619047619,4,2,1,80,0,0

[Colours]
Combo1 : 91,85,221
Combo2 : 238,47,119
Combo3 : 255,244,45

[HitObjects]
427,334,3991,6,0,L|460:221,1,112.000001367188,2|0,0:0|0:0,0:0:0:0:
419,152,4524,1,0,0:0:0:0:
419,152,4657,1,0,0:0:0:0:
419,152,4791,5,0,0:0:0:0:
419,152,5191,1,0,0:0:0:0:
226,285,5591,6,0,P|154:263|150:221,1,112.000001367188,2|0,0:0|0:0,0:0:0:0:
195,172,6124,1,0,0:0:0:0:
195,172,6257,1,0,0:0:0:0:
143,110,6391,5,0,0:0:0:0:
143,110,6791,1,0,0:0:0:0:
388,184,7191,6,0,B|398:162|398:162|374:92,1,74.666667578125,2|0,0:0|0:0,0:0:0:0:
300,85,7591,1,0,0:0:0:0:
335,13,7724,1,0,0:0:0:0:
410,37,7857,1,0,0:0:0:0:
410,37,7991,5,0,0:0:0:0:
410,37,8391,1,0,0:0:0:0:
312,338,8791,6,0,P|295:371|261:384,1,75,2|0,0:0|0:0,0:0:0:0:
153,350,10372,6,0,L|135:295,1,41.9999987182618,2|0,1:0|0:0,0:0:0:0:
132,290,10572,2,0,L|114:235,1,41.9999987182618,2|0,0:0|0:0,0:0:0:0:
40,212,10772,6,0,B|88:247|132:218|115:204|162:164|216:213,1,167.999994873047,2|0,0:0|0:0,0:0:0:0:
452,33,11572,6,0,L|434:88,1,41.9999987182618,2|0,0:0|0:0,0:0:0:0:
431,93,11772,2,0,L|413:148,1,41.9999987182618,2|0,0:0|0:0,0:0:0:0:
467,194,11972,6,0,L|500:320,1,125.999996154785,2|0,0:0|0:0,0:0:0:0:
458,381,12372,5,0,1:0:0:0:
132,13,13572,6,0,B|168:22|168:22|198:80,1,73.0000020050049,2|0,1:0|0:0,0:0:0:0:
124,135,13772,2,0,B|124:172|124:172|76:216,1,73.0000020050049,2|0,0:0|0:0,0:0:0:0:
24,164,13972,5,2,0:0:0:0:
14,159,14172,1,0,0:0:0:0:
173,236,14372,5,8,0:1:0:0:
186,242,14572,1,0,0:0:0:0:
196,248,14772,1,0,0:0:0:0:
262,203,14972,1,8,0:0:0:0:
330,163,15172,5,0,0:0:0:0:
405,218,15372,1,0,1:0:0:0:
499,103,15572,6,0,L|364:61,1,125.999996154785,2|0,1:0|0:0,0:0:0:0:
283,30,15972,6,0,L|430:0,1,150,10|0,1:0|0:0,0:0:0:0:
205,92,16372,6,0,L|19:52,1,185.99999262085,2|0,1:0|0:0,0:0:0:0:
122,208,16772,6,0,B|159:202|159:202|202:236,1,73.0000020050049,2|0,1:0|0:0,0:0:0:0:
160,318,16972,2,0,B|175:352|175:352|153:402,1,73.0000020050049,2|0,0:0|0:0,0:0:0:0:
78,378,17172,1,2,0:0:0:0:
69,373,17372,1,0,0:0:0:0:
238,290,17572,6,0,L|332:330,1,83.9999974365235,8|0,0:1|0:0,0:0:0:0:
384,273,17972,2,0,L|448:256,1,55.5000013549805,2|0,0:0|0:0,0:0:0:0:
459,254,18172,2,0,L|523:237,1,55.5000013549805,10|0,0:0|0:0,0:0:0:0:
431,178,18372,5,2,0:0:0:0:
490,59,18572,1,0,1:0:0:0:
287,3,18772,6,0,B|220:27|220:27|183:89|183:89|92:124,1,219.000006015015,0|0,1:0|0:0,0:0:0:0:
7,51,19172,5,8,0:1:0:0:
149,350,19772,5,0,1:0:0:0:
255,210,19972,6,0,B|267:175|267:175|323:148,1,73.0000020050049,2|0,1:0|0:0,0:0:0:0:
367,225,20172,2,0,B|403:227|403:227|444:274,1,73.0000020050049,2|0,0:0|0:0,0:0:0:0:
400,329,20372,1,2,0:0:0:0:
390,341,20572,1,0,0:0:0:0:
385,140,20772,6,0,L|476:93,1,83.9999974365235,8|0,0:1|0:0,0:0:0:0:
497,34,21172,1,0,0:0:0:0:
489,26,21372,1,8,0:0:0:0:
414,0,21572,5,0,0:0:0:0:
313,83,21772,1,8,0:1:0:0:
67,22,21972,6,0,P|119:20|175:92,1,125.999996154785,2|0,0:0|0:0,0:0:0:0:
195,77,22372,6,0,P|205:183|142:232,1,150,10|0,0:1|0:0,0:0:0:0:
186,242,22772,6,0,P|135:297|30:289,1,185.99999262085,2|0,0:0|0:0,0:0:0:0:
287,353,23172,6,0,L|309:274,1,65.999999798584,6|0,0:1|0:0,0:0:0:0:
354,118,23372,2,0,L|336:181,1,65.999999798584,2|0,0:0|0:0,0:0:0:0:
306,336,23572,2,0,L|358:139,1,200,2|8,3:0|3:1,0:0:0:0:
117,74,24372,6,0,L|193:55,1,50,2|0,3:0|0:0,0:0:0:0:
284,27,24572,2,0,L|236:40,1,50,2|0,0:0|0:0,0:0:0:0:
114,61,24772,2,0,L|294:16,1,167.999994873047,2|0,3:0|3:0,0:0:0:0:
84,136,25572,6,0,L|52:225,1,83.9999974365235,8|0,3:1|0:0,0:0:0:0:
200,178,25972,5,8,3:2:0:0:
211,181,26072,1,8,0:3:0:0:
219,190,26172,1,4,0:3:0:0:
224,200,26272,1,4,0:3:0:0:
257,271,26372,6,0,L|203:306,1,41.9999987182618,2|0,3:0|0:0,0:0:0:0:
118,364,26572,2,0,L|153:341,1,41.9999987182618,2|0,0:0|0:0,0:0:0:0:
257,284,26772,2,0,L|120:370,1,150.000005722046,2|8,3:0|3:1,0:0:0:0:
129,363,27572,1,0,3:0:0:0:
324,277,27972,5,0,3:0:0:0:
335,283,28172,1,0,0:0:0:0:
495,105,28372,6,0,L|377:82,1,112.500004291535,2|0,3:0|0:0,0:0:0:0:
368,78,28772,6,0,L|230:49,1,125.999996154785,10|0,3:1|0:0,0:0:0:0:
226,47,29172,6,0,L|53:10,1,150,2|0,3:0|0:0,0:0:0:0:
175,143,29572,6,0,L|155:217,1,66.9999968307497,6|0,0:1|0:0,0:0:0:0:
107,384,29772,2,0,L|124:319,1,66.9999968307497,2|0,0:0|0:0,0:0:0:0:
152,158,29972,2,0,L|98:362,1,200,2|8,3:0|3:1,0:0:0:0:
344,242,30772,6,0,L|428:271,1,50,2|0,3:0|0:0,0:0:0:0:
507,301,30972,2,0,L|459:284,1,50,2|0,0:0|0:0,0:0:0:0:
348,230,31172,2,0,L|513:288,1,167.999994873047,2|0,3:0|3:0,0:0:0:0:
348,230,31972,1,8,3:1:0:0:
411,54,32372,5,8,3:2:0:0:
410,41,32472,1,8,0:3:0:0:
400,31,32572,1,4,0:3:0:0:
386,24,32672,1,4,0:3:0:0:
309,53,32772,6,0,L|243:41,1,41.9999987182618,2|0,3:0|0:0,0:0:0:0:
149,19,32972,2,0,L|191:27,1,41.9999987182618,2|0,0:0|0:0,0:0:0:0:
299,60,33172,2,0,L|153:28,1,150.000005722046,2|8,3:0|3:1,0:0:0:0:
299,60,33972,1,0,3:0:0:0:
200,147,34372,5,0,0:0:0:0:
189,147,34572,1,8,0:1:0:0:
186,305,34772,6,0,L|85:338,1,96,2|0,1:0|0:0,0:0:0:0:
187,222,35172,6,0,L|30:273,1,144.000003515625,10|0,1:0|0:0,0:0:0:0:
194,135,35572,6,0,L|-38:211,1,202.500000772476,2|0,1:0|0:0,0:0:0:0:
319,19,35972,6,0,B|356:38|356:38|366:100,1,78.5000002994538,6|0,1:2|0:0,0:0:0:0:
427,163,36172,2,0,B|408:200|408:200|346:211,1,78.5000002994538,2|0,0:0|0:0,0:0:0:0:
199,124,36372,6,0,L|301:146,1,93.9999985656739,2|0,0:0|0:0,0:0:0:0:
398,298,36772,1,8,0:1:0:0:
392,310,37172,6,0,L|330:331,1,65.999999798584,2|0,0:0|0:0,0:0:0:0:
314,338,37372,2,0,L|252:359,1,65.999999798584,10|0,0:0|0:0,0:0:0:0:
173,327,37572,5,2,0:0:0:0:
50,251,37772,1,0,1:0:0:0:
236,86,37972,6,0,B|169:56|169:56|85:99|85:99|-4:56,1,232.500001773834,0|0,1:0|0:0,0:0:0:0:
200,53,38372,6,0,L|251:77,1,55.5000013549805,8|0,0:1|0:0,0:0:0:0:
335,59,38572,1,0,0:0:0:0:
350,65,38772,1,0,0:0:0:0:
334,75,38972,1,0,0:0:0:0:
228,219,39172,6,0,B|206:249|206:249|219:288,1,78.5000002994538,2|0,1:0|0:0,0:0:0:0:
327,305,39372,2,0,B|356:326|356:326|396:313,1,78.5000002994538,2|0,0:0|0:0,0:0:0:0:
435,242,39572,1,2,0:0:0:0:
441,233,39772,1,0,0:0:0:0:
297,380,39972,1,8,0:1:0:0:
297,380,40572,5,8,0:0:0:0:
222,348,40772,5,0,0:0:0:0:
319,211,40972,1,0,1:0:0:0:
149,44,41172,6,0,P|122:65|114:100,1,39.0000013092042,2|0,1:0|0:0,0:0:0:0:
56,116,41372,1,0,0:0:0:0:
328,193,41572,6,0,P|323:168|295:132,1,50,10|0,1:0|0:0,0:0:0:0:
296,69,41772,1,0,0:0:0:0:
67,251,41972,6,0,P|110:270|164:253,1,68.5000019336701,2|0,1:0|0:0,0:0:0:0:
211,330,42172,1,0,0:0:0:0:
466,132,42372,6,0,B|501:148|501:148|517:202,1,79.000001928711,2|0,1:0|0:0,0:0:0:0:
444,264,42572,2,0,B|431:300|431:300|378:320,1,79.000001928711,2|0,0:0|0:0,0:0:0:0:
298,152,42772,6,0,L|411:190,1,93.9999985656739,2|0,0:0|0:0,0:0:0:0:
480,362,43172,1,8,0:1:0:0:
469,349,43572,6,0,L|385:321,1,65.999999798584,2|0,0:0|0:0,0:0:0:0:
383,320,43772,2,0,L|321:299,1,65.999999798584,10|0,0:0|0:0,0:0:0:0:
236,338,43972,5,2,0:0:0:0:
95,251,44172,1,0,1:0:0:0:
214,49,44372,6,0,B|253:24|300:39|309:73|320:121|384:140|445:67,1,237.000005786133,0|0,1:0|0:0,0:0:0:0:
254,25,44772,6,0,P|230:28|193:51,1,55.5000013549805,8|0,0:1|0:0,0:0:0:0:
163,112,44972,1,0,0:0:0:0:
159,125,45172,1,0,0:0:0:0:
175,121,45372,1,0,0:0:0:0:
105,328,45572,6,0,B|121:363|121:363|175:379,1,79.000001928711,2|0,1:0|0:0,0:0:0:0:
237,306,45772,2,0,B|273:293|273:293|293:240,1,79.000001928711,2|0,0:0|0:0,0:0:0:0:
287,179,45972,5,2,0:0:0:0:
284,169,46172,1,0,0:0:0:0:
353,343,46372,1,8,0:1:0:0:
353,343,46972,5,8,0:0:0:0:
388,271,47172,5,0,0:0:0:0:
512,368,47372,1,0,1:0:0:0:
369,46,47572,6,0,P|396:67|404:102,1,39.0000013092042,2|0,1:0|0:0,0:0:0:0:
462,118,47772,2,0,P|449:149|417:166,1,39.0000013092042
190,195,47972,6,0,P|195:170|223:134,1,50,10|0,1:0|0:0,0:0:0:0:
222,71,48172,2,0,P|248:69|290:87,1,50
451,253,48372,6,0,P|408:272|354:255,1,68.5000019336701,2|0,1:0|0:0,0:0:0:0:
307,332,48572,2,0,P|278:295|280:238,1,68.5000019336701
52,134,48772,6,0,B|17:150|17:150|1:204,1,79.000001928711,2|0,1:0|0:0,0:0:0:0:
74,266,48972,2,0,B|87:302|87:302|140:322,1,79.000001928711,2|0,0:0|0:0,0:0:0:0:
184,264,49172,1,2,0:0:0:0:
234,206,49372,1,0,0:0:0:0:
139,70,49572,5,10,0:1:0:0:
211,102,49772,1,0,0:0:0:0:
321,152,49972,6,0,L|428:189,1,65.999999798584,2|0,0:0|0:0,0:0:0:0:
430,114,50172,2,0,L|493:93,1,65.999999798584,10|0,0:0|0:0,0:0:0:0:
385,54,50372,1,2,0:0:0:0:
462,190,50572,1,0,1:0:0:0:
380,335,50772,6,0,P|337:344|284:315,1,79.000001928711,0|0,1:0|0:0,0:0:0:0:
219,277,50972,2,0,P|180:254|123:257,1,79.000001928711
390,321,51172,6,0,L|465:339,1,55.5000013549805,8|0,0:1|0:0,0:0:0:0:
509,290,51372,1,0,0:0:0:0:
512,274,51572,1,0,0:0:0:0:
497,279,51772,1,0,0:0:0:0:
256,127,51972,6,0,B|241:89|241:89|277:38,1,79.000001928711,2|0,1:0|0:0,0:0:0:0:
362,63,52172,2,0,B|394:38|394:38|453:60,1,79.000001928711,2|0,0:0|0:0,0:0:0:0:
469,123,52372,1,2,0:0:0:0:
506,195,52572,1,0,0:0:0:0:
345,263,52772,5,8,0:1:0:0:
366,186,52972,1,0,0:0:0:0:
340,278,53172,6,0,L|242:308,1,94.9999974632264,0|8,0:0|0:0,0:0:0:0:
183,260,53572,1,0,0:0:0:0:
53,349,53772,1,0,1:0:0:0:
230,80,53972,6,0,P|257:101|265:136,1,39.0000013092042,2|0,1:0|0:0,0:0:0:0:
323,152,54172,1,0,0:0:0:0:
51,229,54372,6,0,P|56:204|84:168,1,50,10|0,1:0|0:0,0:0:0:0:
83,105,54572,1,0,0:0:0:0:
312,287,54772,6,0,P|269:306|215:289,1,68.5000019336701,2|0,1:0|0:0,0:0:0:0:
168,366,54972,1,0,0:0:0:0:
452,188,55172,6,0,B|488:181|488:181|507:144,1,78.5000002994538,2|0,1:0|0:0,0:0:0:0:
442,55,55372,2,0,B|436:18|436:18|399:0,1,78.5000002994538,2|0,0:0|0:0,0:0:0:0:
343,53,55572,5,2,0:0:0:0:
331,64,55772,1,0,0:0:0:0:
183,34,55972,1,8,0:1:0:0:
190,24,56172,1,0,0:0:0:0:
203,122,56372,6,0,L|161:184,1,63.4999995155334,2|0,0:0|0:0,0:0:0:0:
154,192,56572,2,0,L|112:254,1,63.4999995155334,10|0,0:0|0:0,0:0:0:0:
44,270,56772,1,2,0:0:0:0:
171,384,56972,1,0,1:0:0:0:
324,188,57172,6,0,B|350:252|417:242|417:242|387:306|449:363,1,237.000005786133,0|0,1:0|0:0,0:0:0:0:
345,245,57572,6,0,P|326:229|309:190,1,55.5000013549805,8|0,0:1|0:0,0:0:0:0:
267,126,57772,1,0,0:0:0:0:
265,111,57972,1,0,0:0:0:0:
282,118,58172,1,0,0:0:0:0:
293,323,58372,6,0,B|277:358|277:358|223:374,1,79.000001928711,2|0,1:0|0:0,0:0:0:0:
161,301,58572,2,0,B|125:288|125:288|105:235,1,79.000001928711,2|0,0:0|0:0,0:0:0:0:
144,180,58772,5,2,0:0:0:0:
151,170,58972,1,0,0:0:0:0:
99,36,59772,5,0,0:0:0:0:
106,26,59972,1,0,0:0:0:0:
273,118,60372,6,0,L|340:95,1,67.4999979400635,2|0,0:0|0:0,0:0:0:0:
269,203,60772,6,0,L|412:154,1,125.999996154785,2|0,0:0|0:0,0:0:0:0:
273,287,61172,6,0,L|439:231,1,166.500004064941,2|0,0:0|0:0,0:0:0:0:
443,239,61572,5,0,0:0:0:0:
173,25,63972,5,8,0:1:0:0:
173,25,64372,6,0,B|136:32|136:32|99:86,1,73.0000020050049,2|0,1:0|0:0,0:0:0:0:
41,105,64572,2,0,B|38:142|38:142|80:192,1,73.0000020050049,2|0,1:0|0:0,0:0:0:0:
244,289,64772,6,0,B|215:262|165:259|134:301|143:310|111:359|49:359|9:304,1,237.000005786133,2|0,1:0|0:0,0:0:0:0:
20,312,65172,2,0,L|46:246,1,68.0000004150391,2|0,0:0|0:0,0:0:0:0:
138,141,65572,5,8,0:1:0:0:
138,141,65972,1,0,0:0:0:0:
144,148,66072,1,0,0:0:0:0:
151,155,66172,1,8,0:0:0:0:
211,208,66372,1,0,0:0:0:0:
278,89,66572,6,0,L|302:76,1,22.4999993133545,10|0,1:0|0:0,0:0:0:0:
363,35,66772,2,0,L|446:63,1,60.4999982921601,2|0,1:0|0:0,0:0:0:0:
442,63,66972,1,0,0:0:0:0:
370,184,67172,6,0,B|410:207|410:207|424:244|424:244|475:274,1,125.999996154785,10|0,1:0|0:0,0:0:0:0:
336,191,67572,6,0,B|386:221|386:221|408:278|408:278|486:324,1,181.49999487648,2|0,1:0|0:0,0:0:0:0:
369,298,67972,6,0,B|339:321|339:321|274:315,1,73.0000020050049,2|0,1:0|0:0,0:0:0:0:
222,347,68172,2,0,B|191:325|191:325|180:261,1,73.0000020050049,2|0,0:0|0:0,0:0:0:0:
227,226,68372,1,2,0:0:0:0:
235,218,68572,1,0,0:0:0:0:
123,108,68772,5,8,0:1:0:0:
118,96,69172,2,0,L|96:26,1,55.5000013549805,2|0,0:0|0:0,0:0:0:0:
56,157,69372,2,0,L|34:227,1,55.5000013549805,10|0,0:0|0:0,0:0:0:0:
84,272,69572,5,2,0:0:0:0:
90,283,69772,1,0,1:0:0:0:
250,8,69972,6,0,B|317:37|317:37|347:94|347:94|436:129,1,219.000006015015,0|0,1:0|0:0,0:0:0:0:
511,65,70372,5,8,0:1:0:0:
511,65,70772,5,0,0:0:0:0:
499,74,70972,1,0,0:0:0:0:
351,184,71172,6,0,B|328:214|328:214|334:279,1,73.0000020050049,2|0,1:0|0:0,0:0:0:0:
302,331,71372,2,0,B|324:362|324:362|388:373,1,73.0000020050049,2|0,0:0|0:0,0:0:0:0:
424,323,71572,6,0,L|532:365,1,83.9999974365235,2|0,0:0|0:0,0:0:0:0:
256,262,71972,5,8,0:1:0:0:
244,255,72372,6,0,B|181:279|181:279|152:327|152:327|65:358,1,197.999999395752
66,344,72772,5,0,0:0:0:0:
3,234,72972,1,0,1:0:0:0:
175,63,73172,1,2,1:0:0:0:
103,17,73372,1,0,0:0:0:0:
154,145,73572,6,0,B|177:189|230:177|220:166|276:149|309:207,1,166.500004064941,10|0,1:0|0:0,0:0:0:0:
393,149,73972,6,0,B|392:211|324:227|329:209|255:223|252:293,1,219.000006015015,2|0,1:0|0:0,0:0:0:0:
314,359,74372,5,2,1:2:0:0:
508,0,76372,6,0,L|484:86,1,75.9999990722656,0|0,1:0|0:0,0:0:0:0:
474,80,77172,6,0,B|461:111|461:111|489:155,1,61.9999975402833,0|0,1:0|0:0,0:0:0:0:
440,210,77372,2,0,B|466:230|466:230|516:214,1,61.9999975402833,0|0,1:0|0:0,0:0:0:0:
214,203,77572,6,0,B|280:233|280:233|300:302|300:302|378:340,1,219.000006015015,6|0,1:2|0:0,0:0:0:0:
373,254,77972,1,2,0:0:0:0:
366,244,78172,1,0,0:0:0:0:
183,350,78372,5,8,0:1:0:0:
188,340,78572,1,0,0:0:0:0:
192,331,78772,1,0,0:0:0:0:
159,262,78972,1,8,0:0:0:0:
64,272,79172,5,0,0:0:0:0:
122,77,79572,6,0,L|235:125,1,109.500003007507,2|0,1:0|0:0,0:0:0:0:
99,88,79972,6,0,L|261:157,1,144.000003515625,10|0,1:0|0:0,0:0:0:0:
72,103,80372,6,0,L|270:188,1,184.500002815247,2|0,1:0|0:0,0:0:0:0:
372,233,80772,6,0,B|408:225|408:225|431:170,1,73.0000020050049,2|0,1:0|0:0,0:0:0:0:
369,117,80972,2,0,B|371:79|371:79|324:43,1,73.0000020050049,2|0,0:0|0:0,0:0:0:0:
258,69,81172,1,2,0:0:0:0:
256,82,81372,1,0,0:0:0:0:
186,241,81572,5,8,0:1:0:0:
188,255,81772,1,0,0:0:0:0:
248,324,81972,6,0,L|313:342,1,50,2|0,0:0|0:0,0:0:0:0:
317,344,82172,2,0,L|382:362,1,50,10|0,0:0|0:0,0:0:0:0:
386,364,82372,5,2,0:0:0:0:
470,267,82572,1,0,1:0:0:0:
367,51,82772,6,0,B|316:17|264:69|277:77|227:135|146:71,1,219.000006015015,0|0,1:0|0:0,0:0:0:0:
97,4,83172,5,8,0:1:0:0:
91,13,83372,5,0,0:0:0:0:
46,78,83572,1,0,0:0:0:0:
104,151,83772,1,0,0:0:0:0:
32,305,83972,6,0,B|60:278|60:278|130:284,1,73.0000020050049,2|0,1:0|0:0,0:0:0:0:
177,241,84172,2,0,B|210:261|210:261|222:330,1,73.0000020050049,2|0,0:0|0:0,0:0:0:0:
228,373,84372,1,2,0:0:0:0:
218,380,84572,1,0,0:0:0:0:
324,248,84772,6,0,L|433:277,1,83.9999974365235,8|0,0:1|0:0,0:0:0:0:
418,274,85172,1,0,0:0:0:0:
485,235,85372,1,8,0:0:0:0:
423,158,85572,6,0,L|451:123,1,37.5
512,0,85972,6,0,L|462:12,1,41.9999987182618,2|0,1:0|0:0,0:0:0:0:
453,16,86172,2,0,L|403:28,1,41.9999987182618
373,92,86372,6,0,L|306:110,1,55.5000013549805,10|0,1:0|0:0,0:0:0:0:
285,117,86572,2,0,L|218:135,1,55.5000013549805
209,231,86772,6,0,L|131:255,1,66.9999968307497,2|0,1:0|0:0,0:0:0:0:
73,276,86972,2,0,L|-5:300,1,66.9999968307497
268,293,87172,6,0,L|346:317,1,66.9999968307497,6|0,0:1|0:0,0:0:0:0:
512,369,87372,2,0,L|447:349,1,66.9999968307497,2|0,0:0|0:0,0:0:0:0:
294,284,87572,2,0,L|501:349,1,200,2|8,3:0|3:1,0:0:0:0:
446,73,88372,6,0,L|461:150,1,50,2|0,3:0|0:0,0:0:0:0:
483,246,88572,2,0,L|473:196,1,50,2|0,0:0|0:0,0:0:0:0:
458,70,88772,2,0,L|496:266,1,167.999994873047,2|0,3:0|3:0,0:0:0:0:
359,68,89572,6,0,L|270:43,1,83.9999974365235,8|0,3:1|0:0,0:0:0:0:
213,165,89972,5,8,3:2:0:0:
228,166,90072,1,8,0:3:0:0:
238,171,90172,1,4,0:3:0:0:
246,183,90272,1,4,0:3:0:0:
237,269,90372,6,0,L|181:301,1,41.9999987182618,2|0,3:0|0:0,0:0:0:0:
99,351,90572,2,0,L|135:330,1,41.9999987182618,2|0,0:0|0:0,0:0:0:0:
241,282,90772,2,0,L|94:368,1,150.000005722046,2|8,3:0|3:1,0:0:0:0:
111,357,91572,1,0,3:0:0:0:
48,188,91972,5,0,3:0:0:0:
56,176,92172,1,0,0:0:0:0:
121,42,92372,6,0,L|233:83,1,112.500004291535,2|0,3:0|0:0,0:0:0:0:
242,88,92772,6,0,L|373:138,1,125.999996154785,10|0,3:1|0:0,0:0:0:0:
377,141,93172,6,0,L|542:204,1,150,2|0,3:0|0:0,0:0:0:0:
434,287,93572,6,0,L|358:317,1,66.9999968307497,6|0,0:1|0:0,0:0:0:0:
193,380,93772,2,0,L|255:355,1,66.9999968307497,2|0,0:0|0:0,0:0:0:0:
402,283,93972,2,0,L|209:362,1,200,2|8,3:0|3:1,0:0:0:0:
129,162,94772,6,0,L|205:176,1,50,2|0,3:0|0:0,0:0:0:0:
304,191,94972,2,0,L|254:183,1,50,2|0,0:0|0:0,0:0:0:0:
135,151,95172,2,0,L|322:183,1,167.999994873047,2|0,3:0|3:0,0:0:0:0:
108,65,95972,6,0,L|9:100,1,83.9999974365235,8|0,3:1|0:0,0:0:0:0:
220,18,96372,5,8,3:2:0:0:
232,30,96472,1,8,0:3:0:0:
245,35,96572,1,4,0:3:0:0:
259,33,96672,1,4,0:3:0:0:
336,3,96772,6,0,L|378:47,1,41.9999987182618,2|0,3:0|0:0,0:0:0:0:
462,126,96972,2,0,L|433:95,1,41.9999987182618,2|0,0:0|0:0,0:0:0:0:
357,6,97172,2,0,L|470:121,1,150.000005722046,2|8,3:0|3:1,0:0:0:0:
357,6,97972,1,0,3:0:0:0:
299,354,98772,6,0,L|400:387,1,96,2|0,1:0|0:0,0:0:0:0:
298,271,99172,6,0,L|455:322,1,144.000003515625,2|0,1:0|0:0,0:0:0:0:
291,184,99572,6,0,L|523:260,1,202.500000772476,2|0,1:0|0:0,0:0:0:0:
147,371,99972,6,0,B|183:357|183:357|211:304,1,78.5000002994537,6|0,1:2|0:0,0:0:0:0:
145,232,100172,2,0,B|140:193|140:193|96:152,1,78.5000002994537,2|0,0:0|0:0,0:0:0:0:
9,259,100372,6,0,L|98:301,1,93.9999985656739,2|0,0:0|0:0,0:0:0:0:
214,157,100772,1,8,0:1:0:0:
220,146,101172,6,0,L|296:124,1,65.999999798584,2|0,0:0|0:0,0:0:0:0:
303,122,101372,2,0,L|379:100,1,65.999999798584,10|0,0:0|0:0,0:0:0:0:
407,37,101572,5,2,0:0:0:0:
512,139,101772,1,0,1:0:0:0:
434,360,101972,6,0,B|357:338|357:338|315:278|315:278|210:244,1,232.500001773834,0|0,1:0|0:0,0:0:0:0:
407,329,102372,6,0,L|475:350,1,55.5000013549805,8|0,0:1|0:0,0:0:0:0:
512,283,102572,1,0,0:0:0:0:
508,266,102772,1,0,0:0:0:0:
497,276,102972,1,0,0:0:0:0:
404,88,103172,6,0,B|378:58|378:58|319:50,1,78.5000002994537,2|0,1:0|0:0,0:0:0:0:
274,137,103372,2,0,B|239:154|239:154|216:209,1,78.5000002994537,2|0,0:0|0:0,0:0:0:0:
292,237,103572,1,2,0:0:0:0:
305,245,103772,1,0,0:0:0:0:
148,169,103972,1,8,0:1:0:0:
148,169,104572,5,8,0:0:0:0:
86,223,104772,5,0,0:0:0:0:
234,293,104972,1,0,1:0:0:0:
409,63,105172,6,0,P|436:84|444:119,1,39.0000013092042,2|0,1:0|0:0,0:0:0:0:
502,135,105372,1,0,0:0:0:0:
230,212,105572,6,0,P|235:187|263:151,1,50,10|0,1:0|0:0,0:0:0:0:
262,88,105772,1,0,0:0:0:0:
491,270,105972,6,0,P|448:289|394:272,1,68.5000019336701,2|0,1:0|0:0,0:0:0:0:
347,349,106172,1,0,0:0:0:0:
165,165,106372,6,0,B|129:149|129:149|72:167,1,78.5000002994537,2|0,1:0|0:0,0:0:0:0:
68,264,106572,2,0,B|43:294|43:294|46:354,1,78.5000002994537,2|0,0:0|0:0,0:0:0:0:
226,303,106772,6,0,L|127:340,1,93.9999985656739,2|0,0:0|0:0,0:0:0:0:
7,213,107172,1,8,0:1:0:0:
9,197,107572,6,0,L|27:115,1,65.999999798584,2|0,0:0|0:0,0:0:0:0:
28,111,107772,2,0,L|46:29,1,65.999999798584,10|0,0:0|0:0,0:0:0:0:
111,10,107972,5,2,0:0:0:0:
219,114,108172,1,0,1:0:0:0:
461,25,108372,6,0,B|406:21|372:56|381:91|395:138|348:186|259:151,1,237.000005786133,0|0,1:0|0:0,0:0:0:0:
409,74,108772,6,0,P|431:52|476:43,1,55.5000013549805,8|0,0:1|0:0,0:0:0:0:
506,104,108972,1,0,0:0:0:0:
510,120,109172,1,0,0:0:0:0:
492,115,109372,1,0,0:0:0:0:
385,309,109572,6,0,B|355:335|355:335|316:336,1,78.5000002994537,2|0,1:0|0:0,0:0:0:0:
221,384,109772,2,0,B|188:363|188:363|177:324,1,78.5000002994537,2|0,0:0|0:0,0:0:0:0:
216,251,109972,1,2,0:0:0:0:
226,241,110172,1,0,0:0:0:0:
98,362,110372,1,8,0:1:0:0:
98,362,110972,5,8,0:0:0:0:
33,312,111172,5,0,0:0:0:0:
86,163,111372,1,0,1:0:0:0:
352,287,111572,6,0,P|379:266|387:231,1,39.0000013092042,2|0,1:0|0:0,0:0:0:0:
445,215,111772,2,0,P|432:184|400:167,1,39.0000013092042
173,138,111972,6,0,P|178:163|206:199,1,50,10|0,1:0|0:0,0:0:0:0:
205,262,112172,2,0,P|231:264|273:246,1,50
434,80,112372,6,0,P|391:61|337:78,1,68.5000019336701,2|0,1:0|0:0,0:0:0:0:
290,1,112572,2,0,P|261:38|263:95,1,68.5000019336701
210,354,112772,6,0,B|170:352|170:352|142:325,1,78.5000002994537,2|0,1:0|0:0,0:0:0:0:
41,291,112972,2,0,B|32:253|32:253|52:218,1,78.5000002994537,2|0,0:0|0:0,0:0:0:0:
95,153,113172,1,2,0:0:0:0:
144,88,113372,1,0,0:0:0:0:
221,213,113572,5,10,0:1:0:0:
268,276,113772,1,0,0:0:0:0:
337,367,113972,6,0,L|405:340,1,65.999999798584,2|0,0:0|0:0,0:0:0:0:
435,265,114172,2,0,L|496:289,1,65.999999798584,10|0,0:0|0:0,0:0:0:0:
351,273,114372,1,2,0:0:0:0:
479,360,114572,1,0,1:0:0:0:
460,159,114772,6,0,P|425:132|378:142,1,79.000001928711,0|0,1:0|0:0,0:0:0:0:
294,167,114972,2,0,P|255:167|225:142,1,79.000001928711
471,176,115172,6,0,L|496:91,1,55.5000013549805,8|0,0:1|0:0,0:0:0:0:
455,52,115372,1,0,0:0:0:0:
449,36,115572,1,0,0:0:0:0:
436,49,115772,1,0,0:0:0:0:
261,263,115972,6,0,B|236:294|236:294|162:306,1,79.000001928711,2|0,1:0|0:0,0:0:0:0:
149,212,116172,2,0,B|111:196|111:196|81:127,1,79.000001928711,2|0,0:0|0:0,0:0:0:0:
130,89,116372,1,2,0:0:0:0:
150,11,116572,1,0,0:0:0:0:
76,157,116772,5,8,0:1:0:0:
47,233,116972,1,0,0:0:0:0:
87,340,117172,2,0,L|192:370,1,94.9999974632264,0|8,0:0|0:0,0:0:0:0:
240,308,117572,5,0,0:0:0:0:
381,211,117772,1,0,1:0:0:0:
324,4,117972,6,0,P|297:25|289:60,1,39.0000013092042,2|0,1:0|0:0,0:0:0:0:
231,76,118172,1,0,0:0:0:0:
503,153,118372,6,0,P|498:128|470:92,1,50,10|0,1:0|0:0,0:0:0:0:
471,29,118572,1,0,0:0:0:0:
242,211,118772,6,0,P|285:230|339:213,1,68.5000019336701,2|0,1:0|0:0,0:0:0:0:
386,290,118972,1,0,0:0:0:0:
70,278,119172,6,0,B|39:252|39:252|27:178,1,79.000001928711,2|0,1:0|0:0,0:0:0:0:
121,165,119372,2,0,B|136:127|136:127|206:97,1,79.000001928711,2|0,0:0|0:0,0:0:0:0:
246,131,119572,5,2,0:0:0:0:
255,136,119772,1,0,0:0:0:0:
103,56,119972,1,8,0:1:0:0:
93,51,120172,1,0,0:0:0:0:
166,5,120372,6,0,L|245:20,1,63.4999995155334,2|0,0:0|0:0,0:0:0:0:
247,19,120572,2,0,L|326:34,1,63.4999995155334,10|0,0:0|0:0,0:0:0:0:
385,4,120772,1,2,0:0:0:0:
508,99,120972,1,0,1:0:0:0:
318,257,121172,6,0,B|280:215|286:159|332:126|332:126|390:130|399:189,1,210.666671809896,0|0,1:0|0:0,0:0:0:0:
280,216,121572,6,0,P|293:249|310:279,1,55.5000013549805
278,339,121772,1,0,0:0:0:0:
286,355,121972,1,0,0:0:0:0:
297,344,122172,1,0,0:0:0:0:
168,146,122372,6,0,B|136:123|136:123|76:142,1,79.000001928711,2|0,1:0|0:0,0:0:0:0:
77,227,122572,2,0,B|46:251|46:251|49:314,1,79.000001928711,2|0,0:0|0:0,0:0:0:0:
116,325,122772,1,2,0:0:0:0:
121,335,122972,1,0,0:0:0:0:
19,167,123172,5,8,0:1:0:0:
19,167,123772,1,8,0:0:0:0:
25,155,123972,1,0,0:0:0:0:
457,133,124372,6,0,L|390:110,1,67.4999979400635,2|0,1:2|0:0,0:0:0:0:
461,218,124772,6,0,L|318:169,1,125.999996154785,2|0,1:2|0:0,0:0:0:0:
457,302,125172,6,0,L|291:246,1,166.500004064941,2|0,1:2|0:0,0:0:0:0:
287,254,125572,5,0,0:0:0:0:
496,228,127972,5,8,0:1:0:0:
496,228,128372,6,0,B|512:195|512:195|490:140,1,73.0000020050049,2|0,1:0|0:0,0:0:0:0:
405,154,128572,2,0,B|377:129|377:129|318:136,1,73.0000020050049,2|0,1:0|0:0,0:0:0:0:
168,276,128772,6,0,B|188:211|188:211|245:161|245:161|270:64,1,219.000006015015,2|0,1:0|0:0,0:0:0:0:
259,73,129172,2,0,L|176:47,1,68.0000004150391,2|0,0:0|0:0,0:0:0:0:
49,121,129572,5,8,0:1:0:0:
101,183,129772,1,0,0:0:0:0:
92,188,129872,2,0,L|68:261,1,68.0000004150391
63,259,130172,1,8,0:0:0:0:
100,337,130372,5,0,0:0:0:0:
186,287,130572,1,10,1:0:0:0:
350,358,130772,6,0,P|416:352|451:320,1,102.000000622559,2|0,1:0|0:0,0:0:0:0:
465,326,131172,6,0,P|495:260|460:181,1,125.999996154785,10|0,1:0|0:0,0:0:0:0:
498,195,131572,6,0,P|456:136|326:128,1,166.500004064941,2|0,1:0|0:0,0:0:0:0:
120,233,131972,6,0,B|141:264|141:264|197:270,1,73.0000020050049,2|0,1:0|0:0,0:0:0:0:
238,200,132172,2,0,B|273:187|273:187|293:135,1,73.0000020050049,2|0,0:0|0:0,0:0:0:0:
234,98,132372,1,2,0:0:0:0:
224,87,132572,1,0,0:0:0:0:
52,179,132772,6,0,L|22:282,1,83.9999974365235,8|0,0:1|0:0,0:0:0:0:
30,272,133072,1,0,0:0:0:0:
32,282,133172,2,0,L|93:306,1,55.5000013549805,2|0,0:0|0:0,0:0:0:0:
100,310,133372,2,0,L|161:334,1,55.5000013549805,10|0,0:0|0:0,0:0:0:0:
228,312,133572,5,2,0:0:0:0:
150,180,133772,1,0,1:0:0:0:
156,175,133872,1,0,0:0:0:0:
205,107,133972,6,0,B|264:76|310:133|300:139|343:188|416:141,1,219.000006015015,0|0,1:0|0:0,0:0:0:0:
502,77,134372,5,8,0:1:0:0:
512,0,134972,5,0,0:0:0:0:
445,212,135172,6,0,B|424:243|424:243|368:249,1,73.0000020050049,2|0,1:0|0:0,0:0:0:0:
327,179,135372,2,0,B|292:166|292:166|272:114,1,73.0000020050049,2|0,0:0|0:0,0:0:0:0:
320,67,135572,1,2,0:0:0:0:
327,58,135772,1,0,0:0:0:0:
223,197,135972,6,0,L|122:234,1,83.9999974365235,8|0,0:1|0:0,0:0:0:0:
140,223,136272,1,0,0:0:0:0:
136,220,136372,1,0,1:0:0:0:
132,217,136472,1,0,0:0:0:0:
128,214,136572,1,8,0:0:0:0:
149,129,136772,5,0,0:0:0:0:
3,79,136972,1,0,1:0:0:0:
2,349,137172,6,0,L|137:307,1,125.999996154785,2|0,1:0|0:0,0:0:0:0:
131,286,137572,6,0,L|288:319,1,150,10|0,1:0|0:0,0:0:0:0:
293,340,137972,6,0,L|479:300,1,185.99999262085,2|0,1:0|0:0,0:0:0:0:
477,294,138372,6,0,L|493:243,1,50,0|0,1:0|3:0,0:0:0:0:
128,20,140372,6,0,L|150:103,1,75.9999990722656,0|0,3:0|3:0,0:0:0:0:
146,110,141172,6,0,B|118:121|118:121|98:164,1,55.5000013549805,0|0,1:0|0:0,0:0:0:0:
27,187,141372,2,0,B|30:216|30:216|66:247,1,55.5000013549805,0|0,1:0|0:0,0:0:0:0:
380,172,141572,6,0,B|403:202|403:202|397:267,1,73.0000020050049,6|0,1:2|0:0,0:0:0:0:
429,319,141772,2,0,B|407:350|407:350|343:361,1,73.0000020050049,2|0,0:0|0:0,0:0:0:0:
314,306,141972,5,2,0:0:0:0:
310,299,142072,1,0,0:0:0:0:
307,291,142172,1,0,0:0:0:0:
216,232,142372,5,8,0:1:0:0:
221,227,142472,1,0,0:0:0:0:
226,222,142572,1,0,0:0:0:0:
283,167,142772,1,0,0:0:0:0:
340,113,142972,1,8,0:0:0:0:
275,34,143172,5,0,0:0:0:0:
40,197,143572,6,0,L|64:327,1,102.000000622559,2|0,1:0|0:0,0:0:0:0:
85,373,143972,6,0,L|121:223,1,125.999996154785,10|0,1:0|0:0,0:0:0:0:
139,161,144372,6,0,L|175:332,1,166.500004064941,2|0,1:0|0:0,0:0:0:0:
405,97,144772,6,0,B|381:67|381:67|317:55,1,73.0000020050049,2|0,1:0|0:0,0:0:0:0:
275,11,144972,2,0,B|239:24|239:24|212:83,1,73.0000020050049,2|0,0:0|0:0,0:0:0:0:
301,137,145172,6,0,L|278:237,1,83.9999974365235,2|0,0:0|0:0,0:0:0:0:
286,226,145472,1,0,0:0:0:0:
289,233,145572,5,8,0:1:0:0:
337,298,145772,1,0,0:0:0:0:
407,260,145972,6,0,L|462:274,1,41.9999987182618,2|0,0:0|0:0,0:0:0:0:
471,277,146172,2,0,L|526:291,1,41.9999987182618,10|0,0:0|0:0,0:0:0:0:
328,384,146372,5,2,0:0:0:0:
317,377,146472,1,0,0:0:0:0:
287,378,146572,1,0,1:0:0:0:
275,372,146672,1,0,0:0:0:0:
181,333,146772,6,0,B|151:265|151:265|181:199|181:199|140:104,1,219.000006015015,0|0,1:0|0:0,0:0:0:0:
51,60,147172,5,8,0:1:0:0:
121,5,147772,5,0,0:0:0:0:
288,163,147972,6,0,B|314:185|314:185|352:182,1,73.0000020050049,2|0,1:0|0:0,0:0:0:0:
396,106,148173,2,0,B|424:85|424:85|433:48,1,73.0000020050049,2|0,0:0|0:0,0:0:0:0:
368,9,148372,5,2,0:0:0:0:
361,5,148472,1,0,0:0:0:0:
354,0,148572,1,0,0:0:0:0:
285,69,148772,5,8,0:1:0:0:
278,71,148872,1,0,0:0:0:0:
271,74,148972,1,0,0:0:0:0:
95,150,149172,5,0,1:0:0:0:
164,187,149372,1,8,0:0:0:0:
181,180,149572,5,0,0:0:0:0:
89,136,149772,1,0,1:0:0:0:
277,323,149972,6,0,B|304:280|304:280|290:196,1,125.999996154785,2|0,1:0|0:0,0:0:0:0:
304,340,150372,6,0,B|336:289|336:289|311:174,1,166.500004064941,10|0,1:0|0:0,0:0:0:0:
332,362,150772,6,0,B|374:302|374:302|336:148,1,219.000006015015,2|0,1:0|0:0,0:0:0:0:
357,141,151172,5,2,1:0:0:0:
46,350,153572,5,8,0:1:0:0:
37,339,153772,1,0,0:0:0:0:
145,206,153972,6,0,B|138:176|138:176|96:147,1,55.5000013549805,2|0,1:0|0:0,0:0:0:0:
119,63,154172,2,0,B|88:61|88:61|49:95,1,55.5000013549805,2|0,1:0|0:0,0:0:0:0:
244,255,154372,6,0,B|270:282|270:282|335:280,1,73.0000020050049,6|0,1:2|0:0,0:0:0:0:
348,202,154572,2,0,B|381:183|381:183|396:120,1,73.0000020050049,2|0,0:0|0:0,0:0:0:0:
249,88,154772,2,0,L|272:189,1,83.9999974365235,2|0,0:0|0:0,0:0:0:0:
398,277,155172,1,8,0:1:0:0:
410,281,155372,1,0,0:0:0:0:
263,374,155572,6,0,B|205:355|205:355|186:313|186:313|113:290,1,166.500004064941,0|0,1:0|0:0,0:0:0:0:
114,304,155972,1,0,0:0:0:0:
0,359,156172,1,0,1:0:0:0:
0,70,156372,6,0,L|135:112,1,125.999996154785,2|0,1:0|0:0,0:0:0:0:
150,193,156772,6,0,L|307:160,1,150,10|0,1:0|0:0,0:0:0:0:
319,81,157172,6,0,L|505:121,1,185.99999262085,2|0,1:0|0:0,0:0:0:0:
289,381,157572,6,0,B|265:354|265:354|277:296,1,73.0000020050049,2|0,1:0|0:0,0:0:0:0:
355,284,157772,2,0,B|374:253|374:253|433:250,1,73.0000020050049,2|0,0:0|0:0,0:0:0:0:
466,308,157972,1,2,0:0:0:0:
475,322,158172,1,0,0:0:0:0:
364,185,158372,5,8,0:1:0:0:
354,174,158572,1,0,0:0:0:0:
277,170,158772,2,0,L|210:194,1,55.5000013549805,2|0,0:0|0:0,0:0:0:0:
205,197,158972,2,0,L|138:221,1,55.5000013549805,10|0,0:0|0:0,0:0:0:0:
100,277,159172,5,2,0:0:0:0:
0,181,159372,1,0,1:0:0:0:
141,2,159572,6,0,B|214:19|214:19|241:76|241:76|338:99,1,219.000006015015,0|0,1:0|0:0,0:0:0:0:
419,27,159972,5,8,0:1:0:0:
475,84,160372,5,0,1:0:0:0:
469,99,160572,1,0,1:0:0:0:
368,310,160772,6,0,B|331:307|331:307|311:277,1,73.0000020050049,2|0,1:0|0:0,0:0:0:0:
228,243,160972,2,0,B|220:206|220:206|244:179,1,73.0000020050049,2|0,0:0|0:0,0:0:0:0:
317,150,161172,6,0,L|404:187,1,83.9999974365235,2|0,0:0|0:0,0:0:0:0:
150,268,161572,1,8,0:1:0:0:
138,255,161772,1,0,0:0:0:0:
46,140,161972,1,0,1:0:0:0:
59,125,162172,1,8,0:0:0:0:
107,58,162372,5,0,0:0:0:0:
114,53,162472,1,0,0:0:0:0:
132,65,162572,1,0,1:0:0:0:
376,46,162772,6,0,L|293:168,1,125.999996154785,2|0,1:0|0:0,0:0:0:0:
422,134,163172,6,0,L|326:277,1,150,10|0,1:0|0:0,0:0:0:0:
475,225,163572,6,0,L|362:395,1,185.99999262085,2|0,1:0|0:0,0:0:0:0:
170,198,163972,6,0,B|147:170|147:170|109:172,1,73.0000020050049,6|0,1:2|0:0,0:0:0:0:
63,250,164172,2,0,B|30:265|30:265|21:301,1,73.0000020050049,2|0,0:0|0:0,0:0:0:0:
97,357,164372,6,0,L|198:392,1,83.9999974365235,2|0,0:0|0:0,0:0:0:0:
190,377,164772,1,8,0:1:0:0:
248,324,164972,1,0,0:0:0:0:
203,199,165172,6,0,L|217:134,1,41.9999987182618,2|0,0:0|0:0,0:0:0:0:
218,134,165372,2,0,L|232:69,1,41.9999987182618,10|0,0:0|0:0,0:0:0:0:
299,62,165572,5,2,0:0:0:0:
427,4,165772,1,0,1:0:0:0:
358,203,165972,6,0,B|390:268|390:268|453:292|453:292|502:393,1,219.000006015015,0|0,1:0|0:0,0:0:0:0:
479,378,166372,5,8,0:1:0:0:
397,355,166572,1,0,0:0:0:0:
383,360,166772,1,0,0:0:0:0:
394,369,166972,1,0,0:0:0:0:
151,197,167172,6,0,B|173:169|173:169|211:171,1,73.0000020050049,2|0,1:0|0:0,0:0:0:0:
258,249,167372,2,0,B|290:264|290:264|299:300,1,73.0000020050049,2|0,0:0|0:0,0:0:0:0:
242,360,167572,6,0,L|144:376,1,83.9999974365235,2|0,0:0|0:0,0:0:0:0:
150,365,167972,1,8,0:1:0:0:
88,318,168172,1,0,0:0:0:0:
1,241,168372,1,0,0:0:0:0:
44,175,168572,1,8,0:0:0:0:
111,90,168772,5,0,0:0:0:0:
103,80,168972,1,0,1:0:0:0:
213,146,169172,6,0,P|278:125|306:61,1,125.999996154785,2|0,1:0|0:0,0:0:0:0:
312,223,169572,6,0,P|341:170|300:74,1,166.500004064941,10|0,1:0|0:0,0:0:0:0:
439,197,169972,6,0,P|403:119|285:78,1,197.999999395752,2|0,1:0|0:0,0:0:0:0:
290,346,170372,6,0,B|268:374|268:374|230:372,1,73.0000020050049,2|0,0:0|0:0,0:0:0:0:
183,294,170572,2,0,B|151:279|151:279|142:243,1,73.0000020050049,2|0,0:0|0:0,0:0:0:0:
195,178,170772,6,0,L|168:77,1,83.9999974365235,2|0,0:0|0:0,0:0:0:0:
23,19,171172,1,8,0:1:0:0:
32,29,171372,1,0,0:0:0:0:
174,97,171572,6,0,L|223:79,1,41.9999987182618,2|0,0:0|0:0,0:0:0:0:
236,73,171772,2,0,L|285:55,1,41.9999987182618,10|0,0:0|0:0,0:0:0:0:
327,0,171972,5,2,0:0:0:0:
465,73,172172,1,8,0:1:0:0:
367,257,172372,6,0,B|310:304|249:261|261:244|210:208|149:264,1,219.000006015015
96,333,172772,5,8,0:1:0:0:
27,372,172972,1,0,0:0:0:0:
44,240,173172,5,0,0:0:0:0:
50,243,173272,1,0,0:0:0:0:
263,75,173572,6,0,L|242:-16,1,75.0000028610231,2|0,3:0|0:0,0:0:0:0:
267,156,173972,2,0,L|288:65,1,75.0000028610231,0|0,3:0|0:0,0:0:0:0:
200,255,174372,2,0,L|179:164,1,75.0000028610231,8|0,3:1|0:0,0:0:0:0:
326,310,174772,1,8,3:2:0:0:
339,305,174872,1,8,0:3:0:0:
348,299,174972,1,4,0:3:0:0:
353,289,175072,1,4,0:3:0:0:
356,274,175172,1,0,3:0:0:0:
476,31,175572,6,0,L|375:-2,1,96,2|0,3:0|0:0,0:0:0:0:
477,114,175972,6,0,L|320:63,1,144.000003515625,8|0,3:1|0:0,0:0:0:0:
484,201,176372,6,0,L|252:125,1,202.500000772476,0|0,3:0|0:0,0:0:0:0:
145,308,176772,6,0,B|110:317|110:317|68:276,1,73.0000020050049,6|0,1:2|0:0,0:0:0:0:
103,203,176972,2,0,B|85:171|85:171|113:120,1,73.0000020050049,2|0,0:0|0:0,0:0:0:0:
176,120,177172,1,2,0:0:0:0:
189,116,177372,1,0,0:0:0:0:
449,248,178772,6,0,L|437:316,1,56.9999993041992,0|0,1:0|0:0,0:0:0:0:
423,379,179172,1,8,0:1:0:0:
359,59,179972,6,0,B|339:25|339:25|278:27,1,79.000001928711,6|0,1:2|0:0,0:0:0:0:
243,107,180172,2,0,B|204:119|204:119|188:179,1,79.000001928711,2|0,0:0|0:0,0:0:0:0:
260,227,180372,1,2,0:0:0:0:
266,237,180572,1,0,0:0:0:0:
104,342,180772,1,8,0:1:0:0:
104,342,181372,5,8,0:0:0:0:
164,279,181572,5,0,0:0:0:0:
48,133,181772,1,0,1:0:0:0:
355,7,181972,6,0,P|382:28|390:63,1,39.0000013092042,2|0,1:0|0:0,0:0:0:0:
448,79,182172,1,0,0:0:0:0:
176,156,182372,6,0,P|181:131|209:95,1,50,10|0,1:0|0:0,0:0:0:0:
208,32,182572,1,0,0:0:0:0:
437,214,182772,6,0,P|394:233|340:216,1,68.5000019336701,2|0,1:0|0:0,0:0:0:0:
293,293,182972,1,0,0:0:0:0:
27,344,183172,6,0,B|65:353|65:353|106:309,1,79.000001928711,2|0,1:0|0:0,0:0:0:0:
75,228,183372,2,0,B|94:191|94:191|62:138,1,79.000001928711,2|0,0:0|0:0,0:0:0:0:
11,105,183572,6,0,L|38:17,1,83.9999974365235,2|0,0:0|0:0,0:0:0:0:
174,173,183972,1,8,0:1:0:0:
185,157,184372,6,0,L|248:145,1,55.5000013549805,2|0,0:0|0:0,0:0:0:0:
263,141,184572,2,0,L|326:129,1,55.5000013549805,10|0,0:0|0:0,0:0:0:0:
388,167,184772,1,2,0:0:0:0:
463,45,184972,1,0,1:0:0:0:
507,282,185172,6,0,B|430:315|430:315|353:298|353:298|260:335,1,237.000005786133,0|0,1:0|0:0,0:0:0:0:
450,289,185572,6,0,L|516:261,1,55.5000013549805,8|0,0:1|0:0,0:0:0:0:
504,194,185772,1,0,0:0:0:0:
497,177,185972,1,0,0:0:0:0:
483,191,186172,1,0,0:0:0:0:
212,38,186372,6,0,B|173:28|173:28|132:72,1,79.000001928711,2|0,1:0|0:0,0:0:0:0:
163,153,186572,2,0,B|143:189|143:189|175:242,1,79.000001928711,2|0,0:0|0:0,0:0:0:0:
244,237,186772,1,2,0:0:0:0:
256,232,186972,1,0,0:0:0:0:
387,94,187172,5,8,0:1:0:0:
374,108,187372,1,0,0:0:0:0:
391,112,187572,1,0,0:0:0:0:
387,94,187772,5,8,0:0:0:0:
321,33,187972,5,0,0:0:0:0:
168,121,188172,1,0,1:0:0:0:
404,289,188372,6,0,P|383:316|349:325,1,39.0000013092042,2|0,1:0|0:0,0:0:0:0:
335,384,188572,2,0,P|303:372|285:340,1,39.0000013092042
248,115,188772,6,0,P|273:119|310:145,1,50,10|0,1:0|0:0,0:0:0:0:
373,142,188972,2,0,P|375:167|359:210,1,50
199,378,189172,6,0,P|178:335|193:281,1,68.5000019336701,2|0,1:0|0:0,0:0:0:0:
116,237,189372,2,0,P|151:206|209:206,1,68.5000019336701
512,244,189572,6,0,B|475:241|475:241|442:198,1,79.000001928711,2|0,1:0|0:0,0:0:0:0:
482,130,189772,2,0,B|475:93|475:93|508:50,1,79.000001928711,2|0,0:0|0:0,0:0:0:0:
449,0,189972,1,2,0:0:0:0:
371,14,190172,1,0,0:0:0:0:
249,115,190372,5,10,0:1:0:0:
175,91,190572,1,0,0:0:0:0:
89,148,190772,6,0,L|73:223,1,55.5000013549805,2|0,0:0|0:0,0:0:0:0:
73,220,190972,2,0,L|57:295,1,55.5000013549805,10|0,0:0|0:0,0:0:0:0:
106,337,191172,1,2,0:0:0:0:
221,232,191372,1,0,1:0:0:0:
423,339,191572,6,0,P|431:291|387:237,1,79.000001928711,0|0,1:0|0:0,0:0:0:0:
356,180,191772,2,0,P|343:142|353:104,1,79.000001928711
416,349,191972,6,0,L|347:373,1,55.5000013549805,8|0,0:1|0:0,0:0:0:0:
300,322,192172,1,0,0:0:0:0:
289,311,192372,1,0,0:0:0:0:
307,309,192572,1,0,0:0:0:0:
139,111,192772,6,0,B|110:86|110:86|56:94,1,79.000001928711,2|0,1:0|0:0,0:0:0:0:
37,170,192972,2,0,B|5:191|5:191|-1:244,1,79.000001928711,2|0,0:0|0:0,0:0:0:0:
54,289,193172,1,2,0:0:0:0:
112,346,193372,1,0,0:0:0:0:
251,203,193572,5,8,0:1:0:0:
174,222,193772,1,0,0:0:0:0:
259,186,193972,2,0,L|354:212,1,83.9999974365235,0|8,0:0|0:0,0:0:0:0:
414,179,194372,5,0,0:0:0:0:
480,30,194572,1,0,1:0:0:0:
93,332,194772,6,0,P|66:311|58:276,1,39.0000013092042,2|0,1:0|0:0,0:0:0:0:
0,260,194972,1,0,0:0:0:0:
272,183,195172,6,0,P|267:208|239:244,1,50,10|0,1:0|0:0,0:0:0:0:
240,307,195372,1,0,0:0:0:0:
11,125,195572,6,0,P|54:106|108:123,1,68.5000019336701,2|0,1:0|0:0,0:0:0:0:
155,46,195772,1,0,0:0:0:0:
446,238,195972,6,0,B|483:235|483:235|516:192,1,79.000001928711,2|0,1:0|0:0,0:0:0:0:
476,124,196172,2,0,B|483:87|483:87|450:44,1,79.000001928711,2|0,0:0|0:0,0:0:0:0:
388,22,196372,1,2,0:0:0:0:
372,28,196572,1,0,0:0:0:0:
234,93,196772,5,8,0:1:0:0:
221,99,196972,1,0,0:0:0:0:
164,161,197172,6,0,L|149:240,1,55.5000013549805,2|0,0:0|0:0,0:0:0:0:
151,234,197372,2,0,L|136:313,1,55.5000013549805,10|0,0:0|0:0,0:0:0:0:
189,350,197572,5,2,0:0:0:0:
39,273,197772,1,0,1:0:0:0:
325,214,197972,6,0,B|410:222|444:320|444:320|458:279|517:261,1,237.000005786133,0|0,1:0|0:0,0:0:0:0:
374,248,198372,6,0,P|347:236|305:231,1,55.5000013549805,8|0,0:1|0:0,0:0:0:0:
266,287,198572,1,0,0:0:0:0:
266,303,198772,1,0,0:0:0:0:
279,294,198972,1,0,0:0:0:0:
338,47,199172,6,0,B|310:16|310:16|253:18,1,79.000001928711,2|0,1:0|0:0,0:0:0:0:
221,98,199372,2,0,B|183:117|183:117|170:172,1,79.000001928711,2|0,0:0|0:0,0:0:0:0:
212,226,199572,1,2,0:0:0:0:
205,242,199772,1,0,0:0:0:0:
119,70,199972,5,8,0:1:0:0:
119,70,200572,5,8,0:0:0:0:
109,58,200772,1,0,0:0:0:0:
419,282,201172,6,0,L|352:305,1,67.4999979400635,2|0,0:0|0:0,0:0:0:0:
423,197,201572,6,0,L|280:246,1,125.999996154785,2|0,0:0|0:0,0:0:0:0:
419,113,201972,6,0,L|253:169,1,166.500004064941,2|0,0:0|0:0,0:0:0:0:
249,161,202372,5,6,0:1:0:0:
180,115,202572,1,2,0:0:0:0:
105,189,202772,6,0,L|73:283,1,83.9999974365235,2|0,3:0|0:0,0:0:0:0:
231,366,203172,6,0,B|193:363|193:363|72:264,1,187.5,8|0,3:1|0:0,0:0:0:0:
15,218,203572,1,2,3:0:0:0:
209,31,203972,6,0,B|273:47|273:47|296:93|296:93|391:117,1,189.999994926453,2|0,3:0|3:0,0:0:0:0:
507,5,204772,5,8,3:1:0:0:
498,20,204972,1,0,0:0:0:0:
411,50,205172,5,8,3:2:0:0:
422,53,205272,1,8,0:3:0:0:
430,60,205372,1,4,0:3:0:0:
436,71,205472,1,4,0:3:0:0:
438,95,205572,5,2,3:0:0:0:
499,149,205772,1,2,0:0:0:0:
416,281,205972,6,0,L|286:317,1,125.999996154785,2|0,3:0|0:0,0:0:0:0:
240,369,206372,1,8,3:1:0:0:
224,365,206572,1,0,0:0:0:0:
178,299,206772,1,0,3:0:0:0:
161,310,206972,1,0,0:0:0:0:
30,350,207172,6,0,B|64:328|64:328|112:156,1,190.4999985466,0|0,3:0|0:0,0:0:0:0:
0,115,207572,6,0,L|136:96,1,125.999996154785,2|0,3:0|0:0,0:0:0:0:
224,71,207972,6,0,L|44:34,1,182.999992460633,10|0,3:1|0:0,0:0:0:0:
201,158,208372,6,0,L|417:114,1,219.000006015015,2|0,3:0|0:0,0:0:0:0:
507,375,208772,6,0,B|482:379|482:379|419:336,1,79.000001928711,2|0,1:0|0:0,0:0:0:0:
402,266,208972,2,0,B|377:262|377:262|314:305,1,79.000001928711,2|0,0:0|0:0,0:0:0:0:
298,368,209172,1,2,0:0:0:0:
283,367,209372,1,0,0:0:0:0:
149,378,209572,6,0,L|195:254,1,111.000002709961,8|0,0:1|0:0,0:0:0:0:
128,140,209972,6,0,B|152:154|152:154|173:225,1,75.0000028610231,0|8,0:0|0:0,0:0:0:0:
53,302,210372,1,2,0:0:0:0:
40,290,210572,1,0,1:0:0:0:
183,52,210772,6,0,B|266:72|266:72|302:124|302:124|429:150,1,243.000005932617,0|0,1:0|0:0,0:0:0:0:
493,58,211172,5,8,0:1:0:0:
485,73,211372,1,2,0:0:0:0:
507,148,211572,5,10,0:0:0:0:
499,153,211672,1,8,0:3:0:0:
494,161,211772,1,8,0:3:0:0:
492,171,211872,1,8,0:3:0:0:
504,254,211972,6,0,B|496:269|496:269|408:310,1,81.0000019775391,2|0,1:0|0:0,0:0:0:0:
382,363,212172,2,0,B|365:365|365:365|281:316,1,81.0000019775391,2|0,0:0|0:0,0:0:0:0:
290,243,212372,1,2,3:0:0:0:
297,234,212572,1,0,0:0:0:0:
196,328,212772,5,8,3:1:0:0:
125,295,212972,1,0,0:0:0:0:
3,228,213172,1,0,3:0:0:0:
74,195,213372,1,8,0:0:0:0:
85,181,213572,6,0,L|103:117,1,56.9999993041992,2|0,0:0|0:0,0:0:0:0:
144,65,213972,6,0,P|161:29|132:60,1,112.500004291535,2|0,0:0|0:0,0:0:0:0:
268,152,214372,6,0,P|254:118|264:162,1,187.5,2|0,0:0|0:0,0:0:0:0:
342,200,214772,6,0,B|412:179|412:179|387:167,1,83.9999974365235,2|0,0:0|0:0,0:0:0:0:
