osu file format v14

[General]
AudioFilename: audio.mp3
AudioLeadIn: 0
PreviewTime: 175472
Countdown: 0
SampleSet: Soft
StackLeniency: 0.7
Mode: 0
LetterboxInBreaks: 0
WidescreenStoryboard: 1

[Editor]
Bookmarks: 10372,23172,35972,48772,59972,64772,75972,87172,99972,112772,125572,128772,141572,154372,163972,175172,189572,202372
DistanceSpacing: 0.7
BeatDivisor: 4
GridSize: 32
TimelineZoom: 1

[Metadata]
Title:INDUSTRY BABY (feat. Jack Harlow)
TitleUnicode:INDUSTRY BABY (feat. Jack Harlow)
Artist:Lil Nas X
ArtistUnicode:Lil Nas X
Creator:xandeez nuts
Version:MIMARI'S INSANE
Source:
Tags:pop trap hip-hop hiphop english male vocals vocalist feat collab [poke] mimari dooe -doodle jas CraEZy yuuya_ke montero take a daytrip kanye west
BeatmapID:3160946
BeatmapSetID:1539995

[Difficulty]
HPDrainRate:5
CircleSize:3.7
OverallDifficulty:8
ApproachRate:8.8
SliderMultiplier:1.9
SliderTickRate:1

[Events]
//Background and Video events
0,0,"wallpapersden.com_neon-wave-futuristic-city_1920x1080.jpg",0,0
//Break Periods
2,61772,63743
2,74572,76543
2,125772,127743
2,151372,153343
2,202972,208143
//Storyboard Layer 0 (Background)
//Storyboard Layer 1 (Fail)
//Storyboard Layer 2 (Pass)
//Storyboard Layer 3 (Foreground)
//Storyboard Layer 4 (Overlay)
//Storyboard Sound Samples

[TimingPoints]
3991,400,4,2,1,60,1,0
5472,-100,4,2,1,60,0,0
5572,-100,4,2,1,60,0,0
7072,-100,4,2,1,60,0,0
7172,-100,4,2,1,60,0,0
8672,-100,4,2,1,60,0,0
8772,-100,4,2,1,60,0,0
10372,400,4,2,1,60,1,0
10372,-125,4,2,1,60,0,0
13972,-100,4,2,1,60,0,0
15372,-125,4,2,1,60,0,0
15572,-100,4,2,1,60,0,0
15972,-86.9565217391304,4,2,1,60,0,0
16372,-76.9230769230769,4,2,1,60,0,0
17172,-100,4,2,1,60,0,0
18572,-125,4,2,1,60,0,0
18772,-100,4,2,1,60,0,0
19772,-125,4,2,1,60,0,0
19972,-100,4,2,1,60,0,0
22372,-125,4,2,1,60,0,0
22772,-166.666666666667,4,2,1,60,0,0
23172,-166.666666666667,4,2,1,50,0,0
24772,-125,4,2,1,50,0,0
26372,-166.666666666667,4,2,1,50,0,0
26772,-125,4,2,1,50,0,0
28372,-166.666666666667,4,2,1,50,0,0
28772,-133.333333333333,4,2,1,50,0,0
29172,-111.111111111111,4,2,1,50,0,0
30772,-166.666666666666,4,2,1,50,0,0
31172,-125,4,2,1,50,0,0
32772,-166.666666666667,4,2,1,50,0,0
33172,-125,4,2,1,50,0,0
34772,-142.857142857143,4,2,1,45,0,0
35172,-111.111111111111,4,2,1,55,0,0
35572,-90.9090909090909,4,2,1,65,0,0
35972,-90.9090909090909,4,2,1,80,0,0
36372,-90.9090909090909,4,2,1,80,0,0
37172,-111.111111111111,4,2,1,80,0,0
37972,-90.9090909090909,4,2,1,80,0,0
39172,-111.111111111111,4,2,1,80,0,0
39572,-90.9090909090908,4,2,1,80,0,0
40572,-111.111111111111,4,2,1,80,0,0
41572,-90.9090909090909,4,2,1,80,0,0
41972,-76.9230769230769,4,2,1,80,0,0
42772,-90.9090909090909,4,2,1,80,0,0
43572,-111.111111111111,4,2,1,80,0,0
44372,-90.9090909090909,4,2,1,80,0,0
45572,-125,4,2,1,80,0,0
45972,-90.9090909090909,4,2,1,80,0,0
46972,-111.111111111111,4,2,1,80,0,0
47972,-90.9090909090908,4,2,1,80,0,0
48372,-76.9230769230769,4,2,1,80,0,0
49172,-111.111111111111,4,2,1,80,0,0
50772,-90.9090909090908,4,2,1,80,0,0
51572,-111.111111111111,4,2,1,80,0,0
52772,-90.9090909090908,4,2,1,80,0,0
53772,-111.111111111111,4,2,1,80,0,0
54372,-90.9090909090908,4,2,1,80,0,0
54772,-76.9230769230769,4,2,1,80,0,0
55572,-90.9090909090909,4,2,1,80,0,0
56372,-111.111111111111,4,2,1,80,0,0
57172,-90.9090909090909,4,2,1,80,0,0
58372,-111.111111111111,4,2,1,80,0,0
58772,-142.857142857143,4,2,1,80,0,0
59172,-142.857142857143,4,2,1,60,0,0
60372,-125,4,2,1,60,0,0
63972,-125,4,2,1,40,0,0
64372,-125,4,2,1,60,0,0
64772,-100,4,2,1,60,0,0
66572,-125,4,2,1,60,0,0
67172,-105.263157894737,4,2,1,60,0,0
67972,-125,4,2,1,60,0,0
68372,-100,4,2,1,60,0,0
72972,-125,4,2,1,60,0,0
73172,-100,4,2,1,60,0,0
73572,-86.9565217391304,4,2,1,60,0,0
73972,-76.9230769230769,4,2,1,60,0,0
77172,-125,4,2,1,60,0,0
77572,-100,4,2,1,60,0,0
78972,-166.666666666667,4,2,1,60,0,0
79572,-111.111111111111,4,2,1,60,0,0
79972,-95.2380952380952,4,2,1,60,0,0
80372,-83.3333333333333,4,2,1,60,0,0
81172,-125,4,2,1,60,0,0
81572,-100,4,2,1,60,0,0
82572,-125,4,2,1,60,0,0
82772,-100,4,2,1,60,0,0
86372,-125,4,2,1,60,0,0
86772,-166.666666666667,4,2,1,50,0,0
88768,-125,4,2,1,50,0,0
90368,-166.666666666667,4,2,1,50,0,0
90768,-125,4,2,1,50,0,0
92368,-166.666666666667,4,2,1,50,0,0
92768,-133.333333333333,4,2,1,50,0,0
93168,-111.111111111111,4,2,1,50,0,0
94768,-166.666666666666,4,2,1,50,0,0
95168,-125,4,2,1,50,0,0
96768,-166.666666666667,4,2,1,50,0,0
97168,-125,4,2,1,50,0,0
98768,-142.857142857143,4,2,1,50,0,0
98772,-142.857142857143,4,2,1,45,0,0
99168,-111.111111111111,4,2,1,45,0,0
99172,-111.111111111111,4,2,1,55,0,0
99568,-90.9090909090909,4,2,1,55,0,0
99572,-90.9090909090909,4,2,1,65,0,0
99972,-90.9090909090909,4,2,1,80,0,0
100368,-90.9090909090909,4,2,1,80,0,0
101168,-111.111111111111,4,2,1,80,0,0
101968,-90.9090909090909,4,2,1,80,0,0
103168,-111.111111111111,4,2,1,80,0,0
103568,-90.9090909090908,4,2,1,80,0,0
104568,-111.111111111111,4,2,1,80,0,0
105568,-90.9090909090909,4,2,1,80,0,0
105968,-76.9230769230769,4,2,1,80,0,0
106768,-90.9090909090909,4,2,1,80,0,0
107568,-111.111111111111,4,2,1,80,0,0
108368,-90.9090909090909,4,2,1,80,0,0
109568,-125,4,2,1,80,0,0
109968,-90.9090909090909,4,2,1,80,0,0
110968,-111.111111111111,4,2,1,80,0,0
111968,-90.9090909090908,4,2,1,80,0,0
112368,-76.9230769230769,4,2,1,80,0,0
113168,-111.111111111111,4,2,1,80,0,0
114768,-90.9090909090908,4,2,1,80,0,0
115568,-111.111111111111,4,2,1,80,0,0
116768,-90.9090909090908,4,2,1,80,0,0
117768,-111.111111111111,4,2,1,80,0,0
118368,-90.9090909090908,4,2,1,80,0,0
118768,-76.9230769230769,4,2,1,80,0,0
119568,-90.9090909090909,4,2,1,80,0,0
120368,-111.111111111111,4,2,1,80,0,0
121168,-90.9090909090909,4,2,1,80,0,0
122368,-111.111111111111,4,2,1,80,0,0
122372,-111.111111111111,4,2,1,80,0,0
122768,-142.857142857143,4,2,1,80,0,0
123172,-142.857142857143,4,2,1,60,0,0
124368,-125,4,2,1,60,0,0
127972,-125,4,2,1,40,0,0
128772,-100,4,2,1,60,0,0
130572,-125,4,2,1,60,0,0
130772,-100,4,2,1,60,0,0
131172,-83.3333333333333,4,2,1,60,0,0
131972,-125,4,2,1,60,0,0
132372,-100,4,2,1,60,0,0
133772,-125,4,2,1,60,0,0
133972,-100,4,2,1,60,0,0
135172,-125,4,2,1,60,0,0
135572,-100,4,2,1,60,0,0
136372,-125,4,2,1,60,0,0
136772,-100,4,2,1,60,0,0
137172,-90.9090909090909,4,2,1,60,0,0
137572,-80,4,2,1,60,0,0
138372,-80,4,2,1,40,0,0
141172,-125,4,2,1,40,0,0
141572,-100,4,2,1,60,0,0
142972,-166.666666666667,4,2,1,60,0,0
143572,-100,4,2,1,60,0,0
143972,-83.3333333333333,4,2,1,60,0,0
144772,-100,4,2,1,60,0,0
146572,-125,4,2,1,60,0,0
146772,-100,4,2,1,60,0,0
149172,-166.666666666667,4,2,1,60,0,0
149772,-125,4,2,1,60,0,0
149972,-100,4,2,1,60,0,0
150372,-86.9565217391304,4,2,1,60,0,0
150772,-76.9230769230769,4,2,1,60,0,0
153572,-76.9230769230769,4,2,1,40,0,0
153972,-125,4,2,1,40,0,0
154372,-100,4,2,1,60,0,0
155572,-166.666666666667,4,2,1,60,0,0
156172,-125,4,2,1,60,0,0
156372,-100,4,2,1,60,0,0
156772,-86.9565217391304,4,2,1,60,0,0
157172,-76.9230769230769,4,2,1,60,0,0
157572,-125,4,2,1,60,0,0
157972,-100,4,2,1,60,0,0
158772,-125,4,2,1,60,0,0
159372,-100,4,2,1,60,0,0
160772,-125,4,2,1,60,0,0
161172,-100,4,2,1,60,0,0
161972,-166.666666666667,4,2,1,60,0,0
162572,-125,4,2,1,60,0,0
162772,-100,4,2,1,60,0,0
163172,-86.9565217391304,4,2,1,60,0,0
163572,-76.9230769230769,4,2,1,60,0,0
165572,-166.666666666667,4,2,1,60,0,0
167572,-200,4,2,1,60,0,0
169172,-125,4,2,1,60,0,0
169572,-100,4,2,1,60,0,0
169972,-83.3333333333333,4,2,1,60,0,0
170772,-125,4,2,1,60,0,0
171172,-100,4,2,1,60,0,0
175572,-142.857142857143,4,2,1,45,0,0
175972,-111.111111111111,4,2,1,55,0,0
176372,-90.9090909090908,4,2,1,65,0,0
176772,-90.9090909090908,4,2,1,80,0,0
177168,-125,4,2,1,80,0,0
177372,-125,4,2,1,60,0,0
177968,-111.111111111111,4,2,1,60,0,0
178768,-90.9090909090909,4,2,1,60,0,0
179968,-111.111111111111,4,2,1,60,0,0
179972,-111.111111111111,4,2,1,80,0,0
180368,-90.9090909090908,4,2,1,80,0,0
181368,-111.111111111111,4,2,1,80,0,0
182368,-90.9090909090909,4,2,1,80,0,0
182768,-76.9230769230769,4,2,1,80,0,0
183568,-90.9090909090909,4,2,1,80,0,0
184368,-111.111111111111,4,2,1,80,0,0
185168,-90.9090909090909,4,2,1,80,0,0
186368,-125,4,2,1,80,0,0
186768,-90.9090909090909,4,2,1,80,0,0
187768,-111.111111111111,4,2,1,80,0,0
188768,-90.9090909090908,4,2,1,80,0,0
189168,-76.9230769230769,4,2,1,80,0,0
189968,-111.111111111111,4,2,1,80,0,0
191568,-90.9090909090908,4,2,1,80,0,0
192368,-111.111111111111,4,2,1,80,0,0
193568,-90.9090909090908,4,2,1,80,0,0
194568,-111.111111111111,4,2,1,80,0,0
195168,-90.9090909090908,4,2,1,80,0,0
195568,-76.9230769230769,4,2,1,80,0,0
196368,-90.9090909090909,4,2,1,80,0,0
197168,-111.111111111111,4,2,1,80,0,0
197968,-90.9090909090909,4,2,1,80,0,0
199168,-111.111111111111,4,2,1,80,0,0
199172,-111.111111111111,4,2,1,80,0,0
199568,-142.857142857143,4,2,1,80,0,0
199972,-142.857142857143,4,2,1,60,0,0
201168,-125,4,2,1,60,0,0
202372,-125,4,2,1,80,0,0
208772,-125,4,2,1,80,0,0
213972,-125,4,2,1,80,0,0

[Colours]
Combo1 : 91,85,221
Combo2 : 238,47,119
Combo3 : 255,244,45

[HitObjects]
229,221,10372,6,0,P|249:256|259:299,1,76,2|2,1:0|0:0,0:0:0:0:
388,312,10772,2,0,B|347:302|317:342|317:342|286:382|236:365,1,152,2|0,0:0|0:0,0:0:0:0:
132,228,11572,6,0,P|151:195|161:158,1,76,2|2,0:0|0:0,0:0:0:0:
235,120,11972,2,0,P|215:87|205:50,1,76,2|0,0:0|0:0,0:0:0:0:
12,18,12372,2,0,P|55:11|116:106,1,152,0|0,1:0|0:0,0:0:0:0:
331,355,13572,6,0,L|342:284,1,38,2|0,1:0|0:0,0:0:0:0:
411,366,13772,2,0,L|422:295,1,38,2|0,0:0|0:0,0:0:0:0:
471,223,13972,6,0,P|418:228|378:274,1,95,2|0,0:0|0:0,0:0:0:0:
181,359,14372,2,0,B|235:356|250:295|250:295|261:237|323:234,1,190,8|0,0:1|0:0,0:0:0:0:
306,235,14972,1,8,0:0:0:0:
72,40,15372,2,0,L|79:82,1,38,0|0,1:0|0:0,0:0:0:0:
16,121,15572,6,0,B|52:112|79:147|79:147|107:183|155:174,1,142.5,2|0,1:0|0:0,0:0:0:0:
199,121,15972,6,0,B|238:130|266:92|266:92|300:43|350:57,1,163.875003125668,10|0,1:0|0:0,0:0:0:0:
420,23,16372,6,0,B|403:121|403:121|395:158|426:169|398:230,1,185.249991519928,2|0,1:0|0:0,0:0:0:0:
474,266,16772,5,2,1:0:0:0:
474,266,16972,1,2,0:0:0:0:
323,178,17172,6,0,P|270:183|230:229,1,95,2|0,0:0|0:0,0:0:0:0:
170,359,17572,2,0,B|153:261|153:261|145:224|176:213|148:152,1,190,8|2,0:1|0:0,0:0:0:0:
155,171,18172,1,10,0:0:0:0:
372,67,18572,6,0,L|368:104,1,38,0|0,1:0|0:0,0:0:0:0:
307,159,18772,2,0,B|264:176|232:126|232:126|196:75|145:93,1,190,0|8,1:0|0:1,0:0:0:0:
18,288,19772,6,0,L|22:334,1,38,0|0,1:0|0:0,0:0:0:0:
87,372,19972,2,0,P|123:343|174:343,1,95,2|2,1:0|0:0,0:0:0:0:
346,258,20372,5,2,0:0:0:0:
241,384,20572,1,0,0:0:0:0:
184,232,20772,2,0,B|192:129|192:129|196:66|264:62,2,190,8|0|0,0:1|0:0|0:0,0:0:0:0:
400,380,21972,6,0,P|421:349|438:291,1,95,2|0,0:0|0:0,0:0:0:0:
512,236,22372,2,0,P|492:203|482:166,1,76,10|0,0:1|0:0,0:0:0:0:
410,132,22772,2,0,P|430:99|438:71,1,56.9999982604981,2|0,0:0|0:0,0:0:0:0:
450,6,23172,5,6,0:1:0:0:
450,6,23372,1,2,0:0:0:0:
450,6,23572,1,2,3:0:0:0:
260,27,23972,1,8,3:1:0:0:
81,44,24372,6,0,P|69:70|76:113,1,56.9999982604981,2|2,3:0|0:0,0:0:0:0:
142,135,24772,2,0,P|184:86|137:4,1,152,2|0,3:0|3:0,0:0:0:0:
154,12,25572,5,8,3:1:0:0:
174,209,25972,1,8,3:2:0:0:
171,218,26072,1,8,0:3:0:0:
168,227,26172,2,0,L|110:215,1,38,4|4,0:3|0:3,0:0:0:0:
53,280,26372,6,0,P|52:308|64:333,1,56.9999982604981,2|2,3:0|0:0,0:0:0:0:
137,372,26772,2,0,B|173:381|201:345|201:345|229:308|278:317,1,152,2|8,3:0|3:1,0:0:0:0:
269,315,27572,5,0,3:0:0:0:
294,151,27972,1,0,3:0:0:0:
313,5,28372,6,0,P|362:5|399:47,1,85.4999973907472,2|0,3:0|0:0,0:0:0:0:
464,53,28772,6,0,P|406:65|386:123,1,106.875004076958,10|0,3:1|0:0,0:0:0:0:
371,181,29172,6,0,P|415:194|445:284,1,128.249996086121,2|0,3:0|0:0,0:0:0:0:
442,348,29572,5,6,0:1:0:0:
442,348,29772,1,2,0:0:0:0:
442,348,29972,1,2,3:0:0:0:
239,322,30372,1,8,3:1:0:0:
50,296,30772,6,0,P|38:270|45:227,1,56.9999982604981,2|2,3:0|0:0,0:0:0:0:
111,205,31172,2,0,P|153:254|106:336,1,152,2|0,3:0|3:0,0:0:0:0:
123,327,31972,5,8,3:1:0:0:
104,124,32372,1,8,3:2:0:0:
107,115,32472,1,8,0:3:0:0:
110,107,32572,2,0,L|168:119,1,38,4|4,0:3|0:3,0:0:0:0:
205,48,32772,6,0,L|283:35,1,56.9999982604981,2|2,3:0|0:0,0:0:0:0:
344,12,33172,2,0,P|292:72|274:140,1,152,2|8,3:0|3:1,0:0:0:0:
273,140,33972,5,0,3:0:0:0:
499,195,34372,1,0,0:0:0:0:
342,364,34772,6,0,P|350:314|376:259,1,99.7499969558717,2|0,1:0|0:0,0:0:0:0:
365,193,35172,6,0,B|331:184|306:217|306:217|280:250|236:242,1,128.249996086121,10|0,1:0|0:0,0:0:0:0:
205,311,35572,6,0,B|168:319|142:284|142:284|111:238|65:251,1,156.750004783631,2|0,1:0|0:0,0:0:0:0:
21,316,35972,5,6,1:2:0:0:
21,316,36172,1,2,0:0:0:0:
163,192,36372,6,0,B|157:116|157:116|156:69|129:68|131:18,1,156.750004783631,2|0,0:0|0:0,0:0:0:0:
132,40,36772,1,8,0:1:0:0:
363,0,37172,6,0,P|408:6|436:53,1,85.4999973907472,2|10,0:0|0:0,0:0:0:0:
503,68,37572,1,2,0:0:0:0:
382,100,37772,6,0,L|392:160,1,42.7499986953736,0|0,1:0|0:0,0:0:0:0:
475,167,37972,2,0,B|433:158|407:193|407:193|376:239|330:226,1,156.750004783631,0|0,1:0|0:0,0:0:0:0:
279,178,38372,5,8,0:1:0:0:
474,250,38572,1,0,0:0:0:0:
166,375,39172,6,0,L|173:314,1,42.7499986953736,2|0,1:0|0:0,0:0:0:0:
90,365,39372,2,0,L|97:304,1,42.7499986953736,2|0,0:0|0:0,0:0:0:0:
61,126,39572,6,0,P|126:198|143:262,1,156.750004783631,2|0,0:0|0:0,0:0:0:0:
142,253,39972,1,8,0:1:0:0:
337,23,40572,6,0,P|292:29|264:76,1,85.4999973907472,8|0,0:0|0:0,0:0:0:0:
200,16,40972,1,0,1:0:0:0:
263,151,41172,6,0,P|306:133|400:120,1,128.249996086121,2|0,1:0|0:0,0:0:0:0:
463,71,41572,6,0,B|469:147|469:147|470:194|497:195|495:245,1,156.750004783631,10|0,1:0|0:0,0:0:0:0:
500,307,41972,6,0,B|456:316|425:274|425:274|387:220|332:235,1,185.249991519928,2|0,1:0|0:0,0:0:0:0:
288,299,42372,5,2,1:0:0:0:
288,299,42572,1,2,0:0:0:0:
165,194,42772,6,0,B|133:210|134:242|134:242|152:377,1,156.750004783631,2|0,0:0|0:0,0:0:0:0:
146,337,43172,1,8,0:1:0:0:
346,124,43572,6,0,P|318:92|276:88,1,85.4999973907472,2|10,0:0|0:0,0:0:0:0:
243,161,43972,1,2,0:0:0:0:
211,7,44172,6,0,L|201:67,1,42.7499986953736,0|0,1:0|0:0,0:0:0:0:
166,124,44372,2,0,B|124:133|98:98|98:98|67:52|21:65,1,156.750004783631,0|0,1:0|0:0,0:0:0:0:
111,57,44772,5,8,0:1:0:0:
138,258,44972,1,0,0:0:0:0:
372,346,45572,6,0,L|314:334,1,38,2|0,1:0|0:0,0:0:0:0:
390,268,45772,2,0,L|332:256,1,38,2|0,0:0|0:0,0:0:0:0:
131,340,45972,6,0,B|173:349|199:314|199:314|230:268|276:281,1,156.750004783631,2|0,0:0|0:0,0:0:0:0:
264,278,46372,1,8,0:1:0:0:
512,161,46972,6,0,P|467:167|439:214,1,85.4999973907472,8|0,0:0|0:0,0:0:0:0:
476,271,47372,1,0,1:0:0:0:
358,175,47572,6,0,B|359:137|372:142|382:99|382:99|391:16,1,128.249996086121,2|0,1:0|0:0,0:0:0:0:
317,10,47972,6,0,B|281:1|254:37|254:37|222:84|185:73,1,156.750004783631,10|0,1:0|0:0,0:0:0:0:
88,41,48372,6,0,B|134:39|158:90|158:90|187:155|235:150,1,185.249991519928,2|0,1:0|0:0,0:0:0:0:
260,227,48772,5,2,1:0:0:0:
260,227,48972,1,2,0:0:0:0:
51,325,49172,5,2,0:0:0:0:
187,180,49372,1,0,0:0:0:0:
249,359,49572,1,10,0:1:0:0:
31,151,49972,6,0,P|51:112|61:61,1,85.4999973907472,2|10,0:0|0:0,0:0:0:0:
132,40,50372,1,2,0:0:0:0:
117,232,50572,6,0,P|106:205|105:165,1,42.7499986953736,0|0,1:0|0:0,0:0:0:0:
151,122,50772,2,0,B|185:111|216:157|216:157|242:192|284:183,1,156.750004783631,0|0,1:0|0:0,0:0:0:0:
283,183,51172,1,8,0:1:0:0:
459,17,51572,6,0,P|479:56|489:107,1,85.4999973907472
430,235,51972,5,2,1:0:0:0:
430,235,52172,1,2,0:0:0:0:
320,80,52372,5,2,0:0:0:0:
511,181,52572,1,0,0:0:0:0:
336,292,52772,2,0,B|300:301|273:265|273:265|241:218|204:229,1,156.750004783631,8|0,0:1|0:0,0:0:0:0:
204,228,53172,1,0,0:0:0:0:
28,12,53772,6,0,L|36:57,1,42.7499986953736,0|0,1:0|0:0,0:0:0:0:
116,50,53972,6,0,P|62:80|42:151,1,128.249996086121,2|0,1:0|0:0,0:0:0:0:
0,213,54372,6,0,P|62:238|75:330,1,156.750004783631,10|0,1:0|0:0,0:0:0:0:
148,362,54772,6,0,B|246:345|246:345|283:337|294:368|355:340,1,185.249991519928,2|0,1:0|0:0,0:0:0:0:
408,384,55172,5,2,1:0:0:0:
408,384,55372,1,2,0:0:0:0:
365,131,55572,6,0,B|329:138|322:169|322:169|305:304,1,156.750004783631,2|0,0:0|0:0,0:0:0:0:
308,263,55972,1,8,0:1:0:0:
90,125,56372,6,0,P|118:93|160:89,1,85.4999973907472,2|10,0:0|0:0,0:0:0:0:
193,162,56772,1,2,0:0:0:0:
225,8,56972,6,0,L|235:68,1,42.7499986953736,0|0,1:0|0:0,0:0:0:0:
270,125,57172,2,0,B|312:134|338:99|338:99|369:53|415:66,1,156.750004783631,0|0,1:0|0:0,0:0:0:0:
471,109,57572,5,8,0:1:0:0:
443,310,57772,1,0,0:0:0:0:
505,251,57972,1,0,0:0:0:0:
172,373,58372,6,0,L|165:321,1,42.7499986953736,2|0,1:0|0:0,0:0:0:0:
251,364,58572,2,0,L|245:321,1,42.7499986953736,2|0,0:0|0:0,0:0:0:0:
332,123,58772,6,0,B|311:149|330:181|330:181|378:257|289:365|141:291|192:166|250:155,1,398.999987823487,2|0,0:0|0:0,0:0:0:0:
244,156,60372,6,0,P|245:128|255:104,1,38,2|0,0:0|0:0,0:0:0:0:
298,58,60772,5,2,0:0:0:0:
103,1,61172,6,0,P|104:29|114:53,1,38,2|0,0:0|0:0,0:0:0:0:
168,92,61572,5,0,0:0:0:0:
449,42,64372,6,0,L|444:94,1,38,2|0,1:0|0:0,0:0:0:0:
371,31,64572,2,0,L|366:83,1,38,2|0,1:0|0:0,0:0:0:0:
471,193,64772,6,0,P|436:161|389:147,1,95,2|2,1:0|0:0,0:0:0:0:
300,285,65172,2,0,B|398:271|398:271|446:265|445:296|514:272,1,190,2|8,0:0|0:1,0:0:0:0:
487,279,65972,5,0,0:0:0:0:
489,293,66072,1,0,0:0:0:0:
487,303,66172,1,8,0:0:0:0:
213,174,66572,6,0,L|220:119,1,38,10|0,1:0|0:0,0:0:0:0:
292,105,66772,6,0,P|229:97|194:53,1,114,2|0,1:0|0:0,0:0:0:0:
153,0,67172,6,0,B|119:10|118:58|118:58|115:96|85:107,1,135.374996385098,10|0,1:0|0:0,0:0:0:0:
27,161,67572,5,2,1:0:0:0:
36,166,67672,1,0,0:0:0:0:
40,174,67772,1,0,0:0:0:0:
166,371,67972,6,0,L|176:313,1,38,2|0,1:0|0:0,0:0:0:0:
230,249,68172,2,0,L|240:307,1,38,2|0,0:0|0:0,0:0:0:0:
311,328,68372,2,0,B|354:338|385:295|385:295|423:240|479:256,1,190,2|8,0:0|0:1,0:0:0:0:
473,255,69172,5,2,0:0:0:0:
476,269,69272,1,0,0:0:0:0:
475,278,69372,1,10,0:0:0:0:
318,244,69572,6,0,P|305:202|306:142,1,95,2|0,0:0|1:0,0:0:0:0:
449,66,69972,2,0,B|349:57|349:57|301:53|304:84|234:64,1,190,0|8,1:0|0:1,0:0:0:0:
261,70,70772,5,0,0:0:0:0:
252,69,70872,1,0,0:0:0:0:
245,59,70972,1,0,0:0:0:0:
86,178,71172,6,0,P|116:153|182:154,1,95,2|2,1:0|0:0,0:0:0:0:
286,375,71572,2,0,B|248:373|241:329|241:329|224:194,1,190,2|8,0:0|0:1,0:0:0:0:
226,210,72372,5,0,0:0:0:0:
224,229,72472,1,0,0:0:0:0:
219,242,72572,2,0,P|168:253|145:308,1,95,8|0,0:0|0:0,0:0:0:0:
8,166,72972,6,0,L|0:113,1,38,0|0,1:0|0:0,0:0:0:0:
68,83,73172,6,0,B|104:74|131:109|131:109|159:145|207:136,1,142.5,2|0,1:0|0:0,0:0:0:0:
234,201,73572,6,0,B|273:210|301:172|301:172|335:123|385:137,1,163.875003125668,10|0,1:0|0:0,0:0:0:0:
468,94,73972,6,0,B|451:192|451:192|443:229|474:240|446:301,1,185.249991519928,2|0,1:0|0:0,0:0:0:0:
499,346,74372,5,2,1:2:0:0:
43,371,77172,6,0,L|37:303,1,38,0|0,1:0|0:0,0:0:0:0:
120,364,77372,2,0,L|114:296,1,38,0|0,1:0|0:0,0:0:0:0:
112,179,77572,6,0,P|81:216|75:279,1,95,6|2,1:2|0:0,0:0:0:0:
313,338,77972,2,0,B|260:349|229:294|229:294|204:240|143:254,1,190,2|8,0:0|0:1,0:0:0:0:
160,250,78572,1,0,0:0:0:0:
15,42,78972,6,0,P|66:44|103:110,1,113.999996520996,8|0,0:0|1:0,0:0:0:0:
167,140,79572,6,0,B|238:129|238:129|276:124|265:143|327:127,1,128.249996086121,2|0,1:0|0:0,0:0:0:0:
296,59,79972,6,0,B|332:50|359:85|359:85|390:123|438:113,1,149.624995433808,10|0,1:0|0:0,0:0:0:0:
505,92,80372,6,0,B|459:91|436:150|436:150|420:201|368:199,1,170.999994781494,2|0,1:0|0:0,0:0:0:0:
341,270,80772,5,2,1:0:0:0:
341,270,80972,1,2,0:0:0:0:
422,377,81172,6,0,P|429:336|455:289,1,76,2|0,0:0|0:0,0:0:0:0:
305,188,81572,2,0,P|236:191|208:303,1,190,8|2,0:1|0:0,0:0:0:0:
202,293,82172,1,10,0:0:0:0:
42,148,82572,6,0,L|50:87,1,38,0|0,1:0|0:0,0:0:0:0:
32,35,82772,2,0,B|79:22|115:69|115:69|153:121|217:106,1,190,0|8,1:0|0:1,0:0:0:0:
395,43,83972,6,0,P|425:78|434:124,1,95,2|2,1:0|0:0,0:0:0:0:
196,202,84373,2,0,B|246:212|277:157|277:157|302:103|347:114,2,190,2|8|0,0:0|0:1|0:0,0:0:0:0:
194,202,85372,1,8,0:0:0:0:
24,375,85972,6,0,P|64:354|120:344,1,95,2|0,1:0|0:0,0:0:0:0:
176,291,86372,2,0,P|216:312|264:319,1,76,10|0,1:0|0:0,0:0:0:0:
306,373,86772,2,0,P|346:352|374:350,1,56.9999982604981,2|0,1:0|0:0,0:0:0:0:
443,378,87172,5,6,0:1:0:0:
443,378,87372,1,2,0:0:0:0:
443,378,87572,1,2,3:0:0:0:
462,208,87972,1,8,3:1:0:0:
481,26,88372,6,0,P|455:14|412:21,1,56.9999982604981,2|2,3:0|0:0,0:0:0:0:
390,87,88772,2,0,P|439:129|521:82,1,152,2|0,3:0|3:0,0:0:0:0:
512,99,89572,5,8,3:1:0:0:
309,69,89972,1,8,3:2:0:0:
300,72,90072,1,8,0:3:0:0:
291,75,90172,2,0,L|303:133,1,38,4|4,0:3|0:3,0:0:0:0:
400,199,90372,6,0,P|371:182|327:184,1,56.9999982604981,2|2,3:0|0:0,0:0:0:0:
277,227,90772,2,0,P|321:274|336:361,1,152,2|8,3:0|3:1,0:0:0:0:
336,358,91572,5,0,3:0:0:0:
158,335,91972,1,0,3:0:0:0:
0,308,92372,6,0,P|0:259|42:222,1,85.4999973907472,2|0,3:0|0:0,0:0:0:0:
48,157,92772,6,0,P|60:215|118:235,1,106.875004076958,10|0,3:1|0:0,0:0:0:0:
176,250,93172,6,0,P|205:206|292:194,1,128.249996086121,2|0,3:0|0:0,0:0:0:0:
356,243,93572,5,6,0:1:0:0:
356,243,93772,1,2,0:0:0:0:
356,243,93972,1,2,3:0:0:0:
388,59,94372,1,8,3:1:0:0:
194,31,94772,6,0,P|182:57|189:100,1,56.9999982604981,2|2,3:0|0:0,0:0:0:0:
255,122,95172,2,0,P|297:73|250:-9,1,152,2|0,3:0|3:0,0:0:0:0:
267,0,95972,5,8,3:1:0:0:
229,201,96372,1,8,3:2:0:0:
232,210,96472,1,8,0:3:0:0:
235,218,96572,2,0,L|293:206,1,38,4|4,0:3|0:3,0:0:0:0:
317,277,96772,6,0,L|391:296,1,56.9999982604981,2|2,3:0|0:0,0:0:0:0:
449,352,97172,2,0,P|409:283|404:212,1,152,2|8,3:0|3:1,0:0:0:0:
403,212,97972,5,0,3:0:0:0:
195,12,98772,6,0,P|182:59|176:126,1,99.7499969558717,2|0,1:0|0:0,0:0:0:0:
254,133,99172,6,0,B|219:129|193:159|193:159|172:187|134:183,1,128.249996086121,2|0,1:0|0:0,0:0:0:0:
60,199,99572,6,0,B|97:191|123:226|123:226|154:272|200:259,1,156.750004783631,2|0,1:0|0:0,0:0:0:0:
237,337,99972,5,6,1:2:0:0:
237,337,100172,1,2,0:0:0:0:
361,232,100372,6,0,B|384:127|384:127|386:96|357:79,1,156.750004783631,2|0,0:0|0:0,0:0:0:0:
364,84,100772,1,8,0:1:0:0:
174,0,101172,6,0,P|129:6|101:53,1,85.4999973907472,2|10,0:0|0:0,0:0:0:0:
34,68,101572,1,2,0:0:0:0:
155,100,101772,6,0,L|145:160,1,42.7499986953736,0|0,1:0|0:0,0:0:0:0:
81,181,101972,2,0,B|72:223|107:249|107:249|153:280|140:326,1,156.750004783631,0|0,1:0|0:0,0:0:0:0:
201,218,102372,5,8,0:1:0:0:
13,269,102572,1,0,0:0:0:0:
61,335,102772,1,0,0:0:0:0:
346,375,103172,6,0,L|339:314,1,42.7499986953736,2|0,1:0|0:0,0:0:0:0:
422,365,103372,2,0,L|415:304,1,42.7499986953736,2|0,0:0|0:0,0:0:0:0:
451,126,103572,6,0,P|386:198|369:262,1,156.750004783631,2|0,0:0|0:0,0:0:0:0:
370,253,103972,1,8,0:1:0:0:
359,178,104172,1,0,0:0:0:0:
175,23,104572,6,0,P|220:29|248:76,1,85.4999973907472,8|0,0:0|0:0,0:0:0:0:
312,16,104972,1,0,1:0:0:0:
237,164,105172,6,0,B|205:170|183:140|183:140|156:101|117:112,1,128.249996086121,2|0,1:0|0:0,0:0:0:0:
49,71,105572,6,0,B|43:147|43:147|42:194|15:195|17:245,1,156.750004783631,10|0,1:0|0:0,0:0:0:0:
12,307,105972,6,0,B|56:316|87:274|87:274|125:220|180:235,1,185.249991519928,2|0,1:0|0:0,0:0:0:0:
224,299,106372,5,2,1:0:0:0:
224,299,106572,1,2,0:0:0:0:
347,194,106772,6,0,B|379:210|378:242|378:242|360:377,1,156.750004783631,2|0,0:0|0:0,0:0:0:0:
366,337,107172,1,8,0:1:0:0:
166,124,107572,6,0,P|194:92|236:88,1,85.4999973907472,2|10,0:0|0:0,0:0:0:0:
269,161,107972,1,2,0:0:0:0:
301,7,108172,6,0,L|311:67,1,42.7499986953736,0|0,1:0|0:0,0:0:0:0:
346,122,108372,2,0,B|388:131|414:96|414:96|445:50|491:63,1,156.750004783631,0|0,1:0|0:0,0:0:0:0:
484,141,108772,5,8,0:1:0:0:
234,87,108972,1,0,0:0:0:0:
290,21,109172,1,0,0:0:0:0:
66,344,109572,6,0,L|124:332,1,38,2|0,1:0|0:0,0:0:0:0:
48,266,109772,2,0,L|106:254,1,38,2|0,0:0|0:0,0:0:0:0:
301,345,109972,6,0,P|249:297|149:289,1,156.750004783631,2|0,0:0|0:0,0:0:0:0:
166,284,110372,1,8,0:1:0:0:
246,256,110572,1,0,0:0:0:0:
0,69,110972,6,0,P|45:75|73:122,1,85.4999973907472,8|0,0:0|0:0,0:0:0:0:
18,168,111372,1,0,1:0:0:0:
184,205,111572,6,0,B|174:141|174:141|167:102|182:102|173:58,1,128.249996086121,2|0,1:0|0:0,0:0:0:0:
230,18,111972,6,0,B|266:9|293:45|293:45|325:92|362:81,1,156.750004783631,10|0,1:0|0:0,0:0:0:0:
440,32,112372,6,0,B|448:135|448:135|452:169|429:174|447:238,1,185.249991519928,2|0,1:0|0:0,0:0:0:0:
375,263,112772,5,2,1:0:0:0:
375,263,112972,1,2,0:0:0:0:
490,350,113172,5,2,0:0:0:0:
335,181,113372,1,0,0:0:0:0:
247,376,113572,1,10,0:1:0:0:
459,90,113972,6,0,P|472:128|472:181,1,85.4999973907472,2|10,0:0|0:0,0:0:0:0:
512,243,114372,1,2,0:0:0:0:
383,45,114572,6,0,P|376:63|373:86,1,42.7499986953736,0|0,1:0|0:0,0:0:0:0:
319,145,114772,2,0,B|285:134|254:180|254:180|228:215|186:206,1,156.750004783631,0|0,1:0|0:0,0:0:0:0:
130,264,115172,1,8,0:1:0:0:
47,17,115572,6,0,P|27:56|17:107,1,85.4999973907472
55,244,115972,5,2,1:0:0:0:
55,244,116172,1,2,0:0:0:0:
187,58,116372,5,2,0:0:0:0:
0,166,116572,1,0,0:0:0:0:
182,287,116772,2,0,P|204:205|238:121,1,156.750004783631,8|0,0:1|0:0,0:0:0:0:
230,138,117172,1,0,0:0:0:0:
488,88,117572,5,0,0:0:0:0:
484,12,117772,2,0,L|476:57,1,42.7499986953736,0|0,1:0|0:0,0:0:0:0:
396,50,117972,6,0,P|450:80|470:151,1,128.249996086121,2|0,1:0|0:0,0:0:0:0:
512,213,118372,6,0,P|450:238|437:330,1,156.750004783631,10|0,1:0|0:0,0:0:0:0:
364,362,118772,6,0,B|266:345|266:345|229:337|218:368|157:340,1,185.249991519928,2|0,1:0|0:0,0:0:0:0:
104,384,119172,5,2,1:0:0:0:
104,384,119372,1,2,0:0:0:0:
147,131,119572,6,0,B|183:138|190:169|190:169|207:304,1,156.750004783631,2|0,0:0|0:0,0:0:0:0:
204,263,119972,1,8,0:1:0:0:
451,122,120372,6,0,P|423:90|381:86,1,85.4999973907472,2|10,0:0|0:0,0:0:0:0:
348,159,120772,1,2,0:0:0:0:
316,5,120972,6,0,L|306:65,1,42.7499986953736,0|0,1:0|0:0,0:0:0:0:
271,122,121172,2,0,B|229:131|203:96|203:96|172:50|126:63,1,156.750004783631,0|0,1:0|0:0,0:0:0:0:
65,28,121572,5,8,0:1:0:0:
97,232,121772,1,0,0:0:0:0:
136,149,121972,1,0,0:0:0:0:
403,369,122372,6,0,L|346:356,1,42.7499986953736,2|0,1:0|0:0,0:0:0:0:
421,295,122572,2,0,L|364:282,1,42.7499986953736,2|0,0:0|0:0,0:0:0:0:
167,342,122772,6,0,B|166:327|176:315|190:312|190:312|306:298|306:298|329:292|345:274|349:251|349:251|352:228|340:205|319:195|319:195|299:184|274:186|257:201|257:201|239:216|232:241|240:262,1,398.999987823487,2|0,0:0|0:0,0:0:0:0:
238,235,124372,6,0,P|237:207|227:183,1,38,2|0,1:2|0:0,0:0:0:0:
171,62,124772,6,0,P|159:87|141:106,1,38,2|0,1:2|0:0,0:0:0:0:
0,142,125172,6,0,B|34:131|64:176|64:176|89:210|130:207,1,152,2|0,1:2|0:0,0:0:0:0:
452,36,128372,6,0,L|446:92,1,38,2|0,1:0|0:0,0:0:0:0:
374,23,128572,2,0,L|368:79,1,38,2|0,1:0|0:0,0:0:0:0:
445,215,128772,6,0,P|431:169|375:122,1,95,2|2,1:0|0:0,0:0:0:0:
193,62,129172,2,0,B|228:53|256:95|256:95|279:126|317:124,1,142.5,2|0,0:0|0:0,0:0:0:0:
312,124,129572,1,8,0:1:0:0:
122,243,129772,5,0,0:0:0:0:
120,232,129872,1,0,0:0:0:0:
118,223,129972,1,0,0:0:0:0:
231,352,130172,2,0,P|245:306|301:259,1,95,8|0,0:0|0:0,0:0:0:0:
189,155,130572,6,0,L|197:209,1,38,10|0,1:0|0:0,0:0:0:0:
122,243,130772,6,0,B|86:251|58:209|58:209|35:178|-2:180,1,142.5,2|0,1:0|0:0,0:0:0:0:
62,113,131172,6,0,B|103:121|131:83|131:83|165:34|222:46,1,170.999994781494,10|0,1:0|0:0,0:0:0:0:
272,1,131572,5,2,1:0:0:0:
284,6,131672,1,0,0:0:0:0:
288,15,131772,1,0,0:0:0:0:
332,224,131972,6,0,L|322:159,1,38,2|0,1:0|0:0,0:0:0:0:
408,121,132172,2,0,L|398:186,1,38,2|0,0:0|0:0,0:0:0:0:
368,302,132372,6,0,P|325:310|273:284,1,95,2|0,0:0|0:0,0:0:0:0:
54,210,132772,2,0,B|154:201|154:201|202:197|199:228|269:208,1,190,8|2,0:1|0:0,0:0:0:0:
241,213,133372,1,10,0:0:0:0:
116,369,133572,5,2,0:0:0:0:
162,282,133772,2,0,P|170:304|172:335,1,38,0|0,1:0|0:0,0:0:0:0:
82,290,133972,6,0,B|73:244|115:212|115:212|170:174|156:111,1,190,0|8,1:0|0:1,0:0:0:0:
461,31,135172,6,0,P|441:62|432:123,1,76,2|2,1:0|0:0,0:0:0:0:
497,194,135572,2,0,B|450:205|412:150|412:150|380:108|334:117,1,190,2|8,0:0|0:1,0:0:0:0:
336,116,136072,1,0,0:0:0:0:
139,74,136372,6,0,L|147:28,1,38,0|0,1:0|0:0,0:0:0:0:
218,10,136572,1,8,0:0:0:0:
152,219,136772,5,0,0:0:0:0:
224,245,136972,2,0,L|232:304,1,47.5,0|0,1:0|0:0,0:0:0:0:
168,342,137172,6,0,B|251:334|251:334|291:331|288:357|347:340,1,156.750004783631,2|0,1:0|0:0,0:0:0:0:
404,350,137572,6,0,B|413:307|371:275|371:275|316:237|327:181,1,178.125,10|0,1:0|0:0,0:0:0:0:
354,118,137972,5,2,1:0:0:0:
380,126,138072,1,0,0:0:0:0:
393,151,138172,1,0,0:0:0:0:
262,381,138372,5,0,1:0:0:0:
243,8,138772,5,0,3:0:0:0:
243,8,139172,1,0,3:0:0:0:
243,8,139572,1,2,3:0:0:0:
243,8,139972,1,2,3:0:0:0:
42,303,141172,6,0,L|109:313,1,38,0|0,1:0|0:0,0:0:0:0:
52,226,141372,2,0,L|119:236,1,38,0|0,1:0|0:0,0:0:0:0:
240,244,141572,6,0,P|179:258|152:304,1,95,6|2,1:2|0:0,0:0:0:0:
37,57,141972,2,0,B|87:58|111:106|111:106|137:167|200:167,1,190,2|8,0:0|0:1,0:0:0:0:
444,20,142972,6,0,P|396:20|354:79,1,113.999996520996,8|0,0:0|1:0,0:0:0:0:
391,139,143572,6,0,B|355:147|327:105|327:105|304:74|267:76,1,142.5,2|0,1:0|0:0,0:0:0:0:
197,12,143972,6,0,B|188:101|188:101|184:149|215:146|195:216,1,170.999994781494,10|0,1:0|0:0,0:0:0:0:
263,236,144372,5,2,1:0:0:0:
261,251,144472,1,0,0:0:0:0:
258,268,144572,1,0,0:0:0:0:
493,383,144772,6,0,P|475:318|445:288,1,95,2|2,1:0|0:0,0:0:0:0:
395,163,145172,2,0,B|359:170|352:201|352:201|336:345,1,190,2|8,0:0|0:1,0:0:0:0:
484,174,145972,5,2,0:0:0:0:
484,174,146172,1,10,0:0:0:0:
413,42,146372,5,2,0:0:0:0:
352,94,146572,2,0,L|297:85,1,38,0|0,1:0|0:0,0:0:0:0:
254,33,146772,6,0,B|218:25|190:67|190:67|167:98|130:96,1,142.5,0|0,1:0|0:0,0:0:0:0:
64,137,147172,1,8,0:1:0:0:
57,127,147272,1,0,0:0:0:0:
55,116,147372,1,0,0:0:0:0:
18,375,147972,6,0,P|36:310|66:280,1,95,2|2,1:0|0:0,0:0:0:0:
3,199,148372,2,0,B|121:221|121:221|161:228|142:250|217:249,1,190,2|8,0:0|0:1,0:0:0:0:
292,26,149172,6,0,P|300:96|305:146,1,113.999996520996,0|0,1:0|0:0,0:0:0:0:
371,186,149772,6,0,L|365:243,1,38,0|0,1:0|0:0,0:0:0:0:
445,255,149972,6,0,P|388:264|338:345,1,142.5,2|0,1:0|0:0,0:0:0:0:
248,371,150372,6,0,B|260:253|260:253|273:230|270:204,1,163.875003125668,10|0,1:0|0:0,0:0:0:0:
216,151,150772,6,0,B|168:135|136:185|136:185|100:236|48:221,1,185.249991519928,2|0,1:0|0:0,0:0:0:0:
6,162,151172,5,2,1:0:0:0:
512,210,153972,6,0,L|455:224,1,38,2|0,1:0|0:0,0:0:0:0:
492,136,154172,2,0,L|435:150,1,38,2|0,1:0|0:0,0:0:0:0:
310,166,154372,6,0,P|367:179|398:215,1,95,6|2,1:2|0:0,0:0:0:0:
496,32,154772,2,0,P|417:41|387:116,1,142.5,2|0,0:0|0:0,0:0:0:0:
410,8,155172,1,8,0:1:0:0:
410,8,155372,1,0,0:0:0:0:
204,10,155572,6,0,P|212:80|217:130,1,113.999996520996,0|0,1:0|0:0,0:0:0:0:
286,172,156172,6,0,L|280:229,1,38,0|0,1:0|0:0,0:0:0:0:
317,283,156372,6,0,B|281:291|253:249|253:249|230:218|193:220,1,142.5,2|0,1:0|0:0,0:0:0:0:
168,296,156772,6,0,B|129:284|95:333|95:333|67:371|28:362,1,163.875003125668,10|0,1:0|0:0,0:0:0:0:
6,284,157172,6,0,B|18:253|-5:236|2:199|2:199|19:101,1,185.249991519928,2|0,1:0|0:0,0:0:0:0:
88,14,157572,6,0,L|97:62,1,38,2|0,1:0|0:0,0:0:0:0:
157,142,157772,2,0,L|166:94,1,38,2|0,0:0|0:0,0:0:0:0:
237,53,157972,6,0,B|285:37|317:87|317:87|353:138|409:122,1,190,2|8,0:0|0:1,0:0:0:0:
398,124,158572,1,0,0:0:0:0:
476,324,158772,6,0,P|489:281|515:251,1,76,2|10,0:0|0:0,0:0:0:0:
464,193,159172,1,2,0:0:0:0:
391,292,159372,2,0,L|339:303,1,47.5,0|0,1:0|0:0,0:0:0:0:
262,345,159572,6,0,B|249:308|287:284|287:284|326:257|314:214,1,142.5,0|0,1:0|0:0,0:0:0:0:
316,224,159972,1,8,0:1:0:0:
71,41,160772,6,0,P|93:71|102:108,1,76,2|2,1:0|0:0,0:0:0:0:
8,215,161172,2,0,P|95:191|162:180,1,142.5,2|0,0:0|0:0,0:0:0:0:
217,218,161572,1,8,0:1:0:0:
217,218,161772,1,0,0:0:0:0:
392,80,161972,6,0,P|305:56|263:51,1,113.999996520996,0|0,1:0|0:0,0:0:0:0:
201,42,162572,6,0,L|207:92,1,38,0|0,1:0|0:0,0:0:0:0:
255,145,162772,6,0,P|225:204|208:283,1,142.5,2|0,1:0|0:0,0:0:0:0:
144,354,163172,6,0,B|181:362|209:324|209:324|243:275|281:287,1,163.875003125668,10|0,1:0|0:0,0:0:0:0:
314,214,163572,6,0,B|362:198|394:248|394:248|430:299|492:284,1,185.249991519928,2|0,1:0|0:0,0:0:0:0:
512,216,163972,5,6,1:2:0:0:
512,216,164172,1,2,0:0:0:0:
512,216,164372,1,2,0:0:0:0:
0,181,165172,5,2,0:0:0:0:
0,181,165372,1,10,0:0:0:0:
0,181,165572,2,0,P|48:156|120:162,1,113.999996520996,2|0,0:0|1:0,0:0:0:0:
297,372,166572,6,0,L|311:258,1,113.999996520996
390,218,167172,5,2,1:0:0:0:
390,218,167372,1,2,0:0:0:0:
390,218,167572,2,0,B|440:221|451:279|451:279|467:348|521:355,1,190,2|0,0:0|0:0,0:0:0:0:
305,30,169172,6,0,B|273:22|250:52|250:52|225:83|184:76,1,114,2|0,1:0|0:0,0:0:0:0:
243,146,169572,6,0,B|209:153|184:120|184:120|155:78|111:90,1,142.5,10|0,1:0|0:0,0:0:0:0:
65,40,169972,6,0,B|79:125|79:125|86:157|59:167|84:220,1,170.999994781494,2|0,1:0|0:0,0:0:0:0:
33,281,170372,5,2,0:0:0:0:
33,281,170572,1,2,0:0:0:0:
119,366,170772,6,0,P|153:341|206:346,1,76,2|0,0:0|0:0,0:0:0:0:
283,206,171172,6,0,P|274:252|269:337,2,95,8|0|2,0:1|0:0|0:0,0:0:0:0:
224,146,171772,1,10,0:0:0:0:
368,220,171972,6,0,P|359:266|354:351,1,95,2|8,0:0|0:1,0:0:0:0:
304,123,172372,2,0,P|308:75|317:29,1,95
510,81,172772,6,0,B|476:73|451:106|451:106|422:148|378:136,1,142.5,8|0,0:1|0:0,0:0:0:0:
389,138,173172,1,0,0:0:0:0:
389,138,173272,1,0,0:0:0:0:
201,0,173572,5,2,3:0:0:0:
201,0,173772,1,0,0:0:0:0:
201,0,173972,1,0,3:0:0:0:
214,132,174372,1,8,3:1:0:0:
228,264,174772,1,8,3:2:0:0:
223,287,174872,1,8,0:3:0:0:
218,310,174972,1,4,0:3:0:0:
213,333,175072,1,4,0:3:0:0:
208,357,175172,1,0,3:0:0:0:
47,63,175572,6,0,P|26:112|13:168,1,99.7499969558717,2|0,3:0|0:0,0:0:0:0:
15,237,175972,6,0,B|49:246|74:213|74:213|100:180|144:188,1,128.249996086121,8|0,3:1|0:0,0:0:0:0:
182,122,176372,6,0,B|219:114|245:149|245:149|276:195|322:182,1,156.750004783631,0|0,3:0|0:0,0:0:0:0:
382,241,176772,5,6,1:2:0:0:
382,241,176972,1,2,0:0:0:0:
443,41,177172,6,0,B|406:33|380:68|380:68|349:114|309:102,1,152,2|8,0:0|0:1,0:0:0:0:
314,103,177972,1,2,0:0:0:0:
289,368,178372,1,2,0:0:0:0:
91,243,178772,6,0,B|125:232|156:278|156:278|182:313|224:304,1,156.750004783631,0|0,1:0|0:0,0:0:0:0:
223,304,179172,5,8,0:1:0:0:
217,226,179372,1,0,0:0:0:0:
90,19,179972,6,0,L|94:61,1,42.7499986953736,6|0,1:2|0:0,0:0:0:0:
166,9,180172,2,0,L|173:70,1,42.7499986953736,2|0,0:0|0:0,0:0:0:0:
61,258,180372,6,0,P|126:186|143:122,1,156.750004783631,2|0,0:0|0:0,0:0:0:0:
142,131,180772,1,8,0:1:0:0:
23,106,180972,1,0,0:0:0:0:
336,361,181372,6,0,P|295:356|267:325,1,85.4999973907472,8|0,0:0|0:0,0:0:0:0:
191,357,181772,1,0,1:0:0:0:
236,236,181972,6,0,P|300:234|343:284,1,128.249996086121,2|0,1:0|0:0,0:0:0:0:
429,331,182372,6,0,B|435:255|435:255|436:208|463:207|461:157,1,156.750004783631,10|0,1:0|0:0,0:0:0:0:
468,103,182772,6,0,B|424:94|393:136|393:136|355:190|300:175,1,185.249991519928,2|0,1:0|0:0,0:0:0:0:
268,110,183172,5,2,1:0:0:0:
268,110,183372,1,2,0:0:0:0:
74,43,183572,6,0,P|153:86|188:172,1,156.750004783631,2|0,0:0|0:0,0:0:0:0:
183,142,183972,1,8,0:1:0:0:
116,355,184372,6,0,P|84:327|80:285,1,85.4999973907472,2|10,0:0|0:0,0:0:0:0:
155,253,184772,1,2,0:0:0:0:
1,221,184972,6,0,L|61:211,1,42.7499986953736,0|0,1:0|0:0,0:0:0:0:
112,175,185172,2,0,B|121:133|86:107|86:107|40:76|53:30,1,156.750004783631,0|0,1:0|0:0,0:0:0:0:
125,0,185572,5,8,0:1:0:0:
268,72,185772,1,0,0:0:0:0:
337,30,185972,1,0,0:0:0:0:
413,253,186372,6,0,L|401:195,1,38,2|0,1:0|0:0,0:0:0:0:
335,271,186572,2,0,L|323:213,1,38,2|0,0:0|0:0,0:0:0:0:
414,18,186772,6,0,P|366:70|358:170,1,156.750004783631,2|0,0:0|0:0,0:0:0:0:
353,153,187172,1,8,0:1:0:0:
255,59,187372,2,0,P|206:54|143:40,1,104.500003189087
82,284,187772,6,0,P|127:278|155:231,1,85.4999973907472,8|0,0:0|0:0,0:0:0:0:
100,185,188172,1,0,1:0:0:0:
269,143,188372,6,0,P|241:213|234:278,1,128.249996086121,2|0,1:0|0:0,0:0:0:0:
234,345,188772,6,0,B|270:354|297:318|297:318|329:271|366:282,1,156.750004783631,10|0,1:0|0:0,0:0:0:0:
440,352,189172,6,0,B|448:249|448:249|452:215|429:210|447:146,1,185.249991519928,2|0,1:0|0:0,0:0:0:0:
375,121,189572,5,2,1:0:0:0:
375,121,189772,1,2,0:0:0:0:
493,28,189972,5,2,0:0:0:0:
345,217,190172,1,0,0:0:0:0:
255,1,190372,1,10,0:1:0:0:
481,197,190772,6,0,P|480:154|466:113,1,85.4999973907472,2|10,0:0|0:0,0:0:0:0:
407,64,191172,1,2,0:0:0:0:
336,222,191372,6,0,P|329:240|326:263,1,42.7499986953736,0|0,1:0|0:0,0:0:0:0:
369,333,191572,2,0,B|335:344|304:298|304:298|278:263|236:272,1,156.750004783631,0|0,1:0|0:0,0:0:0:0:
173,327,191972,1,8,0:1:0:0:
244,44,192372,6,0,P|264:83|274:134,1,85.4999973907472
236,271,192772,5,2,1:0:0:0:
236,271,192972,1,2,0:0:0:0:
87,63,193172,5,2,0:0:0:0:
301,196,193372,1,0,0:0:0:0:
80,311,193572,2,0,B|69:277|115:246|115:246|150:220|141:178,1,156.750004783631,8|0,0:1|0:0,0:0:0:0:
141,178,193972,1,0,0:0:0:0:
429,36,194372,5,0,0:0:0:0:
312,53,194572,2,0,L|362:70,1,42.7499986953736,0|0,1:0|0:0,0:0:0:0:
413,118,194772,6,0,P|357:126|327:195,1,128.249996086121,2|0,1:0|0:0,0:0:0:0:
405,236,195172,6,0,L|239:216,1,156.750004783631,10|0,1:0|0:0,0:0:0:0:
222,297,195572,6,0,B|124:314|124:314|87:322|76:291|15:319,1,185.249991519928,2|0,1:0|0:0,0:0:0:0:
0,241,195972,5,2,1:0:0:0:
0,241,196172,1,2,0:0:0:0:
85,85,196372,6,0,B|119:74|150:120|150:120|176:155|218:146,1,156.750004783631,2|0,0:0|0:0,0:0:0:0:
217,146,196772,1,8,0:1:0:0:
489,26,197172,6,0,P|446:28|413:55,1,85.4999973907472,2|10,0:0|0:0,0:0:0:0:
480,109,197572,1,2,0:0:0:0:
328,8,197772,6,0,L|334:71,1,42.7499986953736,0|0,1:0|0:0,0:0:0:0:
403,138,197972,2,0,L|386:272,1,104.500003189087,0|0,1:0|0:0,0:0:0:0:
251,371,198372,5,8,0:1:0:0:
489,319,198572,1,0,0:0:0:0:
420,376,198772,1,0,0:0:0:0:
188,228,199172,6,0,L|198:292,1,42.7499986953736,2|0,1:0|0:0,0:0:0:0:
264,217,199372,2,0,L|274:281,1,42.7499986953736,2|0,0:0|0:0,0:0:0:0:
59,321,199572,6,0,B|6:311|-44:186|103:112|192:220|144:296|144:296|125:328|146:354,1,398.999987823487,2|0,0:0|0:0,0:0:0:0:
145,352,201172,6,0,P|164:343|196:340,1,38,2|0,0:0|0:0,0:0:0:0:
293,152,201572,6,0,P|311:155|328:164,1,38,2|0,0:0|0:0,0:0:0:0:
403,383,201972,6,0,P|433:331|493:294,1,114,2|0,0:0|0:0,0:0:0:0:
512,222,202372,5,6,0:1:0:0:
512,222,202572,1,2,0:0:0:0:
512,222,202772,1,2,3:0:0:0:
83,337,208772,6,0,P|74:295|49:248,1,76,2|2,1:0|0:0,0:0:0:0:
118,191,209172,2,0,B|152:180|183:226|183:226|209:261|245:254,1,152,2|8,0:0|0:1,0:0:0:0:
371,151,209972,6,0,P|380:109|405:62,1,76,0|8,0:0|0:0,0:0:0:0:
334,28,210372,1,2,0:0:0:0:
471,53,210572,6,0,P|475:74|483:104,1,38,0|0,1:0|0:0,0:0:0:0:
502,172,210772,2,0,B|468:161|437:207|437:207|411:242|375:235,1,152,0|8,1:0|0:1,0:0:0:0:
177,100,211572,5,10,0:0:0:0:
182,86,211672,1,8,0:3:0:0:
187,76,211772,2,0,L|240:65,1,38,8|8,0:3|0:3,0:0:0:0:
201,177,211972,6,0,P|150:181|117:158,1,76,2|2,1:0|0:0,0:0:0:0:
25,81,212372,2,0,L|47:239,2,152,2|8|0,3:0|3:1|3:0,0:0:0:0:
88,21,213372,5,8,0:0:0:0:
88,21,213572,1,2,0:0:0:0:
245,384,213972,6,0,L|267:226,2,152,2|2|2,0:0|0:0|0:0,0:0:0:0:
