osu file format v14

[General]
AudioFilename: audio.mp3
AudioLeadIn: 0
PreviewTime: 49869
Countdown: 0
SampleSet: Soft
StackLeniency: 0.4
Mode: 0
LetterboxInBreaks: 0
WidescreenStoryboard: 1

[Editor]
Bookmarks: 6547,19178,31810,44442,57073,69705,82336,94968,107599,120231,132863,145494
DistanceSpacing: 1.2
BeatDivisor: 4
GridSize: 32
TimelineZoom: 0.6999999

[Metadata]
Title:HOLIDAY
TitleUnicode:HOLIDAY
Artist:Lil Nas X
ArtistUnicode:Lil Nas X
Creator:Sylas
Version:INSANE
Source:
Tags:english hip hop hip-hop trap pop rap tay keith christmas xmas santa thekoala
BeatmapID:2725323
BeatmapSetID:1313511

[Difficulty]
HPDrainRate:4.5
CircleSize:3.6
OverallDifficulty:7.5
ApproachRate:8.8
SliderMultiplier:2
SliderTickRate:1

[Events]
//Background and Video events
0,0,"517303.jpg",0,0
//Break Periods
2,104641,106180
//Storyboard Layer 0 (Background)
//Storyboard Layer 1 (Fail)
//Storyboard Layer 2 (Pass)
//Storyboard Layer 3 (Foreground)
//Storyboard Layer 4 (Overlay)
//Storyboard Sound Samples

[TimingPoints]
231,394.736842105263,4,2,1,55,1,0
231,-133.333333333333,4,2,1,55,0,0
6546,-90.9090909090909,4,2,1,55,0,0
6842,-90.9090909090909,4,2,1,5,0,0
6941,-90.9090909090909,4,2,1,55,0,0
9605,-90.9090909090909,4,2,1,5,0,0
9704,-90.9090909090909,4,2,1,55,0,0
10000,-90.9090909090909,4,2,1,5,0,0
10099,-90.9090909090909,4,2,1,55,0,0
10790,-90.9090909090909,4,2,1,5,0,0
10888,-90.9090909090909,4,2,1,55,0,0
12862,-83.3333333333333,4,2,1,55,0,0
13158,-83.3333333333333,4,2,1,5,0,0
13257,-83.3333333333333,4,2,1,55,0,0
13652,-90.9090909090909,4,2,1,55,0,0
14046,-83.3333333333333,4,2,1,55,0,0
14342,-83.3333333333333,4,2,1,5,0,0
14441,-83.3333333333333,4,2,1,55,0,0
15921,-83.3333333333333,4,2,1,5,0,0
16020,-83.3333333333333,4,2,1,55,0,0
17204,-83.3333333333333,4,2,1,55,0,0
19078,-83.3333333333333,4,2,1,5,0,0
19178,-76.9230769230769,4,2,1,65,0,1
19474,-76.9230769230769,4,2,1,5,0,1
19573,-76.9230769230769,4,2,1,65,0,1
20263,-76.9230769230769,4,2,1,5,0,1
20362,-76.9230769230769,4,2,1,65,0,1
21052,-76.9230769230769,4,2,1,5,0,1
21152,-76.9230769230769,4,2,1,65,0,1
21448,-76.9230769230769,4,2,1,5,0,1
21546,-76.9230769230769,4,2,1,65,0,1
22336,-90.9090909090909,4,2,1,65,0,1
25197,-90.9090909090909,4,2,1,5,0,1
25296,-90.9090909090909,4,2,1,65,0,1
25394,-90.9090909090909,4,2,1,5,0,1
25494,-76.9230769230769,4,2,1,65,0,1
25790,-76.9230769230769,4,2,1,5,0,1
25888,-76.9230769230769,4,2,1,65,0,1
26579,-76.9230769230769,4,2,1,5,0,1
26678,-76.9230769230769,4,2,1,65,0,1
27368,-76.9230769230769,4,2,1,5,0,1
27467,-76.9230769230769,4,2,1,65,0,1
27763,-76.9230769230769,4,2,1,5,0,1
27862,-76.9230769230769,4,2,1,65,0,1
28652,-90.9090909090909,4,2,1,65,0,1
29737,-90.9090909090909,4,2,1,5,0,1
29836,-90.9090909090909,4,2,1,65,0,1
31513,-90.9090909090909,4,2,1,5,0,1
31612,-90.9090909090909,4,2,1,65,0,1
31710,-90.9090909090909,4,2,1,5,0,1
31809,-90.9090909090909,4,2,1,55,0,0
32105,-90.9090909090909,4,2,1,5,0,0
32204,-90.9090909090909,4,2,1,55,0,0
33289,-90.9090909090909,4,2,1,5,0,0
33388,-90.9090909090909,4,2,1,55,0,0
33783,-90.9090909090909,4,2,1,55,0,0
34868,-90.9090909090909,4,2,1,5,0,0
34967,-90.9090909090909,4,2,1,55,0,0
36447,-90.9090909090909,4,2,1,5,0,0
36546,-83.3333333333333,4,2,1,55,0,0
36941,-83.3333333333333,4,2,1,55,0,0
37336,-90.9090909090909,4,2,1,55,0,0
38026,-90.9090909090909,4,2,1,5,0,0
38125,-90.9090909090909,4,2,1,55,0,0
39211,-90.9090909090909,4,2,1,5,0,0
39309,-90.9090909090909,4,2,1,55,0,0
40099,-66.6666666666667,4,2,1,55,0,0
40395,-66.6666666666667,4,2,1,5,0,0
40494,-66.6666666666667,4,2,1,55,0,0
40789,-66.6666666666667,4,2,1,5,0,0
40888,-90.9090909090909,4,2,1,55,0,0
41283,-90.9090909090909,4,2,1,55,0,0
41974,-90.9090909090909,4,2,1,5,0,0
42073,-90.9090909090909,4,2,1,55,0,0
42763,-90.9090909090909,4,2,1,5,0,0
42862,-90.9090909090909,4,2,1,55,0,0
43257,-90.9090909090909,4,2,1,55,0,0
44342,-90.9090909090909,4,2,1,5,0,0
44441,-125,4,2,1,55,0,0
46020,-83.3333333333333,4,2,1,55,0,0
46316,-83.3333333333333,4,2,1,5,0,0
46415,-83.3333333333333,4,2,1,55,0,0
46711,-83.3333333333333,4,2,1,5,0,0
46809,-125,4,2,1,55,0,0
49178,-83.3333333333333,4,2,1,55,0,0
49474,-83.3333333333333,4,2,1,5,0,0
49573,-83.3333333333333,4,2,1,55,0,0
49869,-83.3333333333333,4,2,1,5,0,0
49967,-125,4,2,1,55,0,0
52336,-83.3333333333333,4,2,1,55,0,0
52632,-83.3333333333333,4,2,1,5,0,0
52730,-83.3333333333333,4,2,1,55,0,0
53026,-83.3333333333333,4,2,1,5,0,0
53125,-83.3333333333333,4,2,1,55,0,0
53520,-71.4285714285714,4,2,1,55,0,0
53816,-71.4285714285714,4,2,1,5,0,0
53915,-71.4285714285714,4,2,1,55,0,0
54211,-71.4285714285714,4,2,1,5,0,0
54507,-133.333333333333,4,2,2,55,0,1
56283,-66.6666666666667,4,2,1,65,0,0
56579,-66.6666666666667,4,2,1,5,0,0
56678,-66.6666666666667,4,2,1,65,0,0
56974,-66.6666666666667,4,2,1,5,0,0
57073,-83.3333333333333,4,2,1,65,0,0
57270,-83.3333333333333,4,2,1,60,0,0
57369,-83.3333333333333,4,2,1,5,0,0
57467,-83.3333333333333,4,2,1,60,0,0
58158,-83.3333333333333,4,2,1,5,0,0
58257,-83.3333333333333,4,2,1,60,0,0
58552,-83.3333333333333,4,2,1,5,0,0
58652,-83.3333333333333,4,2,1,60,0,0
59342,-83.3333333333333,4,2,1,5,0,0
59441,-83.3333333333333,4,2,1,60,0,0
60526,-83.3333333333333,4,2,1,5,0,0
60625,-83.3333333333333,4,2,1,60,0,0
61316,-83.3333333333333,4,2,1,5,0,0
61415,-83.3333333333333,4,2,1,60,0,0
61710,-83.3333333333333,4,2,1,5,0,0
61809,-83.3333333333333,4,2,1,60,0,0
63289,-83.3333333333333,4,2,1,5,0,0
63388,-83.3333333333333,4,2,1,60,0,0
63684,-83.3333333333333,4,2,1,5,0,0
63783,-83.3333333333333,4,2,1,60,0,0
64868,-83.3333333333333,4,2,1,5,0,0
64967,-83.3333333333333,4,2,1,60,0,0
65658,-83.3333333333333,4,2,1,5,0,0
65757,-83.3333333333333,4,2,1,60,0,0
66447,-83.3333333333333,4,2,1,5,0,0
66546,-83.3333333333333,4,2,1,60,0,0
68026,-83.3333333333333,4,2,1,5,0,0
68125,-83.3333333333333,4,2,1,60,0,0
69605,-83.3333333333333,4,2,1,5,0,0
69704,-76.9230769230769,4,2,1,65,0,1
70000,-76.9230769230769,4,2,1,5,0,1
70099,-76.9230769230769,4,2,1,65,0,1
70790,-76.9230769230769,4,2,1,5,0,1
70888,-76.9230769230769,4,2,1,65,0,1
71578,-76.9230769230769,4,2,1,5,0,1
71678,-76.9230769230769,4,2,1,65,0,1
71974,-76.9230769230769,4,2,1,5,0,1
72073,-76.9230769230769,4,2,1,65,0,1
72862,-90.9090909090909,4,2,1,65,0,1
75723,-90.9090909090909,4,2,1,5,0,1
75823,-90.9090909090909,4,2,1,65,0,1
75921,-90.9090909090909,4,2,1,5,0,1
76020,-76.9230769230769,4,2,1,65,0,1
76316,-76.9230769230769,4,2,1,5,0,1
76415,-76.9230769230769,4,2,1,65,0,1
77105,-76.9230769230769,4,2,1,5,0,1
77204,-76.9230769230769,4,2,1,65,0,1
77894,-76.9230769230769,4,2,1,5,0,1
77994,-76.9230769230769,4,2,1,65,0,1
78290,-76.9230769230769,4,2,1,5,0,1
78388,-76.9230769230769,4,2,1,65,0,1
79178,-83.3333333333333,4,2,1,65,0,1
80263,-83.3333333333333,4,2,1,5,0,1
80362,-83.3333333333333,4,2,1,65,0,1
81644,-83.3333333333333,4,2,1,5,0,1
81744,-83.3333333333333,4,2,1,65,0,1
81842,-83.3333333333333,4,2,1,5,0,1
81941,-83.3333333333333,4,2,1,65,0,1
82236,-83.3333333333333,4,2,1,5,0,1
82336,-125,4,2,1,55,0,0
83815,-125,4,2,1,5,0,0
83915,-125,4,2,1,55,0,0
84605,-125,4,2,1,5,0,0
84704,-125,4,2,1,55,0,0
85494,-90.9090909090909,4,2,1,55,0,0
86973,-90.9090909090909,4,2,1,5,0,0
87073,-90.9090909090909,4,2,1,55,0,0
87763,-90.9090909090909,4,2,1,5,0,0
87862,-90.9090909090909,4,2,1,55,0,0
90921,-90.9090909090909,4,2,1,5,0,0
91020,-90.9090909090909,4,2,1,55,0,0
92895,-90.9090909090909,4,2,1,5,0,0
92994,-90.9090909090909,4,2,1,55,0,0
94178,-66.6666666666667,4,2,1,65,0,0
94474,-66.6666666666667,4,2,1,5,0,0
94573,-66.6666666666667,4,2,1,65,0,0
94869,-66.6666666666667,4,2,1,5,0,0
94967,-90.9090909090909,4,2,1,55,0,0
96842,-90.9090909090909,4,2,1,5,0,0
96941,-90.9090909090909,4,2,1,55,0,0
98421,-90.9090909090909,4,2,1,5,0,0
98520,-90.9090909090909,4,2,1,55,0,0
99605,-90.9090909090909,4,2,1,5,0,0
99704,-90.9090909090909,4,2,1,55,0,0
100000,-90.9090909090909,4,2,1,5,0,0
100099,-90.9090909090909,4,2,1,55,0,0
100986,-90.9090909090909,4,2,1,5,0,0
101086,-90.9090909090909,4,2,1,55,0,0
101184,-90.9090909090909,4,2,1,5,0,0
101283,-90.9090909090909,4,2,1,55,0,0
101579,-90.9090909090909,4,2,1,5,0,0
101678,-90.9090909090909,4,2,1,55,0,0
102467,-90.9090909090909,4,2,1,55,0,0
104342,-90.9090909090909,4,2,1,5,0,0
104441,-90.9090909090909,4,2,1,55,0,0
106711,-133.333333333333,4,2,1,55,0,0
107599,-125,4,2,1,55,0,0
109178,-83.3333333333333,4,2,1,55,0,0
109474,-83.3333333333333,4,2,1,5,0,0
109573,-83.3333333333333,4,2,1,55,0,0
109869,-83.3333333333333,4,2,1,5,0,0
109967,-125,4,2,1,55,0,0
112336,-83.3333333333333,4,2,1,55,0,0
112632,-83.3333333333333,4,2,1,5,0,0
112730,-83.3333333333333,4,2,1,55,0,0
113026,-83.3333333333333,4,2,1,5,0,0
113125,-125,4,2,1,55,0,0
115494,-83.3333333333333,4,2,1,55,0,0
115790,-83.3333333333333,4,2,1,5,0,0
115888,-83.3333333333333,4,2,1,55,0,0
116184,-83.3333333333333,4,2,1,5,0,0
116283,-125,4,2,1,55,0,0
116678,-71.4285714285714,4,2,1,55,0,0
116974,-71.4285714285714,4,2,1,5,0,0
117073,-71.4285714285714,4,2,1,55,0,0
117369,-71.4285714285714,4,2,1,5,0,0
117665,-71.4285714285714,4,2,1,55,0,0
119441,-66.6666666666667,4,2,1,65,0,0
119737,-66.6666666666667,4,2,1,5,0,0
119836,-66.6666666666667,4,2,1,65,0,0
120132,-66.6666666666667,4,2,1,5,0,0
120230,-83.3333333333333,4,2,1,65,0,0
120428,-83.3333333333333,4,2,1,60,0,0
120526,-83.3333333333333,4,2,1,5,0,0
120625,-83.3333333333333,4,2,1,60,0,0
121316,-83.3333333333333,4,2,1,5,0,0
121415,-83.3333333333333,4,2,1,60,0,0
121710,-83.3333333333333,4,2,1,5,0,0
121809,-83.3333333333333,4,2,1,60,0,0
122500,-83.3333333333333,4,2,1,5,0,0
122599,-83.3333333333333,4,2,1,60,0,0
123684,-83.3333333333333,4,2,1,5,0,0
123783,-83.3333333333333,4,2,1,60,0,0
124474,-83.3333333333333,4,2,1,5,0,0
124573,-83.3333333333333,4,2,1,60,0,0
124868,-83.3333333333333,4,2,1,5,0,0
124967,-83.3333333333333,4,2,1,60,0,0
126447,-83.3333333333333,4,2,1,5,0,0
126546,-83.3333333333333,4,2,1,60,0,0
126842,-83.3333333333333,4,2,1,5,0,0
126941,-83.3333333333333,4,2,1,60,0,0
128026,-83.3333333333333,4,2,1,5,0,0
128125,-83.3333333333333,4,2,1,60,0,0
128816,-83.3333333333333,4,2,1,5,0,0
128915,-83.3333333333333,4,2,1,60,0,0
129605,-83.3333333333333,4,2,1,5,0,0
129704,-83.3333333333333,4,2,1,60,0,0
131184,-83.3333333333333,4,2,1,5,0,0
131283,-83.3333333333333,4,2,1,60,0,0
132565,-83.3333333333333,4,2,1,5,0,0
132665,-83.3333333333333,4,2,1,60,0,0
132862,-83.3333333333333,4,2,1,60,0,0
136020,-83.3333333333333,4,2,1,65,0,1
137500,-83.3333333333333,4,2,1,5,0,1
137599,-83.3333333333333,4,2,1,65,0,1
138881,-83.3333333333333,4,2,1,5,0,1
138980,-83.3333333333333,4,2,1,65,0,1
139078,-83.3333333333333,4,2,1,5,0,1
139178,-66.6666666666667,4,2,1,65,0,1
139474,-66.6666666666667,4,2,1,5,0,1
139573,-66.6666666666667,4,2,1,65,0,1
140263,-66.6666666666667,4,2,1,5,0,1
140362,-66.6666666666667,4,2,1,65,0,1
141052,-66.6666666666667,4,2,1,5,0,1
141152,-66.6666666666667,4,2,1,65,0,1
141448,-66.6666666666667,4,2,1,5,0,1
141546,-66.6666666666667,4,2,1,65,0,1
142336,-83.3333333333333,4,2,1,65,0,1
143421,-83.3333333333333,4,2,1,5,0,1
143520,-83.3333333333333,4,2,1,65,0,1
144802,-83.3333333333333,4,2,1,5,0,1
144902,-83.3333333333333,4,2,1,65,0,1
145000,-83.3333333333333,4,2,1,5,0,1
145099,-83.3333333333333,4,2,1,65,0,1
145394,-83.3333333333333,4,2,1,5,0,1
145494,-100,4,2,1,60,0,0
146579,-100,4,2,1,5,0,0
146678,-100,4,2,1,60,0,0
148948,-100,4,2,1,5,0,0
149046,-100,4,2,1,60,0,0
149342,-100,4,2,1,5,0,0
149441,-100,4,2,1,60,0,0
150231,-200,4,2,1,30,0,0
151909,-200,4,2,1,5,0,0

[Colours]
Combo1 : 140,193,208
Combo2 : 236,115,126
Combo3 : 146,194,137

[HitObjects]
108,193,231,6,0,B|90:151|120:101|153:94|153:94|173:178|238:221|288:220,1,300.000011444092,4|8,3:2|0:0,0:0:0:0:
268,219,1612,1,0,3:2:0:0:
365,191,1809,6,0,P|408:153|279:149,1,300.000011444092,0|8,3:2|0:0,0:0:0:0:
275,117,2994,2,0,L|286:207,1,75.0000028610231,0|0,3:2|0:0,0:0:0:0:
306,309,3388,6,0,B|354:346|403:289|403:289|451:230|523:288,1,225.000008583069,0|8,3:2|0:3,0:0:0:0:
503,274,4178,1,8,0:0:0:0:
231,353,4770,5,0,3:2:0:0:
231,353,4967,2,0,P|179:359|51:332,1,150.000005722046,0|0,3:2|0:0,0:0:0:0:
142,109,5757,5,8,3:2:0:0:
161,218,5954,1,0,3:2:0:0:
161,218,6349,5,0,3:2:0:0:
142,109,6546,2,0,B|131:65|182:55|182:55|295:41,1,165.000005035401,4|0,3:2|2:0,0:0:0:0:
268,44,6941,1,2,0:0:0:0:
469,24,7336,6,0,B|501:74|447:118|447:118|396:161|440:237,1,220.000006713867,8|2,0:0|0:0,0:0:0:0:
469,290,7928,1,2,3:2:0:0:
344,230,8125,6,0,P|262:230|219:246,1,110.000003356934,0|2,3:2|0:0,0:0:0:0:
174,329,8520,2,0,P|92:329|49:313,1,110.000003356934,2|0,0:0|0:0,0:0:0:0:
7,197,8915,5,8,0:0:0:0:
7,197,9309,1,2,3:2:0:0:
106,115,9507,2,0,P|96:147|93:181,1,55.0000016784668,2|0,0:0|2:0,0:0:0:0:
167,236,9704,6,0,P|237:247|293:141,1,165.000005035401,2|0,3:2|2:0,0:0:0:0:
295,182,10099,1,2,0:0:0:0:
412,34,10494,6,0,P|430:116|461:210,1,165.000005035401,10|0,0:0|2:0,0:0:0:0:
454,193,10888,1,2,0:0:0:0:
410,263,11086,1,0,3:2:0:0:
350,133,11283,5,2,3:2:0:0:
496,267,11579,5,2,0:0:0:0:
309,322,11875,5,2,0:0:0:0:
309,322,12073,2,0,L|320:212,1,110.000003356934,10|0,3:2|3:2,0:0:0:0:
210,91,12467,1,2,3:0:0:0:
220,217,12665,1,0,3:2:0:0:
44,273,12862,6,0,B|15:256|18:193|99:186|144:255,1,179.999994506836,0|0,3:2|2:0,0:0:0:0:
142,252,13257,1,2,0:0:0:0:
129,86,13652,6,0,P|198:122|351:126,1,220.000006713867,8|2,0:0|0:0,0:0:0:0:
512,74,14244,2,0,P|502:108|501:139,1,59.9999981689454,2|0,3:2|2:0,0:0:0:0:
505,234,14441,5,2,3:2:0:0:
428,167,14638,1,2,0:0:0:0:
412,287,14836,2,0,P|349:307|284:301,1,119.999996337891,2|0,0:0|0:0,0:0:0:0:
148,230,15230,5,8,0:0:0:0:
148,230,15625,1,2,3:2:0:0:
214,276,15823,2,0,P|230:224|221:193,1,59.9999981689454,2|0,0:0|2:0,0:0:0:0:
89,163,16020,5,2,3:2:0:0:
130,318,16316,5,2,0:0:0:0:
89,163,16612,5,2,0:0:0:0:
35,231,16809,6,0,L|16:400,1,119.999996337891,10|0,0:0|2:0,0:0:0:0:
140,94,17204,1,2,0:0:0:0:
62,79,17402,1,2,3:2:0:0:
211,200,17599,5,2,3:2:0:0:
247,18,17895,5,2,0:0:0:0:
211,200,18191,5,2,0:0:0:0:
285,149,18388,6,0,P|348:126|419:139,1,119.999996337891,10|0,3:2|3:2,0:0:0:0:
499,249,18783,1,2,3:2:0:0:
504,97,18980,2,0,P|492:128|492:168,1,59.9999981689454,8|0,3:2|2:0,0:0:0:0:
452,335,19178,6,0,B|396:361|366:333|366:333|312:281|255:338,1,194.999991073609,14|0,3:3|2:0,0:0:0:0:
271,333,19573,2,0,P|329:305|342:216,1,129.999994049073,2|8,0:0|0:3,0:0:0:0:
103,172,19967,6,0,B|61:187|80:256|142:241|142:241|240:219,1,194.999991073609,10|0,0:0|2:0,0:0:0:0:
210,225,20362,1,10,0:3:0:0:
344,143,20559,1,8,3:3:0:0:
173,73,20757,5,10,3:0:0:0:
227,131,20954,2,0,P|246:105|254:73,1,64.9999970245363,8|0,0:3|2:0,0:0:0:0:
79,61,21152,6,0,P|113:165|121:272,1,194.999991073609,10|0,0:3|2:0,0:0:0:0:
122,263,21546,2,0,P|58:259|3:293,1,129.999994049073,10|8,0:0|0:3,0:0:0:0:
83,369,21941,1,10,3:3:0:0:
83,369,22138,1,2,0:0:0:0:
219,236,22336,6,0,L|240:373,1,110.000003356934,10|0,3:3|0:0,0:0:0:0:
251,362,22632,1,0,0:0:0:0:
251,362,22730,2,0,L|359:345,1,110.000003356934,2|8,0:0|0:3,0:0:0:0:
496,320,23125,5,10,0:0:0:0:
496,320,23520,1,10,0:3:0:0:
385,228,23717,1,10,3:3:0:0:
485,152,23915,6,0,L|506:15,1,110.000003356934,10|10,3:3|0:3,0:0:0:0:
501,43,24211,1,0,0:0:0:0:
501,43,24309,1,8,0:3:0:0:
383,116,24507,1,10,0:3:0:0:
282,32,24704,5,10,0:0:0:0:
282,32,24902,1,8,3:3:0:0:
311,164,25099,2,0,P|316:183|298:231,1,55.0000016784668,10|0,3:3|2:0,0:0:0:0:
230,211,25296,2,0,P|224:184|232:157,1,55.0000016784668,8|0,3:3|2:0,0:0:0:0:
197,22,25494,6,0,B|149:12|103:27|64:57|64:57|106:54|140:83,1,194.999991073609,10|0,3:3|2:0,0:0:0:0:
122,74,25888,2,0,P|136:161|114:233,1,129.999994049073,2|8,0:0|0:3,0:0:0:0:
22,349,26283,6,0,B|-30:371|-44:308|40:265|117:328,1,194.999991073609,10|0,0:0|2:0,0:0:0:0:
110,322,26678,1,10,0:3:0:0:
246,384,26875,1,8,3:3:0:0:
296,210,27073,5,10,3:0:0:0:
216,287,27270,2,0,P|254:297|296:293,1,64.9999970245363,8|0,0:3|2:0,0:0:0:0:
370,153,27467,6,0,P|378:86|296:139,1,194.999991073609,10|0,0:3|2:0,0:0:0:0:
290,125,27862,2,0,B|252:136|228:112|228:112|204:89|156:102,1,129.999994049073,10|8,0:0|0:3,0:0:0:0:
66,17,28257,1,10,3:3:0:0:
13,133,28454,1,2,0:0:0:0:
153,207,28652,5,10,3:3:0:0:
144,127,28849,1,2,0:0:0:0:
144,127,28948,1,0,0:0:0:0:
144,127,29046,1,2,0:0:0:0:
56,348,29441,6,0,P|140:340|247:370,1,165.000005035401,10|0,0:0|2:0,0:0:0:0:
218,357,29836,1,10,0:3:0:0:
358,374,30033,1,10,3:3:0:0:
282,265,30230,6,0,P|278:200|257:124,1,110.000003356934,10|10,3:3|0:3,0:0:0:0:
259,137,30527,1,0,0:0:0:0:
259,137,30625,2,0,P|324:141|400:162,1,110.000003356934,8|10,0:3|0:3,0:0:0:0:
507,104,31020,5,10,0:0:0:0:
507,104,31217,1,8,3:3:0:0:
413,17,31415,2,0,P|381:18|343:26,1,55.0000016784668,10|0,3:3|2:0,0:0:0:0:
284,47,31612,2,0,P|252:46|214:38,1,55.0000016784668,8|0,3:3|2:0,0:0:0:0:
159,14,31809,6,0,B|134:53|161:85|161:85|195:126|160:195,1,165.000005035401,4|0,3:0|2:0,0:0:0:0:
171,168,32204,1,2,0:0:0:0:
76,322,32599,6,0,P|177:271|296:279,1,220.000006713867,8|2,0:0|0:0,0:0:0:0:
357,363,33191,2,0,P|366:322|361:283,1,55.0000016784668,2|0,3:0|2:0,0:0:0:0:
350,223,33388,6,0,P|329:145|331:94,1,110.000003356934,2|0,3:0|2:0,0:0:0:0:
460,57,33783,2,0,P|481:135|479:186,1,110.000003356934,2|0,0:0|0:0,0:0:0:0:
452,279,34178,1,8,0:0:0:0:
452,279,34573,5,2,3:0:0:0:
350,223,34770,2,0,P|343:294|337:321,1,55.0000016784668,2|0,0:0|2:0,0:0:0:0:
266,329,34967,5,2,3:0:0:0:
266,329,35165,1,2,0:0:0:0:
221,231,35362,2,0,B|190:228|169:248|169:248|151:269|118:263,1,110.000003356934,2|2,0:0|0:0,0:0:0:0:
15,213,35757,5,10,0:0:0:0:
15,213,36152,1,2,0:0:0:0:
34,77,36349,2,0,P|48:123|51:163,1,55.0000016784668,2|0,3:0|2:0,0:0:0:0:
128,176,36546,6,0,P|157:163|259:150,1,119.999996337891,2|0,3:0|2:0,0:0:0:0:
291,28,36941,2,0,P|320:41|422:54,1,119.999996337891,2|0,0:0|0:0,0:0:0:0:
491,115,37336,5,8,3:2:0:0:
491,115,37533,1,0,3:0:0:0:
400,152,37730,1,2,3:0:0:0:
479,258,37928,2,0,P|481:221|465:182,1,55.0000016784668,2|0,3:0|2:0,0:0:0:0:
319,145,38125,6,0,L|170:161,1,110.000003356934,2|0,3:0|0:0,0:0:0:0:
343,238,38520,1,2,0:0:0:0:
343,238,38717,1,0,0:0:0:0:
191,298,38915,6,0,B|207:254|160:224|160:224|109:189|142:122,1,165.000005035401,10|0,0:0|2:0,0:0:0:0:
129,158,39309,1,2,0:0:0:0:
195,78,39507,1,2,3:0:0:0:
114,12,39704,2,0,P|68:29|114:95,1,110.000003356934,2|0,3:0|0:0,0:0:0:0:
226,158,40099,6,0,B|261:166|286:146|286:146|299:179|323:178|323:178|331:167|371:165|371:165|385:186|436:173,1,225.000008583069,2|0,0:0|2:0,0:0:0:0:
424,175,40494,5,10,0:0:0:0:
375,299,40691,2,0,B|352:323|329:280|371:253,1,75.0000028610231,2|0,0:0|2:0,0:0:0:0:
455,282,40888,6,0,P|437:359|410:381,1,110.000003356934,2|0,3:0|2:0,0:0:0:0:
287,373,41283,1,2,3:0:0:0:
287,373,41480,1,2,0:0:0:0:
214,230,41678,6,0,B|198:187|238:158|238:158|275:133|254:70,1,165.000005035401,2|0,0:0|2:0,0:0:0:0:
258,84,42073,1,10,0:0:0:0:
60,12,42467,5,2,0:0:0:0:
112,96,42665,2,0,L|97:177,1,55.0000016784668,2|0,3:0|2:0,0:0:0:0:
34,194,42862,6,0,P|93:232|149:211,1,110.000003356934,2|0,3:0|2:0,0:0:0:0:
220,119,43257,2,0,P|279:81|335:102,1,110.000003356934,2|0,0:0|0:0,0:0:0:0:
397,198,43652,5,10,3:2:0:0:
397,198,43849,1,2,3:0:0:0:
287,220,44046,1,2,3:0:0:0:
377,280,44244,2,0,P|424:280|450:264,1,55.0000016784668,10|0,3:2|2:0,0:0:0:0:
487,209,44441,6,0,L|500:40,1,160,12|2,3:3|0:0,0:0:0:0:
398,3,45033,1,8,0:3:0:0:
398,3,45230,2,0,L|405:101,1,80,10|0,0:0|0:0,0:0:0:0:
329,142,45625,2,0,L|323:221,1,80,10|2,0:3|3:0,0:0:0:0:
226,39,46020,6,0,B|168:26|146:72|146:72|121:126|36:96,1,179.999994506836,2|0,3:0|2:0,0:0:0:0:
61,115,46415,2,0,P|145:129|270:190,1,179.999994506836,10|0,0:3|2:0,0:0:0:0:
232,165,46809,5,10,0:0:0:0:
259,256,47007,2,0,P|216:259|166:217,2,80,10|2|0,0:3|3:0|0:0,0:0:0:0:
423,206,47599,5,10,3:3:0:0:
423,206,47796,1,2,0:0:0:0:
346,165,47994,2,0,L|333:267,1,80,2|8,0:0|0:3,0:0:0:0:
512,295,48388,5,10,0:0:0:0:
498,180,48586,1,0,0:0:0:0:
433,285,48783,2,0,L|423:206,1,80,10|2,0:3|3:0,0:0:0:0:
370,32,49178,6,0,P|437:17|423:103,1,179.999994506836,2|0,3:0|2:0,0:0:0:0:
418,110,49573,2,0,B|367:132|330:105|330:105|287:74|242:97,1,179.999994506836,10|0,0:3|2:0,0:0:0:0:
247,94,49967,5,10,0:0:0:0:
152,110,50165,2,0,P|166:63|170:-1,2,80,10|2|2,0:3|3:0|3:0,0:0:0:0:
66,266,50757,5,10,3:3:0:0:
66,266,50954,1,0,0:0:0:0:
14,176,51152,2,0,L|128:191,1,80,2|8,0:0|0:3,0:0:0:0:
226,300,51546,5,10,0:0:0:0:
192,185,51744,1,0,0:0:0:0:
141,292,51941,2,0,L|154:394,1,80,10|2,0:3|3:0,0:0:0:0:
400,212,52336,6,0,B|382:185|329:182|325:241|325:241|319:341,1,179.999994506836,2|0,3:0|2:0,0:0:0:0:
320,322,52730,2,0,P|388:356|446:278,1,179.999994506836,10|0,0:3|2:0,0:0:0:0:
446,286,53125,1,8,0:0:0:0:
491,211,53323,1,8,0:3:0:0:
376,99,53520,6,0,B|320:95|308:159|308:159|295:223|219:219,1,209.999993591309,2|0,0:0|2:0,0:0:0:0:
210,144,53915,2,0,B|264:108|307:156|307:156|350:206|396:175,1,209.999993591309,10|0,0:3|2:0,0:0:0:0:
208,11,54507,5,2,0:0:0:0:
137,38,54704,5,2,0:0:0:0:
111,116,54902,5,2,0:0:0:0:
164,188,55099,5,2,0:0:0:0:
225,278,55296,5,2,0:0:0:0:
165,374,55494,5,2,0:0:0:0:
165,374,55888,1,2,0:0:0:0:
48,126,56283,6,0,B|148:104|148:104|171:110|171:110|279:82,1,225.000008583069,2|0,3:0|2:0,0:0:0:0:
171,28,56678,2,0,B|271:50|271:50|294:44|294:44|402:72,1,225.000008583069,2|0,3:0|2:0,0:0:0:0:
462,38,57073,6,0,B|487:92|451:125|451:125|411:159|442:221,1,179.999994506836,12|0,3:3|2:0,0:0:0:0:
434,202,57467,1,2,0:0:0:0:
369,372,57862,6,0,P|324:332|180:325,1,179.999994506836,8|0,0:0|2:0,0:0:0:0:
208,314,58257,1,10,0:3:0:0:
100,372,58454,2,0,P|122:328|118:286,1,59.9999981689454,10|0,0:3|2:0,0:0:0:0:
14,195,58652,6,0,P|10:258|36:329,1,119.999996337891,2|10,3:0|0:3,0:0:0:0:
263,217,59046,2,0,B|272:200|279:179|279:179|251:165|189:177|158:226,1,179.999994506836,10|0,0:3|2:0,0:0:0:0:
158,225,59441,5,8,0:0:0:0:
76,115,59638,1,8,0:3:0:0:
201,71,59836,2,0,P|282:71|352:113,1,119.999996337891,10|2,3:3|0:0,0:0:0:0:
479,11,60230,6,0,B|483:65|442:86|442:86|389:114|412:178,1,179.999994506836,10|0,3:3|2:0,0:0:0:0:
407,161,60625,1,2,0:0:0:0:
512,350,61020,6,0,B|458:354|437:313|437:313|409:260|345:283,1,179.999994506836,10|0,0:0|2:0,0:0:0:0:
361,278,61415,1,10,0:3:0:0:
312,342,61612,2,0,P|288:310|287:273,1,59.9999981689454,10|0,3:3|2:0,0:0:0:0:
316,198,61809,5,2,3:0:0:0:
164,373,62105,5,2,0:0:0:0:
67,155,62402,5,2,0:0:0:0:
144,117,62599,6,0,L|295:108,1,119.999996337891,10|8,0:0|3:3,0:0:0:0:
429,142,62994,1,2,3:0:0:0:
333,37,63191,2,0,P|346:67|344:114,1,59.9999981689454,8|0,3:3|2:0,0:0:0:0:
323,236,63388,6,0,P|341:297|415:240,1,179.999994506836,8|0,3:3|2:0,0:0:0:0:
417,251,63783,1,2,0:0:0:0:
429,142,63980,1,0,0:0:0:0:
484,42,64178,1,8,0:0:0:0:
484,42,64573,5,10,0:3:0:0:
494,190,64770,2,0,P|514:142|498:115,1,59.9999981689454,10|0,0:3|2:0,0:0:0:0:
379,25,64967,1,2,3:0:0:0:
379,25,65165,1,10,0:3:0:0:
306,198,65362,6,0,B|345:178|334:123|294:116|294:116|195:101,1,179.999994506836,10|0,0:3|2:0,0:0:0:0:
210,103,65757,2,0,L|77:82,1,119.999996337891,8|8,0:0|0:3,0:0:0:0:
20,9,66152,1,10,3:3:0:0:
10,114,66349,2,0,P|20:145|59:168,1,59.9999981689454,2|0,0:0|2:0,0:0:0:0:
178,184,66546,5,10,3:3:0:0:
26,254,66842,5,2,0:0:0:0:
178,184,67138,5,10,0:3:0:0:
123,281,67336,6,0,L|275:267,1,119.999996337891,10|0,0:0|0:0,0:0:0:0:
373,217,67730,1,10,0:3:0:0:
333,369,67928,2,0,L|323:296,1,59.9999981689454,10|0,3:3|2:0,0:0:0:0:
312,146,68125,5,2,3:0:0:0:
422,334,68421,5,2,0:0:0:0:
312,146,68717,5,2,0:0:0:0:
481,252,68915,6,0,P|488:175|515:101,1,119.999996337891,10|8,0:0|3:3,0:0:0:0:
467,24,69309,1,10,3:3:0:0:
404,146,69507,2,0,P|399:94|391:73,1,59.9999981689454,8|0,3:2|2:0,0:0:0:0:
220,18,69704,6,0,B|171:28|165:80|165:80|165:157|64:163,1,194.999991073609,14|0,3:3|2:0,0:0:0:0:
91,159,70099,2,0,P|43:142|75:84,1,129.999994049073,2|8,0:0|0:3,0:0:0:0:
259,100,70494,6,0,P|288:191|310:298,1,194.999991073609,10|0,0:0|2:0,0:0:0:0:
308,288,70888,1,10,0:3:0:0:
199,220,71086,1,8,3:3:0:0:
393,254,71283,5,10,3:0:0:0:
254,355,71480,2,0,P|225:319|238:278,1,64.9999970245363,8|0,0:3|2:0,0:0:0:0:
375,173,71678,6,0,B|427:156|464:204|464:204|452:147|513:118,1,194.999991073609,10|0,0:3|2:0,0:0:0:0:
507,116,72073,2,0,P|450:88|383:80,1,129.999994049073,10|8,0:0|0:3,0:0:0:0:
280,198,72467,1,10,3:3:0:0:
280,198,72665,1,2,0:0:0:0:
162,46,72862,6,0,L|41:59,1,110.000003356934,10|0,3:3|0:0,0:0:0:0:
36,79,73158,1,0,0:0:0:0:
36,79,73257,2,0,L|49:200,1,110.000003356934,2|8,0:0|0:3,0:0:0:0:
67,348,73652,5,10,0:0:0:0:
67,348,74046,1,10,0:3:0:0:
189,275,74244,1,10,3:3:0:0:
313,351,74441,6,0,L|326:230,1,110.000003356934,10|10,3:3|0:3,0:0:0:0:
324,241,74737,1,0,0:0:0:0:
324,241,74836,1,8,0:3:0:0:
260,156,75033,1,10,0:3:0:0:
427,124,75230,5,10,0:0:0:0:
427,124,75428,1,8,3:3:0:0:
498,236,75625,2,0,L|492:290,1,55.0000016784668,10|0,3:3|2:0,0:0:0:0:
415,299,75823,2,0,L|420:244,1,55.0000016784668,8|0,3:3|2:0,0:0:0:0:
338,129,76020,6,0,P|302:71|183:101,1,194.999991073609,10|0,3:3|2:0,0:0:0:0:
179,105,76415,2,0,P|178:166|206:250,1,129.999994049073,2|8,0:0|0:3,0:0:0:0:
52,337,76809,6,0,B|59:310|41:275|41:275|76:326|119:345|171:342,1,194.999991073609,10|0,0:0|2:0,0:0:0:0:
148,342,77204,1,10,0:3:0:0:
114,223,77402,1,8,3:3:0:0:
311,304,77599,5,10,3:0:0:0:
237,255,77796,2,0,P|226:291|227:351,1,64.9999970245363,8|0,0:3|2:0,0:0:0:0:
395,327,77994,6,0,B|411:262|368:235|368:235|311:202|345:119,1,194.999991073609,10|0,0:3|2:0,0:0:0:0:
340,145,78388,2,0,P|361:84|360:19,1,129.999994049073,10|8,0:0|0:3,0:0:0:0:
182,99,78783,1,10,3:3:0:0:
250,205,78980,1,2,0:0:0:0:
268,59,79178,5,10,3:3:0:0:
154,187,79375,1,2,0:0:0:0:
154,187,79474,1,0,0:0:0:0:
154,187,79573,1,2,0:0:0:0:
465,335,79967,6,0,B|495:324|479:250|416:266|416:266|348:283,1,179.999994506836,10|0,0:0|2:0,0:0:0:0:
359,280,80362,1,10,0:3:0:0:
258,345,80559,1,10,3:3:0:0:
323,198,80757,6,0,P|344:139|360:42,1,119.999996337891,10|10,3:3|0:3,0:0:0:0:
355,82,81053,1,0,0:0:0:0:
355,82,81152,1,8,0:3:0:0:
229,22,81349,1,10,0:3:0:0:
118,127,81546,6,0,P|116:161|136:180,1,59.9999981689454,10|0,0:0|2:0,0:0:0:0:
215,149,81744,2,0,P|217:115|197:96,1,59.9999981689454,8|0,3:3|2:0,0:0:0:0:
138,41,81941,5,10,3:3:0:0:
197,231,82138,2,0,P|205:263|217:299,1,59.9999981689454,8|0,3:0|2:0,0:0:0:0:
305,140,82336,6,0,P|421:147|469:276,2,240,12|8|10,3:3|0:3|0:3,0:0:0:0:
291,251,83717,6,0,P|313:226|313:202,1,40,2|0,3:0|2:0,0:0:0:0:
226,109,83915,2,0,P|228:166|237:191,1,80,2|2,3:0|0:0,0:0:0:0:
354,330,84309,2,0,P|399:296|477:285,1,120,10|0,0:3|2:0,0:0:0:0:
460,283,84704,1,8,0:0:0:0:
131,347,85494,5,10,3:3:0:0:
199,287,85691,1,0,0:0:0:0:
80,245,85888,2,0,P|56:196|59:141,1,110.000003356934,2|8,0:0|0:3,0:0:0:0:
161,59,86283,1,10,0:0:0:0:
161,59,86480,1,0,0:0:0:0:
285,138,86678,5,2,0:0:0:0:
189,198,86875,2,0,P|197:150|206:120,1,55.0000016784668,2|0,3:0|2:0,0:0:0:0:
280,56,87073,2,0,P|347:77|369:138,1,110.000003356934,2|2,3:0|0:0,0:0:0:0:
392,267,87467,2,0,P|324:292|315:221,1,165.000005035401,10|0,0:3|2:0,0:0:0:0:
315,221,87862,5,8,3:2:0:0:
390,175,88059,1,10,0:3:0:0:
487,242,88257,2,0,P|480:314|457:355,1,110.000003356934,2|8,3:2|0:3,0:0:0:0:
310,365,88652,5,10,3:3:0:0:
254,302,88849,1,0,0:0:0:0:
172,355,89046,2,0,P|97:373|32:360,1,110.000003356934,2|8,0:0|0:3,0:0:0:0:
0,277,89441,1,10,0:0:0:0:
95,178,89638,2,0,L|109:289,2,110.000003356934,0|2|2,0:0|0:0|3:0,0:0:0:0:
72,27,90230,5,2,3:0:0:0:
9,136,90428,1,2,0:0:0:0:
152,82,90625,2,0,B|196:63|233:99|233:99|271:130|341:103,1,165.000005035401,10|0,0:3|2:0,0:0:0:0:
305,113,91020,1,8,0:2:0:0:
358,29,91217,5,10,0:3:0:0:
387,170,91415,2,0,P|423:118|433:64,1,110.000003356934,2|0,3:2|0:0,0:0:0:0:
250,184,91809,5,10,3:3:0:0:
250,184,92007,1,0,0:0:0:0:
353,260,92204,1,2,0:0:0:0:
353,260,92402,1,8,0:3:0:0:
260,342,92599,6,0,P|175:343|65:357,1,165.000005035401,10|0,0:0|2:0,0:0:0:0:
95,351,92994,1,10,0:3:0:0:
169,260,93191,1,2,3:0:0:0:
30,271,93388,6,0,P|9:223|28:167,1,110.000003356934,2|2,3:0|0:0,0:0:0:0:
155,79,93783,1,10,0:3:0:0:
155,79,94178,6,0,B|219:69|219:69|285:141|285:141|377:127,1,225.000008583069,10|0,3:3|2:0,0:0:0:0:
337,54,94573,2,0,B|275:63|275:63|233:151|233:151|168:160,1,225.000008583069,10|0,3:3|2:0,0:0:0:0:
95,133,94967,1,14,3:3:0:0:
95,133,95757,6,0,P|130:187|131:250,1,110.000003356934,10|0,0:0|0:0,0:0:0:0:
221,318,96152,2,0,P|228:264|260:219,1,110.000003356934,10|0,0:3|3:0,0:0:0:0:
477,115,96546,6,0,B|428:98|399:134|399:134|360:177|288:131,1,165.000005035401,2|0,3:0|2:0,0:0:0:0:
327,150,96941,1,10,0:3:0:0:
342,59,97138,1,2,0:0:0:0:
457,199,97336,6,0,P|408:238|343:237,1,110.000003356934,10|8,0:0|0:3,0:0:0:0:
214,119,97730,1,2,3:0:0:0:
214,119,98125,6,0,B|244:154|212:196|212:196|180:241|233:302,1,165.000005035401,2|0,3:0|2:0,0:0:0:0:
219,280,98520,2,0,P|188:298|102:286,1,110.000003356934,2|8,0:0|0:3,0:0:0:0:
72,129,98915,5,10,0:0:0:0:
72,129,99309,1,10,0:3:0:0:
37,259,99507,2,0,P|28:232|29:205,1,55.0000016784668,2|0,3:0|2:0,0:0:0:0:
64,47,99704,6,0,P|139:22|254:27,1,165.000005035401,2|0,3:0|2:0,0:0:0:0:
224,20,100099,1,10,0:3:0:0:
278,125,100296,1,2,0:0:0:0:
421,44,100494,5,10,0:0:0:0:
421,44,100691,1,8,3:3:0:0:
370,173,100888,2,0,L|363:90,1,55.0000016784668,2|0,0:0|2:0,0:0:0:0:
462,152,101086,2,0,L|457:206,1,55.0000016784668,0|0,3:0|2:0,0:0:0:0:
369,284,101283,6,0,B|333:316|295:285|295:285|253:250|219:285,1,165.000005035401,10|0,3:3|2:0,0:0:0:0:
221,282,101678,1,2,0:0:0:0:
170,367,101875,1,10,0:3:0:0:
75,236,102073,6,0,P|58:287|64:342,1,110.000003356934,10|0,0:0|2:0,0:0:0:0:
235,192,102467,1,10,0:3:0:0:
235,192,102862,6,0,B|222:163|239:138|239:138|254:114|233:76,1,110.000003356934,2|2,3:0|0:0,0:0:0:0:
123,45,103257,1,10,0:3:0:0:
123,45,103454,1,2,0:0:0:0:
160,240,103652,6,0,P|201:275|255:277,1,110.000003356934,10|8,0:0|0:3,0:0:0:0:
408,187,104046,2,0,B|415:125|415:125|387:91|387:91|396:13,1,165.000005035401,2|0,3:0|2:0,0:0:0:0:
393,32,104441,1,8,3:3:0:0:
455,34,106809,5,0,3:0:0:0:
455,34,107007,1,0,3:0:0:0:
344,208,107402,5,0,3:0:0:0:
344,208,107599,2,0,L|175:195,1,160,12|2,3:3|0:0,0:0:0:0:
93,141,108191,1,8,0:3:0:0:
93,141,108388,2,0,L|-5:148,1,80,10|0,0:0|0:0,0:0:0:0:
22,258,108783,2,0,L|101:252,1,80,10|2,0:3|3:0,0:0:0:0:
311,308,109178,6,0,B|337:292|337:292|315:249|238:243|204:301,1,179.999994506836,2|0,3:0|2:0,0:0:0:0:
200,298,109573,2,0,P|224:221|231:100,1,179.999994506836,10|0,0:3|2:0,0:0:0:0:
232,122,109967,5,10,0:0:0:0:
259,47,110165,2,0,P|216:44|166:86,2,80,10|2|0,0:3|3:0|0:0,0:0:0:0:
359,119,110757,5,10,3:3:0:0:
359,119,110954,1,2,0:0:0:0:
412,40,111152,2,0,L|514:27,1,80,2|8,0:0|0:3,0:0:0:0:
494,227,111546,5,10,0:0:0:0:
477,125,111744,1,0,0:0:0:0:
414,273,111941,2,0,L|404:194,1,80,10|2,0:3|3:0,0:0:0:0:
274,77,112336,6,0,B|213:58|187:92|187:92|151:134|87:106,1,179.999994506836,2|0,3:0|2:0,0:0:0:0:
91,110,112730,2,0,P|48:66|133:39,1,179.999994506836,10|0,0:3|2:0,0:0:0:0:
128,32,113125,5,10,0:0:0:0:
190,130,113323,2,0,P|204:177|208:241,2,80,10|2|2,0:3|3:0|3:0,0:0:0:0:
90,288,113915,5,10,3:3:0:0:
90,288,114112,1,0,0:0:0:0:
33,191,114310,2,0,L|147:206,1,80,2|8,0:0|0:3,0:0:0:0:
218,293,114704,5,10,0:0:0:0:
284,165,114902,1,0,0:0:0:0:
320,297,115099,2,0,L|333:399,1,80,10|2,0:3|3:0,0:0:0:0:
436,137,115494,6,0,B|433:85|454:22|454:22|409:21|382:58,1,179.999994506836,2|0,3:0|2:0,0:0:0:0:
388,49,115888,2,0,B|340:78|302:47|302:47|256:17|173:58,1,179.999994506836,10|0,0:3|2:0,0:0:0:0:
217,40,116283,1,8,0:0:0:0:
135,82,116480,1,8,0:3:0:0:
183,222,116678,6,0,P|225:307|142:354,1,209.999993591309,2|0,0:0|2:0,0:0:0:0:
69,334,117073,2,0,P|26:248|109:201,1,209.999993591309,10|0,0:3|2:0,0:0:0:0:
459,175,117665,5,10,0:3:0:0:
459,175,117862,1,2,0:3:0:0:
378,152,118059,5,0,0:3:0:0:
398,228,118257,1,10,0:3:0:0:
298,129,118454,5,2,0:3:0:0:
337,281,118652,1,2,0:3:0:0:
337,281,119046,1,2,0:0:0:0:
467,101,119441,6,0,B|453:43|453:43|274:75,1,225.000008583069,2|0,3:0|2:0,0:0:0:0:
262,3,119836,2,0,B|204:17|204:17|236:196,1,225.000008583069,2|0,3:0|2:0,0:0:0:0:
263,255,120230,6,0,B|212:274|183:242|183:242|146:205|83:235,1,179.999994506836,12|0,3:3|2:0,0:0:0:0:
96,229,120625,1,2,0:0:0:0:
280,375,121020,6,0,P|362:364|444:266,1,179.999994506836,8|0,0:0|2:0,0:0:0:0:
431,299,121415,1,10,0:3:0:0:
361,163,121612,2,0,P|358:224|374:251,1,59.9999981689454,10|0,0:3|2:0,0:0:0:0:
512,242,121809,5,2,3:0:0:0:
480,109,122007,1,10,0:3:0:0:
361,163,122204,2,0,P|265:202|160:187,1,179.999994506836,10|0,0:3|2:0,0:0:0:0:
190,197,122599,5,8,0:0:0:0:
243,106,122796,1,8,0:3:0:0:
128,40,122994,2,0,P|111:97|110:157,1,119.999996337891,10|2,3:3|0:0,0:0:0:0:
30,314,123388,6,0,B|1:306|-4:273|18:239|55:243|55:243|145:256,1,179.999994506836,10|0,3:3|2:0,0:0:0:0:
122,252,123783,1,2,0:0:0:0:
343,187,124178,6,0,B|371:179|377:146|355:112|317:116|317:116|227:129,1,179.999994506836,10|0,0:0|2:0,0:0:0:0:
250,125,124573,1,10,0:3:0:0:
266,228,124770,2,0,P|298:265|346:264,1,59.9999981689454,10|0,3:3|2:0,0:0:0:0:
414,262,124967,5,2,3:0:0:0:
393,20,125263,5,2,0:0:0:0:
343,187,125559,5,2,0:0:0:0:
492,208,125757,6,0,L|476:65,1,119.999996337891,10|8,3:2|3:3,0:0:0:0:
267,27,126152,1,2,3:0:0:0:
366,100,126349,2,0,P|331:108|293:108,1,59.9999981689454,8|0,3:3|2:0,0:0:0:0:
105,62,126546,6,0,B|121:46|127:30|127:30|155:69|137:178,1,179.999994506836,8|0,3:3|2:0,0:0:0:0:
138,167,126941,1,2,0:0:0:0:
62,266,127138,1,0,0:0:0:0:
132,372,127336,1,8,0:0:0:0:
132,372,127730,5,10,0:3:0:0:
234,257,127928,2,0,L|247:178,1,59.9999981689454,10|0,0:3|2:0,0:0:0:0:
143,256,128125,1,2,3:0:0:0:
267,380,128323,1,10,0:3:0:0:
413,275,128520,6,0,P|408:199|331:238,1,179.999994506836,10|0,0:3|2:0,0:0:0:0:
330,236,128915,2,0,P|339:318|376:357,1,119.999996337891,8|8,0:0|0:3,0:0:0:0:
510,221,129309,1,10,3:3:0:0:
472,363,129507,2,0,P|489:326|493:280,1,59.9999981689454,2|0,0:0|2:0,0:0:0:0:
464,139,129704,5,10,3:3:0:0:
289,165,130000,5,2,0:0:0:0:
464,139,130296,5,10,0:3:0:0:
383,83,130494,6,0,L|368:236,1,119.999996337891,10|0,0:0|0:0,0:0:0:0:
271,38,130888,1,10,0:3:0:0:
178,172,131086,2,0,L|183:231,1,59.9999981689454,10|0,3:3|2:0,0:0:0:0:
78,93,131283,5,2,3:0:0:0:
295,148,131579,5,2,0:0:0:0:
78,93,131875,5,2,0:0:0:0:
165,261,132073,5,10,0:0:0:0:
190,144,132270,1,8,3:3:0:0:
81,258,132467,2,0,P|79:287|93:314,1,59.9999981689454,10|0,3:3|2:0,0:0:0:0:
299,359,132665,1,8,3:2:0:0:
299,359,134836,5,8,3:3:0:0:
371,283,135033,1,8,3:3:0:0:
229,309,135230,1,8,3:3:0:0:
264,172,135428,1,8,3:3:0:0:
146,322,135625,1,8,3:3:0:0:
108,119,135823,1,8,3:3:0:0:
373,188,136020,6,0,L|515:176,1,119.999996337891,14|0,3:3|0:0,0:0:0:0:
505,162,136316,1,0,0:0:0:0:
505,162,136415,2,0,L|493:20,1,119.999996337891,2|8,0:0|0:3,0:0:0:0:
324,5,136809,5,10,0:0:0:0:
324,5,137204,1,10,0:3:0:0:
285,171,137402,2,0,L|279:111,1,59.9999981689454,10|0,3:3|2:0,0:0:0:0:
191,35,137599,6,0,L|49:47,1,119.999996337891,10|10,3:3|0:3,0:0:0:0:
71,45,137895,1,0,0:0:0:0:
71,45,137994,1,8,0:3:0:0:
183,147,138191,1,10,0:3:0:0:
48,246,138388,5,10,0:0:0:0:
48,246,138586,1,8,3:3:0:0:
99,132,138783,2,0,L|117:230,1,59.9999981689454,10|0,3:3|2:0,0:0:0:0:
126,265,138980,2,0,L|144:363,1,59.9999981689454,8|0,3:3|2:0,0:0:0:0:
238,345,139178,6,0,B|288:304|343:347|343:347|387:390|451:340,1,225.000008583069,10|0,3:3|2:0,0:0:0:0:
451,341,139573,2,0,B|469:306|448:276|448:276|421:241|437:199,1,150.000005722046,2|8,0:0|0:3,0:0:0:0:
468,29,139967,6,0,B|498:24|520:47|520:47|487:80|419:92|363:67,1,225.000008583069,10|0,0:0|2:0,0:0:0:0:
362,66,140362,1,10,0:3:0:0:
252,4,140559,1,8,3:3:0:0:
344,184,140757,5,10,3:0:0:0:
282,80,140954,2,0,P|274:140|259:179,1,75.0000028610231,8|0,0:3|2:0,0:0:0:0:
172,285,141152,6,0,B|129:266|146:177|266:200|281:292,1,225.000008583069,10|0,0:3|2:0,0:0:0:0:
285,306,141546,2,0,P|214:365|129:358,1,150.000005722046,10|8,0:0|0:3,0:0:0:0:
45,244,141941,1,10,3:3:0:0:
172,285,142138,1,2,0:0:0:0:
38,338,142336,5,10,3:3:0:0:
111,180,142533,1,2,0:0:0:0:
111,180,142632,1,0,0:0:0:0:
111,180,142730,2,0,L|85:39,1,119.999996337891,2|8,0:0|0:3,0:0:0:0:
245,28,143125,6,0,B|321:35|321:35|337:54|337:54|420:63,1,179.999994506836,10|0,0:0|2:0,0:0:0:0:
415,62,143520,1,10,0:3:0:0:
454,183,143717,1,10,3:3:0:0:
292,136,143915,6,0,P|317:190|341:272,1,119.999996337891,10|10,3:3|0:3,0:0:0:0:
335,247,144211,1,0,0:0:0:0:
335,247,144309,1,8,0:3:0:0:
286,370,144507,1,10,0:3:0:0:
148,274,144704,6,0,P|129:252|132:223,1,59.9999981689454,10|0,0:0|2:0,0:0:0:0:
212,196,144902,2,0,P|230:219|228:249,1,59.9999981689454,8|0,3:3|2:0,0:0:0:0:
211,330,145099,5,10,3:3:0:0:
152,144,145296,2,0,P|144:112|132:76,1,59.9999981689454,8|0,3:0|2:0,0:0:0:0:
264,23,145494,6,0,B|319:15|350:62|350:62|383:106|456:83,1,200,6|2,3:2|0:0,0:0:0:0:
500,28,146086,1,8,0:3:0:0:
499,145,146283,2,0,P|473:195|471:316,1,150,10|0,0:0|2:0,0:0:0:0:
468,297,146678,2,0,P|420:320|364:312,1,100,2|0,0:0|3:2,0:0:0:0:
226,239,147073,6,0,P|224:175|315:227,2,200,2|10|10,3:2|0:3|0:0,0:0:0:0:
329,294,148059,1,8,0:3:0:0:
404,204,148257,1,0,3:2:0:0:
404,204,148652,6,0,P|391:127|315:59,1,150,2|0,3:2|2:0,0:0:0:0:
342,59,149046,2,0,P|264:51|178:107,1,150,2|0,0:0|2:0,0:0:0:0:
201,82,149441,1,8,0:0:0:0:
20,8,149836,6,0,L|36:120,1,100,10|0,0:3|3:2,0:0:0:0:
50,227,150230,1,2,3:2:0:0:
50,227,151020,5,10,3:2:0:0:
124,207,151217,1,0,3:2:0:0:
181,263,151415,1,2,3:2:0:0:
104,285,151612,5,0,3:2:0:0:
94,136,151809,2,0,P|136:127|191:165,1,100,2|0,3:2|0:0,0:0:0:0:
