osu file format v14

[General]
AudioFilename: audio.mp3
AudioLeadIn: 0
PreviewTime: 36038
Countdown: 0
SampleSet: None
StackLeniency: 0.7
Mode: 0
LetterboxInBreaks: 0
WidescreenStoryboard: 0

[Editor]
Bookmarks: 18584
DistanceSpacing: 0.7
BeatDivisor: 4
GridSize: 8
TimelineZoom: 2

[Metadata]
Title:Two Up (KenKoTaiji Remix)
TitleUnicode:Two Up (KenKoTaiji Remix)
Artist:Lil Mase
ArtistUnicode:Lil Mase
Creator:Alonevpk
Version:Tense
Source:
Tags:Maesu Diggy Simmons The Frisking Breakcore
BeatmapID:1741810
BeatmapSetID:831413

[Difficulty]
HPDrainRate:6
CircleSize:4
OverallDifficulty:8
ApproachRate:9.5
SliderMultiplier:2
SliderTickRate:1

[Events]
//Background and Video events
0,0,"acbce5c33a42df4743fa312b6c3f6068.jpg",0,0
//Break Periods
//Storyboard Layer 0 (Background)
//Storyboard Layer 1 (Fail)
//Storyboard Layer 2 (Pass)
//Storyboard Layer 3 (Foreground)
//Storyboard Sound Samples

[TimingPoints]
1130,545.454545454546,4,1,0,80,1,0
18584,272.727272727273,4,1,0,80,1,0
43674,-142.857142857143,4,1,0,80,0,0
44220,-55.5555555555556,4,1,0,80,0,0
44493,-125,4,1,0,80,0,0
44629,-66.6666666666667,4,1,0,80,0,0
44765,-100,4,1,0,80,0,0
48856,-200,4,1,0,80,0,0
48993,-66.6666666666667,4,1,0,80,0,0
49129,-100,4,1,0,80,0,0
52947,-250,4,1,0,80,0,0
53493,-100,4,1,0,80,0,0
61129,-62.5,4,1,0,80,0,0
62220,-100,4,1,0,80,0,0
69856,-250,4,1,0,80,0,0
70947,-83.3333333333333,4,1,0,80,0,0
71493,-166.666666666667,4,1,0,80,0,0
72038,-83.3333333333333,4,1,0,80,0,0
72584,-66.6666666666667,4,1,0,80,0,0
73129,-100,4,1,0,80,0,0
79674,-83.3333333333333,4,1,0,80,0,0
80220,-66.6666666666667,4,1,0,80,0,0
80765,-76.9230769230769,4,1,0,80,0,0
82947,-83.3333333333333,4,1,0,80,0,0
84038,-166.666666666667,4,1,0,80,0,0
87311,-100,4,1,0,80,0,0
88129,-83.3333333333333,4,1,0,80,0,0
88402,-100,4,1,0,80,0,0
96038,-66.6666666666667,4,1,0,80,0,0
96311,-76.9230769230769,4,1,0,80,0,0
97129,-100,4,1,0,80,0,0
101220,-200,4,1,0,80,0,0
101356,-66.6666666666667,4,1,0,80,0,0
101493,-100,4,1,0,80,0,0
104765,-66.6666666666667,4,1,0,80,0,0
105038,-125,4,1,0,80,0,0
105174,-66.6666666666667,4,1,0,80,0,0
105311,-250,4,1,0,80,0,0
105856,-100,4,1,0,80,0,0
113493,-166.666666666667,4,1,0,80,0,0
123174,-111.111111111111,4,1,0,80,0,0
124402,-166.666666666667,4,1,0,80,0,0
127402,-71.4285714285714,4,1,0,80,0,0
127674,-166.666666666667,4,1,0,80,0,0
128765,-66.6666666666667,4,1,0,80,0,0
129311,-250,4,1,0,80,0,0
130402,-66.6666666666667,4,1,0,80,0,0
130538,-83.3333333333333,4,1,0,80,0,0
130674,-111.111111111111,4,1,0,80,0,0
130811,-166.666666666667,4,1,0,80,0,0
130947,-62.5,4,1,0,80,0,0
131084,-76.9230769230769,4,1,0,80,0,0
131220,-100,4,1,0,80,0,0
131356,-142.857142857143,4,1,0,80,0,0
131493,-100,4,1,0,80,0,0
132038,-66.6666666666667,4,1,0,80,0,0
132447,-83.3333333333333,4,1,0,80,0,0
132720,-166.666666666667,4,1,0,80,0,0
133129,-83.3333333333333,4,1,0,80,0,0
133538,-166.666666666667,4,1,0,80,0,0
135856,-250.000000000001,4,1,0,80,0,0
136402,-166.666666666667,4,1,0,80,0,0
139674,-100,4,1,0,80,0,0
140356,-83.3333333333333,4,1,0,80,0,0
140629,-100,4,1,0,80,0,0
140765,-66.6666666666667,4,1,0,80,0,0
141038,-133.333333333333,4,1,0,80,0,0
141856,-166.666666666667,4,1,0,80,0,0
144038,-76.9230769230769,4,1,0,80,0,0
145129,-166.666666666667,4,1,0,80,0,0
146220,-66.6666666666667,4,1,0,80,0,0
146765,-250,4,1,0,80,0,0
147856,-125,4,1,0,80,0,0
151129,-100,4,1,0,80,0,0
158765,-142.857142857143,4,1,0,80,0,0
159311,-55.5555555555556,4,1,0,80,0,0
159584,-125,4,1,0,80,0,0
159720,-66.6666666666667,4,1,0,80,0,0
159856,-100,4,1,0,80,0,0
168038,-250,4,1,0,80,0,0
168584,-100,4,1,0,80,0,0
176220,-66.6666666666667,4,1,0,80,0,0
177311,-100,4,1,0,80,0,0
185356,-66.6666666666667,4,1,0,80,0,0
185629,-83.3333333333333,4,1,0,80,0,0
186038,-76.9230769230769,4,1,0,80,0,0
186311,-100,4,1,0,80,0,0
193674,-83.3333333333333,4,1,0,80,0,0
193947,-66.6666666666667,4,1,0,80,0,0
194220,-50,4,1,0,80,0,0
194765,-100,4,1,0,80,0,0
203015,-66.6666666666667,4,1,0,80,0,0
203220,-83.3333333333333,4,1,0,80,0,0
203493,-100,4,1,0,80,0,0
231856,-83.3333333333333,4,1,0,80,0,0
232129,-90.9090909090909,4,1,0,80,0,0
232402,-100,4,1,0,80,0,0
232674,-111.111111111111,4,1,0,80,0,0
232947,-125,4,1,0,80,0,0
233084,-142.857142857143,4,1,0,80,0,0
233220,-166.666666666667,4,1,0,80,0,0
233356,-200,4,1,0,80,0,0
233493,-250,4,1,0,80,0,0
233629,-333.333333333333,4,1,0,80,0,0
233765,-500,4,1,0,80,0,0

[HitObjects]
159,88,1130,5,0,0:0:0:0:
256,192,1266,12,0,5493,0:0:0:0:
256,192,5630,12,0,7675,0:0:0:0:
256,192,7811,12,0,9857,0:0:0:0:
256,192,9993,12,0,14220,0:0:0:0:
256,192,14357,12,0,18311,0:0:0:0:
87,225,18584,6,0,B|131:199|131:199|191:219,1,100
143,297,18856,1,0,0:0:0:0:
120,108,18993,2,0,P|114:55|105:-12,1,100
250,162,19265,1,0,0:0:0:0:
89,373,19402,2,0,P|49:359|-1:303,1,100
248,285,19674,6,0,B|358:273|324:340|437:328,1,200
234,192,20084,2,0,B|124:180|158:247|45:235,1,200
310,118,20493,2,0,L|395:130,1,50
388,137,20629,2,0,L|473:149,1,50
111,121,20765,6,0,B|93:74|93:74|127:14,1,100
210,280,21038,1,0,0:0:0:0:
50,244,21174,2,0,P|111:228|218:132,1,200
70,15,21584,2,0,P|71:63|88:118,1,100
71,364,21856,6,0,P|47:286|131:214,1,200
372,249,22265,2,0,P|316:308|212:272,1,200
195,48,22674,2,0,P|201:62|192:126,1,50
285,122,22811,2,0,P|278:137|227:176,1,50
101,363,22947,6,0,L|88:239,1,100
46,161,23220,1,0,0:0:0:0:
315,369,23356,2,0,B|340:335|363:316|363:316|332:253|339:170,1,200
255,29,23765,2,0,P|302:49|340:122,1,100
475,322,24038,6,0,P|471:217|446:120,1,200
171,209,24447,2,0,P|276:205|373:180,1,200
379,364,24856,2,0,P|384:342|388:303,1,50
301,334,24993,2,0,P|306:312|310:273,1,50
274,53,25129,6,0,L|404:44,1,100
464,39,25402,1,0,0:0:0:0:
198,186,25538,2,0,P|146:159|129:22,1,200
329,136,25947,2,0,P|314:154|289:233,1,100
30,80,26220,6,0,P|75:37|219:45,1,200
289,225,26629,2,0,P|244:268|100:260,1,200
162,153,27038,1,0,0:0:0:0:
444,311,27174,1,0,0:0:0:0:
359,365,27311,6,0,L|370:257,1,100
305,131,27584,1,0,0:0:0:0:
443,27,27720,2,0,P|474:81|375:163,1,200
243,53,28129,2,0,L|354:40,1,100
145,105,28402,6,0,P|104:107|35:237,1,200
240,168,28811,2,0,P|281:170|350:300,1,200
146,348,29220,2,0,P|139:318|139:285,1,50
219,286,29356,2,0,P|226:316|226:349,1,50
129,211,29493,6,0,L|145:96,1,100
225,73,29765,1,0,0:0:0:0:
24,185,29902,2,0,P|26:248|164:285,1,200
226,164,30311,2,0,P|262:164|339:136,1,100
401,24,30584,6,0,P|420:123|449:218,1,200
234,368,30993,2,0,P|262:272|282:175,1,200
413,300,31402,2,0,L|355:285,1,50
166,239,31538,1,0,0:0:0:0:
166,239,31606,1,0,0:0:0:0:
166,239,31674,6,0,P|145:268|121:332,1,100
265,260,31947,1,0,0:0:0:0:
121,148,32084,2,0,P|51:196|0:298,1,200
234,156,32493,2,0,P|246:121|240:39,1,100
434,184,32765,6,0,P|376:144|350:22,1,200
289,359,33174,2,0,B|326:292|325:216|325:216|360:247|399:261,1,200
434,333,33584,1,0,0:0:0:0:
230,195,33720,1,0,0:0:0:0:
230,195,33788,1,0,0:0:0:0:
230,195,33856,6,0,P|200:202|97:181,1,100
43,149,34129,1,0,0:0:0:0:
141,344,34265,2,0,P|203:314|211:163,1,200
37,92,34674,2,0,P|65:129|128:141,1,100
299,34,34947,6,0,P|252:39|211:88,1,100
229,194,35220,2,0,P|264:224|328:223,1,100
493,41,35493,2,0,P|451:34|373:151,1,200
424,327,35902,1,0,0:0:0:0:
461,308,35970,1,0,0:0:0:0:
475,269,36038,6,0,B|367:254|397:311|280:291,1,200
98,364,36447,2,0,P|123:320|152:266,1,100
190,194,36720,1,0,0:0:0:0:
88,25,36856,2,0,P|113:68|144:120,1,100
284,168,37129,6,0,P|401:167|474:97,1,200
328,273,37538,2,0,P|333:305|338:373,1,100
275,73,37811,1,0,0:0:0:0:
468,192,37947,2,0,B|469:216|469:216|457:247,1,50
382,197,38084,2,0,B|381:173|381:173|393:142,1,50
202,349,38220,6,0,P|171:327|2:305,1,200
254,196,38629,2,0,P|219:211|114:216,1,100
55,201,38902,1,0,0:0:0:0:
31,42,39038,2,0,P|84:62|146:136,1,150
158,220,39311,6,0,P|207:214|254:196,1,100
297,50,39584,1,0,0:0:0:0:
442,133,39720,2,0,P|466:193|471:254,1,100
300,309,39993,1,0,0:0:0:0:
372,91,40129,2,0,P|367:111|353:141,1,50
293,191,40265,2,0,P|275:201|244:212,1,50
19,311,40402,6,0,P|76:336|203:270,1,200
45,82,40811,2,0,P|15:155|88:248,1,200
217,51,41220,2,0,P|176:29|110:35,1,100
301,181,41493,6,0,B|443:202|443:202|523:151,1,200
281,286,41902,1,0,0:0:0:0:
493,352,42038,1,0,0:0:0:0:
430,71,42174,1,0,0:0:0:0:
410,303,42311,2,0,P|423:279|432:246,1,50
320,187,42447,2,0,P|344:200|377:209,1,50
197,27,42584,6,0,P|128:36|84:77,1,100
40,119,42856,1,0,0:0:0:0:
197,288,42993,2,0,P|226:222|169:112,1,200
12,216,43402,2,0,P|61:222|111:226,1,100
231,245,43674,6,0,B|278:287|261:352|261:352|201:368|166:315,1,209.999993591309
348,272,44220,6,0,B|336:238|316:215|316:215|358:222|383:236|383:236|385:243|385:243|427:265|487:250|487:250|437:283,1,269.999991760254
444,345,44493,6,0,L|377:335,1,40
463,145,44629,6,0,B|488:156|488:156|469:170|442:166,1,75.0000028610231
242,44,44765,6,0,P|272:78|303:141,1,100
302,221,45038,1,0,0:0:0:0:
115,224,45174,2,0,P|157:205|227:195,1,100
302,221,45447,1,0,0:0:0:0:
159,360,45584,2,0,P|77:327|32:243,1,150
41,177,45856,6,0,L|57:72,1,100
243,39,46129,2,0,L|138:23,1,100
223,223,46402,6,0,L|239:118,1,100
441,80,46674,2,0,L|368:68,1,50
326,69,46811,2,0,L|375:77,1,50
387,256,46947,6,0,P|432:252|506:265,1,100
324,319,47220,1,0,0:0:0:0:
217,278,47356,1,0,0:0:0:0:
171,108,47493,1,0,0:0:0:0:
340,23,47629,1,0,0:0:0:0:
199,136,47765,6,0,L|-28:115,2,200
47,35,48447,1,0,0:0:0:0:
137,223,48584,1,0,0:0:0:0:
45,281,48720,1,0,0:0:0:0:
97,359,48856,2,0,P|108:351|137:346,1,25
207,275,48993,2,0,P|239:276|303:307,1,75.0000028610231
323,373,49129,6,0,B|296:287|312:218|312:218|364:165,1,200
423,119,49538,1,0,0:0:0:0:
366,36,49674,1,0,0:0:0:0:
194,182,49811,1,0,0:0:0:0:
270,120,49947,1,0,0:0:0:0:
105,55,50084,1,0,0:0:0:0:
235,276,50220,6,0,L|404:250,1,150
419,167,50493,2,0,P|378:160|313:189,1,100
142,292,50765,1,0,0:0:0:0:
359,346,50902,1,0,0:0:0:0:
108,176,51038,2,0,P|97:200|103:258,1,50
128,339,51174,2,0,P|139:315|133:257,1,50
22,68,51311,6,0,P|63:135|175:131,1,200
386,75,51720,1,0,0:0:0:0:
275,12,51856,2,0,B|250:58|250:58|267:112,1,100
272,324,52129,1,0,0:0:0:0:
414,244,52265,1,0,0:0:0:0:
216,178,52402,6,0,L|242:380,1,200
357,373,52811,1,0,0:0:0:0:
76,302,52947,6,0,L|15:308,2,60
59,175,53493,6,0,P|130:163|198:58,1,200
295,152,53902,2,0,P|321:185|326:251,1,100
287,322,54174,1,0,0:0:0:0:
452,278,54311,2,0,P|428:312|367:338,1,100
35,188,54584,6,0,B|150:169|105:243|225:221,1,200
366,121,54993,2,0,P|371:67|332:17,1,100
228,105,55265,1,0,0:0:0:0:
459,232,55402,2,0,P|453:208|442:186,1,50
364,215,55538,2,0,P|370:239|382:262,1,50
169,363,55674,6,0,P|156:303|-4:281,1,200
170,141,56084,2,0,L|41:159,1,100
70,154,56356,1,0,0:0:0:0:
222,30,56493,2,0,P|269:52|412:47,1,150
457,30,56765,6,0,P|421:62|386:128,1,100
367,317,57038,1,0,0:0:0:0:
468,185,57174,1,0,0:0:0:0:
360,208,57311,1,0,0:0:0:0:
252,231,57447,1,0,0:0:0:0:
142,40,57584,2,0,L|159:109,1,50
91,151,57720,2,0,L|79:199,1,50
194,377,57856,6,0,B|177:291|177:291|150:268|150:268|173:168,1,200
441,126,58265,2,0,L|232:85,1,200
74,41,58674,2,0,L|209:14,1,100
2,134,58947,6,0,B|85:149|85:149|110:176|110:176|187:191,1,200
278,284,59356,1,0,0:0:0:0:
280,186,59493,1,0,0:0:0:0:
409,125,59629,1,0,0:0:0:0:
490,273,59765,2,0,P|474:283|425:289,1,50
431,368,59902,2,0,P|412:364|374:333,1,50
280,186,60038,6,0,L|291:71,1,100
409,125,60311,1,0,0:0:0:0:
152,241,60447,2,0,P|80:215|57:90,1,200
155,8,60856,2,0,P|164:51|140:117,1,100
28,312,61129,6,0,B|47:358|47:358|124:315|205:309|250:356,1,240
321,325,61402,2,0,P|356:269|233:279,1,240
409,373,61674,1,0,0:0:0:0:
447,280,61811,1,0,0:0:0:0:
364,135,61947,1,0,0:0:0:0:
151,215,62084,1,0,0:0:0:0:
318,24,62220,6,0,P|380:53|365:173,1,200
124,85,62629,1,0,0:0:0:0:
234,64,62765,2,0,B|245:113|245:113|219:154,1,100
130,319,63038,2,0,B|79:366|17:343|17:343|36:337|61:313,1,150
41,252,63311,6,0,B|4:150|86:170|49:60,1,200
49,60,63720,1,0,0:0:0:0:
167,135,63856,2,0,P|196:159|221:227,1,100
466,63,64129,2,0,P|453:50|403:32,1,50
358,81,64265,2,0,P|339:81|291:103,1,50
443,268,64402,6,0,P|466:234|464:167,1,100
272,296,64674,1,0,0:0:0:0:
366,353,64811,1,0,0:0:0:0:
144,339,64947,2,0,P|122:333|46:342,1,100
15,167,65220,2,0,P|65:201|182:164,1,150
99,10,65493,6,0,P|81:10|13:57,1,100
209,248,65765,1,0,0:0:0:0:
274,80,65901,1,0,0:0:0:0:
96,107,66038,1,0,0:0:0:0:
191,148,66174,1,0,0:0:0:0:
43,260,66311,2,0,P|32:284|39:342,1,50
107,341,66447,2,0,P|126:358|183:370,1,50
386,348,66584,6,0,P|450:288|433:161,1,200
295,252,66993,1,0,0:0:0:0:
278,101,67129,2,0,P|323:123|351:175,1,100
221,312,67402,1,0,0:0:0:0:
124,305,67538,1,0,0:0:0:0:
69,221,67674,6,0,P|121:136|134:38,1,200
4,140,68084,1,0,0:0:0:0:
217,175,68220,2,0,P|268:259|278:341,1,150
195,344,68493,2,0,P|172:337|121:333,1,50
89,281,68629,2,0,P|66:274|15:270,1,50
264,67,68765,6,0,P|357:59|403:39,1,100
115,106,69038,2,0,P|22:98|-24:78,1,100
312,276,69311,1,0,0:0:0:0:
172,248,69447,1,0,0:0:0:0:
200,108,69584,1,0,0:0:0:0:
340,136,69720,1,0,0:0:0:0:
95,294,69856,6,0,P|86:270|85:234,2,60
417,90,70402,2,0,P|426:114|427:150,2,60
271,207,70947,6,0,B|300:287|385:290|421:269|421:269|411:243|359:214,1,239.999992675781
177,223,71356,1,0,0:0:0:0:
97,281,71493,6,0,P|76:316|67:377,2,89.9999972534181
68,100,72038,6,0,L|59:40,1,59.9999981689454
228,169,72243,2,0,L|284:191,1,59.9999981689454
97,281,72447,2,0,L|49:318,1,59.9999981689454
39,196,72584,6,0,B|79:195|103:170|103:170|126:204|126:204|154:201|154:201|159:253|217:277,1,225.000008583069
226,348,72856,6,0,B|189:358|189:358|148:336,1,75.0000028610231
242,191,72993,2,0,B|279:181|279:181|320:203,1,75.0000028610231
400,355,73129,6,0,P|402:298|435:234,1,100
473,174,73402,1,0,0:0:0:0:
344,100,73538,2,0,L|470:84,1,100
321,15,73811,1,0,0:0:0:0:
237,169,73947,2,0,P|201:173|128:124,1,100
117,350,74220,6,0,P|141:306|139:257,1,100
42,121,74493,1,0,0:0:0:0:
261,23,74629,2,0,P|225:19|152:68,1,100
144,146,74902,1,0,0:0:0:0:
435,71,75038,1,0,0:0:0:0:
349,188,75174,1,0,0:0:0:0:
349,188,75243,1,0,0:0:0:0:
349,188,75311,6,0,L|338:81,1,100
489,199,75584,1,0,0:0:0:0:
254,242,75720,2,0,L|243:341,1,100
475,213,75993,1,0,0:0:0:0:
165,162,76129,2,0,L|154:55,1,100
115,274,76402,6,0,P|69:304|10:297,1,100
265,150,76674,1,0,0:0:0:0:
35,40,76811,2,0,P|65:86|58:145,1,100
44,217,77084,1,0,0:0:0:0:
193,63,77220,2,0,L|187:3,1,50
139,296,77356,1,0,0:0:0:0:
139,296,77424,1,0,0:0:0:0:
139,296,77493,6,0,P|167:322|236:326,1,100
391,267,77765,1,0,0:0:0:0:
216,221,77902,2,0,P|244:195|313:191,1,100
386,373,78174,1,0,0:0:0:0:
508,109,78311,2,0,P|482:156|428:178,1,100
223,39,78584,6,0,L|334:25,1,100
415,12,78856,1,0,0:0:0:0:
170,137,78993,1,0,0:0:0:0:
352,185,79129,1,0,0:0:0:0:
206,251,79265,1,0,0:0:0:0:
291,336,79402,1,0,0:0:0:0:
225,381,79538,1,0,0:0:0:0:
390,247,79674,6,0,P|416:234|498:283,1,119.999996337891
474,346,79879,2,0,P|448:359|366:310,1,119.999996337891
429,157,80084,2,0,P|460:159|510:179,1,59.9999981689454
313,270,80220,6,0,B|279:314|219:302|219:302|154:287|154:287|187:300|198:341,1,225.000008583069
73,334,80493,2,0,B|35:237|129:177|129:177|113:262,1,225.000008583069
246,159,80765,6,0,B|285:152|310:177|310:177|230:236|74:77|236:-42|357:1|357:128,1,454.999979171754
429,239,81311,2,0,P|414:276|417:223,1,129.999994049073
485,89,81584,2,0,P|524:81|480:107,1,129.999994049073
64,63,81856,5,0,0:0:0:0:
162,80,81993,1,0,0:0:0:0:
239,141,82129,1,0,0:0:0:0:
337,158,82266,1,0,0:0:0:0:
254,43,82402,5,0,0:0:0:0:
103,207,82538,1,0,0:0:0:0:
112,306,82674,1,0,0:0:0:0:
202,355,82811,1,0,0:0:0:0:
468,284,82947,6,0,B|495:166|434:52|434:52|419:19|378:13|350:49|367:82|367:82|386:108|401:154|401:195|401:195|399:226|369:242|333:232|330:191|330:191|329:170|322:151|322:151|305:101|258:101|237:134|253:157|258:175|258:175|262:191|265:224|232:245,1,839.999974365235
196,314,84038,6,0,P|142:320|82:346,1,119.999996337891
323,275,84447,2,0,P|347:323|393:369,1,119.999996337891
412,179,84856,2,0,P|422:144|446:110,1,59.9999981689454
168,237,85129,6,0,P|121:250|26:244,1,119.999996337891
279,154,85538,2,0,P|276:202|241:291,1,119.999996337891
234,22,85947,2,0,P|279:39|301:56,1,59.9999981689454
381,258,86220,6,0,P|436:239|450:225,1,59.9999981689454
254,286,86493,2,0,P|242:343|248:362,1,59.9999981689454
169,124,86765,2,0,P|180:181|174:200,1,59.9999981689454
99,293,87038,2,0,P|41:304|22:298,1,59.9999981689454
15,158,87311,6,0,L|81:173,1,50
160,224,87447,2,0,L|196:281,1,50
214,109,87584,2,0,L|250:51,1,50
312,264,87720,2,0,L|323:312,1,50
367,95,87856,2,0,L|378:46,1,50
445,320,87993,2,0,L|445:380,1,50
63,216,88129,6,0,L|25:222,1,29.9999990844727
449,168,88265,2,0,L|487:162,1,29.9999990844727
53,95,88402,6,0,P|82:54|223:45,1,200
166,323,88811,2,0,P|125:318|74:276,1,100
155,128,89084,1,0,0:0:0:0:
250,204,89220,2,0,P|207:227|158:226,1,100
449,350,89493,6,0,L|470:137,1,200
339,23,89902,2,0,L|351:130,1,100
363,219,90174,1,0,0:0:0:0:
123,108,90311,2,0,L|187:100,1,50
212,115,90447,2,0,L|276:107,1,50
197,305,90584,6,0,B|319:294|264:359|387:343,1,200
411,190,90993,2,0,P|365:206|363:270,1,100
452,277,91265,1,0,0:0:0:0:
474,128,91402,2,0,P|403:98|325:134,1,150
335,346,91674,6,0,P|380:367|430:363,1,100
401,261,91947,1,0,0:0:0:0:
217,328,92084,2,0,L|104:323,1,100
127,130,92356,1,0,0:0:0:0:
233,227,92493,2,0,L|167:235,1,50
93,220,92629,2,0,L|27:228,1,50
24,25,92765,6,0,B|139:4|105:66|218:43,1,200
326,80,93174,2,0,P|366:72|426:58,1,100
452,203,93447,1,0,0:0:0:0:
261,251,93584,2,0,P|253:211|239:151,1,100
69,124,93856,6,0,P|96:181|86:318,1,200
87,314,94265,1,0,0:0:0:0:
204,197,94402,1,0,0:0:0:0:
246,356,94538,1,0,0:0:0:0:
350,234,94674,2,0,P|369:219|410:208,1,50
394,122,94811,2,0,P|417:125|454:146,1,50
488,360,94947,6,0,P|444:346|372:345,1,100
256,265,95220,1,0,0:0:0:0:
492,215,95356,2,0,P|455:191|292:177,1,200
192,15,95765,2,0,P|198:53|224:114,1,100
478,104,96038,6,0,P|428:36|418:137,1,225.000008583069
264,259,96311,6,0,B|282:279|290:299|290:299|343:236|293:137,1,194.999991073609
210,181,96584,6,0,L|141:170,1,64.9999970245363
48,301,96720,1,0,0:0:0:0:
91,296,96788,1,0,0:0:0:0:
134,292,96856,1,0,0:0:0:0:
16,208,96993,5,0,0:0:0:0:
148,17,97129,6,0,P|186:39|198:198,1,200
25,79,97538,1,0,0:0:0:0:
127,145,97674,2,0,P|170:147|239:133,1,100
423,35,97947,2,0,P|383:70|341:167,1,150
393,333,98220,6,0,P|376:297|213:234,1,200
141,265,98629,1,0,0:0:0:0:
75,74,98765,2,0,L|105:169,1,100
19,338,99038,2,0,P|38:334|89:317,1,50
150,359,99174,2,0,P|169:363|220:380,1,50
446,330,99311,6,0,P|410:335|322:373,1,100
141,265,99584,1,0,0:0:0:0:
259,292,99720,1,0,0:0:0:0:
411,217,99856,1,0,0:0:0:0:
293,190,99992,1,0,0:0:0:0:
477,123,100129,2,0,P|495:166|500:275,1,150
376,101,100402,6,0,P|381:61|412:-4,1,100
157,45,100674,2,0,P|197:50|262:81,1,100
49,186,100947,1,0,0:0:0:0:
148,144,101084,1,0,0:0:0:0:
214,299,101220,2,0,L|172:294,1,25
98,318,101356,2,0,B|80:283|80:283|100:254,1,75.0000028610231
338,178,101493,6,0,L|309:417,1,200
238,205,101902,1,0,0:0:0:0:
413,323,102038,1,0,0:0:0:0:
428,113,102174,1,0,0:0:0:0:
362,209,102311,1,0,0:0:0:0:
283,33,102447,1,0,0:0:0:0:
502,89,102584,6,0,L|344:98,1,150
330,123,102856,2,0,B|279:139|279:139|220:113,1,100
34,277,103129,2,0,P|84:305|170:255,1,150
84,177,103402,2,0,P|84:201|96:224,1,50
225,332,103538,2,0,P|248:339|273:335,1,50
184,40,103674,6,0,P|113:32|12:142,1,200
282,91,104084,1,0,0:0:0:0:
198,252,104220,2,0,P|187:182|196:134,1,100
310,306,104493,1,0,0:0:0:0:
95,334,104629,1,0,0:0:0:0:
190,153,104765,6,0,B|238:103|137:73|94:164|111:235|160:277,1,225.000008583069
212,326,105038,6,0,L|227:281,1,40
37,208,105174,2,0,B|14:196|14:196|45:271,1,75.0000028610231
302,356,105311,6,0,L|375:348,2,60
302,356,106129,5,0,0:0:0:0:
484,323,106265,2,0,P|462:266|329:206,1,200
492,78,106674,2,0,P|453:78|389:123,1,100
201,84,106947,5,0,0:0:0:0:
304,98,107084,1,0,0:0:0:0:
124,19,107220,2,0,P|104:52|111:130,1,100
172,254,107493,2,0,P|150:226|29:223,1,150
36,311,107765,2,0,L|99:302,1,50
162,354,107902,2,0,L|225:345,1,50
311,199,108038,6,0,P|333:150|313:5,1,200
432,51,108447,1,0,0:0:0:0:
218,166,108584,2,0,P|197:213|197:279,1,100
140,93,108856,1,0,0:0:0:0:
56,166,108993,1,0,0:0:0:0:
260,75,109129,6,0,P|312:53|356:25,1,100
93,105,109402,2,0,P|51:66|19:25,1,100
285,213,109674,2,0,P|295:275|292:338,1,100
89,326,109947,2,0,P|87:304|99:260,1,50
23,233,110084,2,0,P|37:216|76:193,1,50
195,85,110220,6,0,P|140:101|25:30,1,200
143,205,110629,1,0,0:0:0:0:
88,344,110765,2,0,P|132:321|187:320,1,100
361,253,111038,1,0,0:0:0:0:
351,349,111174,1,0,0:0:0:0:
371,157,111311,6,0,L|380:51,1,100
460,261,111584,2,0,L|354:252,1,100
284,44,111856,2,0,L|275:150,1,100
172,132,112129,2,0,L|122:127,1,50
133,26,112265,2,0,L|182:30,1,50
186,233,112402,6,0,L|87:225,1,100
13,117,112674,1,0,0:0:0:0:
172,132,112811,1,0,0:0:0:0:
3,264,112947,2,0,P|-11:325|6:370,1,100
186,233,113220,2,0,P|200:172|183:127,1,100
11,96,113493,6,0,B|187:119|115:8|290:25,1,300
465,48,114311,5,0,0:0:0:0:
363,177,114447,1,0,0:0:0:0:
126,202,114584,6,0,B|71:188|32:149|32:149|77:230|80:339,1,299.999990844727
80,334,115402,5,0,0:0:0:0:
207,258,115538,1,0,0:0:0:0:
39,155,115674,6,0,P|81:146|146:101,1,119.999996337891
207,258,116084,2,0,P|235:299|239:375,1,119.999996337891
111,295,116493,2,0,P|82:305|47:308,1,59.9999981689454
317,221,116765,6,0,P|376:223|426:255,1,119.999996337891
235,152,117174,2,0,P|207:99|210:40,1,119.999996337891
376,82,117584,2,0,P|348:97|323:134,1,59.9999981689454
412,375,117856,6,0,P|418:329|426:247,1,119.999996337891
211,292,118265,2,0,P|257:298|339:306,1,119.999996337891
343,146,118674,2,0,P|339:175|334:228,1,59.9999981689454
34,137,118947,6,0,P|25:93|60:29,1,119.999996337891
167,196,119356,2,0,P|133:225|60:227,1,119.999996337891
152,52,119765,2,0,P|180:61|208:103,1,59.9999981689454
360,169,120038,6,0,P|404:173|473:122,1,119.999996337891
388,74,120447,1,0,0:0:0:0:
332,265,120584,2,0,P|369:270|413:278,1,59.9999981689454
255,157,120856,2,0,P|218:162|174:170,1,59.9999981689454
465,250,121129,6,0,P|435:245|405:241,1,59.9999981689454
269,358,121401,2,0,P|298:353|328:349,1,59.9999981689454
247,213,121674,2,0,P|217:208|187:204,1,59.9999981689454
51,321,121947,2,0,P|80:316|110:312,1,59.9999981689454
96,21,122220,5,0,0:0:0:0:
11,131,122356,1,0,0:0:0:0:
132,109,122493,5,0,0:0:0:0:
103,244,122629,1,0,0:0:0:0:
203,173,122765,5,0,0:0:0:0:
233,309,122901,1,0,0:0:0:0:
294,201,123038,5,0,0:0:0:0:
378,311,123174,2,0,B|456:303|456:303|526:297|535:215|469:177|416:212|416:259,1,269.999991760254
423,232,123856,5,0,0:0:0:0:
411,99,123993,1,0,0:0:0:0:
351,174,124129,1,0,0:0:0:0:
484,163,124266,1,0,0:0:0:0:
272,249,124402,6,0,P|284:276|289:369,1,119.999996337891
351,174,124811,2,0,P|338:146|333:53,1,119.999996337891
235,27,125220,2,0,P|227:52|225:105,1,59.9999981689454
90,165,125493,6,0,L|159:162,1,59.9999981689454
35,299,125765,2,0,L|32:230,1,59.9999981689454
169,354,126038,2,0,L|100:357,1,59.9999981689454
224,220,126311,2,0,L|227:289,1,59.9999981689454
391,353,126584,5,0,0:0:0:0:
477,327,126720,1,0,0:0:0:0:
370,260,126856,5,0,0:0:0:0:
447,179,126992,1,0,0:0:0:0:
279,208,127129,5,0,0:0:0:0:
310,73,127265,1,0,0:0:0:0:
263,309,127402,6,0,B|239:281|272:245|272:245|204:223|285:184|241:125,1,209.999993591309
157,99,127674,6,0,P|123:109|98:185,1,119.999996337891
331,115,128084,2,0,P|339:80|286:20,1,119.999996337891
238,235,128493,2,0,P|256:251|309:243,1,59.9999981689454
470,122,128765,6,0,B|494:63|494:63|330:114|330:114|385:148,1,299.999990844727
453,213,129174,1,0,0:0:0:0:
352,19,129311,6,0,L|289:37,2,60
181,72,129856,2,0,L|123:55,2,60
27,170,130402,6,0,P|55:192|69:243,1,75.0000028610231
138,169,130538,2,0,P|146:199|148:229,1,59.9999981689454
232,220,130674,2,0,P|229:249|217:280,1,44.999998626709
305,289,130811,2,0,P|297:309|279:331,1,29.9999990844727
451,239,130947,6,0,P|418:253|398:330,1,80
327,230,131084,2,0,P|315:244|328:334,1,64.9999970245363
219,275,131220,2,0,P|221:313|248:341,1,50
140,353,131356,2,0,P|151:376|182:394,1,34.9999989318848
24,279,131493,5,0,0:0:0:0:
94,216,131629,2,0,P|99:190|90:148,1,50
33,37,131765,1,0,0:0:0:0:
29,49,131833,1,0,0:0:0:0:
28,61,131901,1,0,0:0:0:0:
28,73,131969,1,0,0:0:0:0:
30,86,132038,6,0,B|53:86|73:98|73:98|101:77|109:52|109:52|143:58|165:77|165:77|196:65|196:65|246:96|298:66,1,300.000011444092
393,89,132447,6,0,B|427:36|427:36|378:5,1,119.999996337891
326,169,132720,6,0,L|343:303,1,119.999996337891
218,274,133129,6,0,B|362:243|318:331|449:300,1,239.999992675781
178,193,133538,6,0,P|146:216|128:304,1,119.999996337891
275,363,133947,1,0,0:0:0:0:
335,189,134084,1,0,0:0:0:0:
174,103,134220,6,0,P|128:104|47:83,1,119.999996337891
269,208,134629,2,0,P|224:219|153:263,1,119.999996337891
362,75,135038,2,0,P|331:60|299:30,1,59.9999981689454
447,240,135311,6,0,P|454:182|487:104,1,119.999996337891
360,224,135720,1,0,0:0:0:0:
447,349,135856,6,0,L|510:343,2,60
316,325,136402,6,0,L|180:337,1,119.999996337891
136,239,136811,2,0,P|174:268|195:346,1,119.999996337891
54,255,137220,2,0,P|52:231|72:188,1,59.9999981689454
235,49,137493,6,0,B|178:66|178:66|105:35,1,119.999996337891
37,103,137902,1,0,0:0:0:0:
239,155,138038,2,0,P|252:180|254:221,1,59.9999981689454
301,343,138311,2,0,P|316:319|350:297,1,59.9999981689454
468,324,138584,5,0,0:0:0:0:
468,324,138856,1,0,0:0:0:0:
468,324,139129,1,0,0:0:0:0:
468,324,139402,1,0,0:0:0:0:
472,149,139674,6,0,L|481:73,1,50
409,228,139811,2,0,L|403:277,1,50
348,102,139947,2,0,L|357:26,1,50
283,269,140084,2,0,L|277:318,1,50
214,70,140220,2,0,L|219:20,1,50
144,306,140356,6,0,B|155:380|241:255|108:163,1,179.999994506836
17,160,140629,2,0,P|35:157|75:137,1,50
235,46,140765,6,0,B|252:14|276:5|276:5|175:5|150:121,1,225.000008583069
237,159,141038,2,0,B|276:167|276:167|332:132,1,75.0000028610231
445,57,141311,6,0,L|438:104,1,37.5000014305115
425,176,141447,2,0,L|419:213,1,37.5000014305115
399,358,141584,5,0,0:0:0:0:
336,237,141720,1,0,0:0:0:0:
258,349,141856,6,0,P|208:329|120:335,1,119.999996337891
53,213,142265,2,0,P|112:213|168:192,1,119.999996337891
222,27,142674,2,0,P|213:63|227:104,1,59.9999981689454
72,78,142947,5,0,0:0:0:0:
72,78,143220,1,0,0:0:0:0:
72,78,143493,1,0,0:0:0:0:
72,78,143765,1,0,0:0:0:0:
347,47,144038,6,0,L|415:39,1,64.9999970245363
448,207,144174,1,0,0:0:0:0:
408,230,144243,1,0,0:0:0:0:
363,220,144311,1,0,0:0:0:0:
393,133,144447,5,0,0:0:0:0:
508,284,144584,1,0,0:0:0:0:
319,308,144720,1,0,0:0:0:0:
393,133,144856,5,0,0:0:0:0:
393,133,144924,2,0,B|396:172|396:172|392:186|392:186|404:185|404:185|400:199|400:199|408:257,1,129.999994049073
418,338,145129,6,0,P|362:319|287:328,1,119.999996337891
201,291,145538,2,0,P|147:317|101:376,1,119.999996337891
23,310,145947,2,0,P|10:341|9:386,1,59.9999981689454
38,141,146220,6,0,B|33:188|64:262|129:263|178:238|181:153|128:102,1,300.000011444092
51,39,146629,1,0,0:0:0:0:
242,117,146765,6,0,P|275:120|318:114,2,60
397,78,147311,2,0,P|422:56|448:22,2,60
329,219,147856,6,0,P|321:240|322:278,1,40
281,248,147993,2,0,P|302:255|340:254,1,40
311,296,148129,2,0,P|318:274|317:236,1,40
359,267,148266,2,0,P|337:259|299:260,1,40
152,299,148402,6,0,P|173:306|211:305,1,40
181,347,148539,2,0,P|188:325|187:287,1,40
229,317,148675,2,0,P|207:309|169:310,1,40
200,269,148812,2,0,P|192:290|193:328,1,40
309,378,148947,6,0,P|330:379|361:370,1,40
413,327,149084,2,0,P|428:312|444:284,1,40
450,217,149220,2,0,P|451:196|441:165,1,40
398,113,149356,2,0,P|383:97|355:81,1,40
90,360,149765,6,0,L|2:349,5,80
10,350,150993,1,0,0:0:0:0:
48,87,151129,6,0,P|89:151|83:275,1,200
278,124,151538,2,0,P|229:113|180:120,1,100
344,35,151811,1,0,0:0:0:0:
223,311,151947,2,0,P|215:261|226:213,1,100
505,107,152220,6,0,B|397:90|424:150|310:134,1,200
403,343,152629,2,0,L|514:335,1,100
318,264,152902,1,0,0:0:0:0:
464,241,153038,2,0,P|471:210|466:167,1,50
395,152,153174,2,0,P|388:183|393:226,1,50
61,351,153311,6,0,P|146:361|213:242,1,200
19,196,153720,2,0,L|143:209,1,100
272,177,153993,1,0,0:0:0:0:
154,21,154129,2,0,P|82:71|100:166,1,150
237,78,154402,6,0,B|343:95|332:76|434:63,1,200
217,175,154811,2,0,P|265:184|335:182,1,100
470,164,155084,1,0,0:0:0:0:
196,266,155220,2,0,P|194:295|220:345,1,50
285,335,155356,2,0,P|287:306|260:256,1,50
238,45,155493,6,0,P|143:45|84:143,1,200
304,195,155902,2,0,L|325:66,1,100
412,74,156174,1,0,0:0:0:0:
322,328,156311,2,0,P|270:330|191:339,1,100
9,186,156584,6,0,P|38:224|197:239,1,200
256,192,156993,1,0,0:0:0:0:
31,358,157129,2,0,P|86:365|155:337,1,100
198,114,157402,2,0,P|176:106|139:101,1,50
87,167,157538,2,0,P|65:176|36:199,1,50
251,328,157674,6,0,L|379:338,1,100
450,345,157947,1,0,0:0:0:0:
227,227,158084,2,0,P|142:338|161:392,1,200
334,234,158493,2,0,P|352:204|345:126,1,100
177,92,158765,6,0,B|101:87|42:32|42:32|45:68|79:95,1,209.999993591309
295,80,159311,6,0,B|351:74|351:74|361:51|383:41|383:41|380:74|403:96|403:96|416:75|437:65|437:65|508:58,1,269.999991760254
348,165,159584,6,0,L|283:172,1,40
220,88,159720,6,0,L|302:79,1,75.0000028610231
480,221,159856,6,0,P|426:272|300:279,1,200
213,239,160265,1,0,0:0:0:0:
126,289,160402,2,0,P|104:329|101:383,1,100
292,180,160674,2,0,P|306:109|263:32,1,150
176,97,160947,6,0,P|131:112|2:29,1,200
79,200,161356,1,0,0:0:0:0:
262,140,161493,2,0,P|274:95|243:25,1,100
341,211,161765,2,0,P|369:228|416:224,1,50
453,281,161902,2,0,P|484:273|515:237,1,50
499,51,162038,6,0,P|449:52|394:113,1,100
241,247,162311,1,0,0:0:0:0:
145,178,162447,1,0,0:0:0:0:
283,35,162584,1,0,0:0:0:0:
264,139,162720,1,0,0:0:0:0:
30,39,162856,2,0,P|99:29|177:114,1,150
135,233,163129,6,0,P|99:171|180:68,1,200
241,247,163538,1,0,0:0:0:0:
120,339,163674,2,0,L|18:332,1,100
313,205,163947,2,0,P|321:224|322:271,1,50
297,373,164084,2,0,P|289:354|288:307,1,50
482,154,164220,6,0,P|488:254|487:354,1,200
385,136,164629,1,0,0:0:0:0:
482,54,164765,2,0,P|450:48|360:31,1,100
193,108,165038,2,0,P|225:102|315:85,1,100
0,88,165311,6,0,P|91:90|157:0,1,200
155,10,165720,1,0,0:0:0:0:
19,199,165856,2,0,L|189:210,1,150
238,217,166129,2,0,P|236:255|233:298,1,50
89,346,166265,2,0,P|90:307|94:265,1,50
315,147,166402,6,0,P|365:166|370:310,1,200
301,362,166811,1,0,0:0:0:0:
211,141,166947,2,0,P|331:123|410:70,1,200
492,185,167356,1,0,0:0:0:0:
181,56,167493,6,0,B|160:40|140:20|140:20|168:85|189:195,1,200
114,275,167902,1,0,0:0:0:0:
282,166,168038,6,0,P|275:131|265:101,2,60
481,31,168584,6,0,P|429:42|378:187,1,200
408,366,168993,2,0,P|441:329|442:248,1,100
254,209,169265,1,0,0:0:0:0:
259,298,169402,2,0,L|370:284,1,100
70,170,169674,6,0,B|41:263|130:254|101:359,1,200
209,107,170084,2,0,P|184:141|167:198,1,100
220,295,170356,1,0,0:0:0:0:
106,42,170493,2,0,P|78:30|36:31,1,50
13,140,170629,2,0,P|37:136|60:125,1,50
329,249,170765,6,0,P|373:239|447:98,1,200
169,55,171174,2,0,L|289:66,1,100
366,37,171447,1,0,0:0:0:0:
207,170,171584,2,0,L|327:159,1,100
461,356,171856,6,0,P|432:327|432:174,1,200
240,299,172265,2,0,P|268:325|345:338,1,100
109,299,172538,1,0,0:0:0:0:
329,225,172674,2,0,P|345:201|350:153,1,50
398,112,172811,2,0,P|380:89|336:69,1,50
20,162,172947,6,0,P|103:214|202:212,1,200
50,16,173356,2,0,P|69:62|129:110,1,100
334,78,173629,1,0,0:0:0:0:
230,23,173765,2,0,L|205:135,1,100
70,365,174038,6,0,P|68:295|17:149,1,200
251,297,174447,1,0,0:0:0:0:
168,353,174583,2,0,L|155:225,1,100
109,41,174856,2,0,P|96:62|84:107,1,50
156,142,174993,2,0,P|171:160|211:186,1,50
373,32,175129,6,0,P|427:34|493:44,1,100
485,43,175402,1,0,0:0:0:0:
276,118,175538,2,0,P|207:102|57:104,1,200
308,233,175947,2,0,P|355:231|422:216,1,100
143,303,176220,6,0,P|115:234|212:277,1,225.000008583069
274,315,176493,1,0,0:0:0:0:
257,347,176561,1,0,0:0:0:0:
313,348,176629,1,0,0:0:0:0:
330,316,176697,1,0,0:0:0:0:
369,349,176765,1,0,0:0:0:0:
425,350,176834,1,0,0:0:0:0:
442,318,176902,1,0,0:0:0:0:
481,351,176970,1,0,0:0:0:0:
481,351,177038,1,0,0:0:0:0:
372,181,177243,1,0,0:0:0:0:
372,181,177311,6,0,P|356:131|455:168,1,200
293,60,177720,2,0,P|245:54|174:24,1,100
66,190,177993,1,0,0:0:0:0:
280,145,178129,2,0,B|174:126|174:126|129:145,1,150
14,304,178402,6,0,P|73:302|206:192,1,200
32,93,178811,1,0,0:0:0:0:
225,323,178947,2,0,P|264:333|350:338,1,100
482,175,179220,2,0,P|484:150|467:110,1,50
397,135,179356,2,0,P|395:160|412:200,1,50
460,349,179493,5,0,0:0:0:0:
351,254,179629,1,0,0:0:0:0:
225,323,179765,1,0,0:0:0:0:
116,228,179902,1,0,0:0:0:0:
173,95,180038,1,0,0:0:0:0:
317,108,180174,1,0,0:0:0:0:
224,331,180311,2,0,P|211:251|197:167,1,150
321,77,180584,6,0,P|287:132|158:146,1,200
29,63,180993,1,0,0:0:0:0:
80,163,181129,1,0,0:0:0:0:
13,350,181265,1,0,0:0:0:0:
93,264,181402,2,0,P|115:254|157:250,1,50
214,257,181538,2,0,P|237:265|257:280,1,50
439,357,181674,6,0,P|447:282|327:201,1,200
303,345,182084,1,0,0:0:0:0:
344,105,182220,2,0,P|402:109|467:121,1,100
242,128,182493,2,0,P|249:78|252:28,1,100
0,176,182765,6,0,B|108:151|71:227|190:205,1,200
102,81,183174,1,0,0:0:0:0:
165,301,183311,2,0,B|262:323|229:255|335:274,1,150
368,323,183584,2,0,P|395:325|425:309,1,50
432,236,183720,2,0,P|405:234|375:250,1,50
109,373,183856,6,0,P|86:303|-7:209,1,200
69,68,184265,1,0,0:0:0:0:
191,175,184402,2,0,P|156:174|86:159,1,100
330,61,184674,2,0,P|295:62|225:77,1,100
175,269,184947,5,0,0:0:0:0:
372,154,185084,1,0,0:0:0:0:
69,68,185220,1,0,0:0:0:0:
337,305,185356,6,0,B|296:325|281:366|281:366|271:278|333:213,1,225.000008583069
501,157,185629,6,0,P|461:167|416:160,1,59.9999981689454
249,109,185765,5,0,0:0:0:0:
265,126,185834,1,0,0:0:0:0:
288,129,185902,1,0,0:0:0:0:
311,124,185970,1,0,0:0:0:0:
389,51,186038,6,0,B|348:36|309:7|309:7|331:84|348:193,1,259.999988098145
444,282,186447,1,0,0:0:0:0:
216,212,186584,2,0,L|102:228,1,100
275,97,186856,2,0,L|389:81,1,100
113,323,187129,6,0,P|43:289|39:167,1,200
155,100,187538,1,0,0:0:0:0:
258,281,187674,2,0,P|252:318|236:384,1,100
359,193,187947,2,0,P|366:214|371:246,1,50
396,278,188084,2,0,P|394:312|386:347,1,50
130,361,188220,6,0,L|347:383,1,200
483,224,188629,1,0,0:0:0:0:
300,278,188765,2,0,P|250:277|200:274,1,100
337,126,189038,2,0,P|386:126|436:129,1,100
126,49,189311,6,0,P|203:56|206:192,1,200
117,237,189720,1,0,0:0:0:0:
45,125,189856,2,0,P|38:83|11:20,1,100
205,249,190129,2,0,P|201:278|180:319,1,50
127,341,190265,2,0,P|98:346|52:338,1,50
4,209,190402,6,0,P|72:213|192:116,1,200
202,45,190811,1,0,0:0:0:0:
373,99,190947,2,0,P|328:105|258:110,1,100
382,213,191220,2,0,P|427:207|497:202,1,100
240,349,191493,6,0,B|119:364|151:314|43:329,1,200
43,329,191902,1,0,0:0:0:0:
282,265,192038,2,0,P|310:232|315:157,1,100
173,51,192311,2,0,P|168:76|189:121,1,50
103,144,192447,2,0,P|118:165|164:181,1,50
396,36,192584,6,0,P|343:25|255:126,1,200
504,156,192993,1,0,0:0:0:0:
306,325,193129,2,0,P|350:358|432:350,1,100
418,143,193402,2,0,P|369:150|330:181,1,100
177,332,193674,6,0,B|165:373|165:373|228:333|216:230,1,179.999994506836
112,167,193947,6,0,B|75:216|21:229|21:229|75:216|131:252,1,225.000008583069
235,100,194220,6,0,B|258:69|296:50|296:50|198:15|113:80|113:80|151:86|192:129,1,300
196,176,194493,5,0,0:0:0:0:
486,328,194697,5,0,0:0:0:0:
463,353,194765,2,0,P|445:303|455:140,1,200
337,15,195174,2,0,P|357:57|348:147,1,100
199,226,195447,1,0,0:0:0:0:
340,289,195584,1,0,0:0:0:0:
244,88,195720,1,0,0:0:0:0:
33,105,195856,6,0,P|9:154|116:212,1,200
99,21,196265,2,0,L|-28:33,1,100
230,12,196538,1,0,0:0:0:0:
26,141,196674,2,0,P|55:149|85:147,1,50
207,110,196811,2,0,P|182:110|158:117,1,50
26,331,196947,6,0,P|85:357|225:340,1,200
307,157,197356,2,0,P|277:205|255:258,1,100
485,343,197629,1,0,0:0:0:0:
449,240,197765,2,0,P|393:252|340:274,1,100
277,55,198038,6,0,P|333:67|386:89,1,100
454,148,198311,1,0,0:0:0:0:
157,244,198447,2,0,P|144:176|173:50,1,200
271,156,198856,2,0,P|248:145|227:131,1,50
66,127,198993,2,0,P|69:102|75:78,1,50
381,27,199129,6,0,B|448:60|448:60|429:127|429:127|449:200,1,200
416,371,199538,1,0,0:0:0:0:
380,277,199674,2,0,P|445:285|490:299,1,100
245,355,199947,2,0,P|196:367|146:372,1,100
20,178,200220,6,0,P|109:180|226:210,1,200
216,206,200629,1,0,0:0:0:0:
304,122,200765,2,0,P|298:72|287:23,1,100
49,61,201038,2,0,P|76:61|114:68,1,50
166,103,201174,2,0,P|193:103|231:110,1,50
458,333,201311,6,0,P|464:262|332:202,1,200
216,206,201720,1,0,0:0:0:0:
304,122,201856,1,0,0:0:0:0:
209,333,201993,1,0,0:0:0:0:
59,164,202129,2,0,P|90:154|179:144,1,100
383,361,202402,5,0,0:0:0:0:
486,200,202538,1,0,0:0:0:0:
357,279,202674,1,0,0:0:0:0:
255,122,202811,1,0,0:0:0:0:
380,183,202947,5,0,0:0:0:0:
396,199,203015,2,0,B|406:143|447:105|447:105|416:109|392:134,1,150.000005722046
295,197,203220,2,0,P|317:275|320:404,1,179.999994506836
230,43,203493,6,0,B|278:24|278:24|338:57,1,100
409,120,203765,1,0,0:0:0:0:
173,238,203902,2,0,L|45:232,1,100
125,103,204174,1,0,0:0:0:0:
268,247,204311,2,0,P|279:306|259:362,1,100
73,233,204584,6,0,B|52:128|129:147|98:41,1,200
9,115,204993,2,0,P|100:156|202:105,1,200
370,31,205402,2,0,P|325:43|282:117,1,100
470,237,205674,6,0,P|481:194|487:129,1,100
342,195,205947,1,0,0:0:0:0:
454,365,206084,2,0,P|411:320|251:312,1,200
86,346,206493,2,0,P|135:351|185:353,1,100
172,182,206765,6,0,B|121:174|98:125|98:125|47:114|0:146,1,200
281,36,207174,2,0,P|199:5|185:92,1,200
367,133,207584,2,0,P|317:132|271:149,1,100
23,222,207856,6,0,P|29:159|13:89,1,100
2,20,208129,1,0,0:0:0:0:
122,181,208265,2,0,P|116:244|131:382,1,200
5,315,208674,2,0,L|104:302,1,100
467,295,208947,6,0,P|450:345|326:284,1,200
291,132,209356,2,0,P|342:121|351:259,1,200
159,210,209765,2,0,P|212:212|257:248,1,100
450,86,210038,6,0,P|385:44|339:41,1,100
245,75,210311,1,0,0:0:0:0:
133,221,210447,2,0,L|155:2,1,200
261,202,210856,2,0,P|268:253|263:302,1,100
39,361,211129,6,0,P|100:363|175:255,1,200
31,72,211538,2,0,P|70:167|75:265,1,200
371,51,211947,5,0,0:0:0:0:
164,167,212084,1,0,0:0:0:0:
470,367,212220,6,0,P|487:309|474:230,1,100
465,150,212493,1,0,0:0:0:0:
231,35,212629,2,0,P|242:110|357:138,1,200
481,69,213038,2,0,P|444:62|383:42,1,100
229,355,213311,6,0,P|169:331|16:319,1,200
310,255,213720,2,0,P|409:249|503:216,1,200
176,121,214129,2,0,P|188:170|199:219,1,100
19,48,214402,6,0,L|153:39,1,100
253,30,214674,1,0,0:0:0:0:
183,331,214811,2,0,L|170:131,1,200
369,102,215220,2,0,P|349:113|256:122,1,100
7,169,215493,6,0,P|48:196|78:236,1,100
91,343,215765,1,0,0:0:0:0:
290,234,215902,2,0,P|362:218|449:338,1,200
247,323,216311,2,0,P|221:305|192:223,1,100
447,54,216584,6,0,P|384:127|289:117,1,200
31,115,216993,1,0,0:0:0:0:
115,26,217129,2,0,L|221:43,1,100
256,205,217402,2,0,L|354:189,1,100
478,65,217674,6,0,P|435:131|414:251,1,200
413,248,218084,1,0,0:0:0:0:
293,120,218220,2,0,P|293:174|332:253,1,100
490,329,218424,1,0,0:0:0:0:
490,329,218493,2,0,P|438:345|375:407,1,100
202,364,218765,6,0,P|168:293|53:248,1,200
60,247,219174,1,0,0:0:0:0:
173,151,219311,2,0,P|184:129|177:39,1,100
50,38,219584,2,0,P|39:60|46:150,1,100
272,226,219856,1,0,0:0:0:0:
280,106,219993,1,0,0:0:0:0:
173,312,220129,5,0,0:0:0:0:
195,347,220197,1,0,0:0:0:0:
219,350,220265,1,0,0:0:0:0:
250,317,220334,1,0,0:0:0:0:
272,352,220402,1,0,0:0:0:0:
296,355,220470,1,0,0:0:0:0:
320,358,220538,2,0,L|398:365,1,50
500,225,220674,2,0,P|434:228|388:238,1,100
368,248,220879,1,0,0:0:0:0:
336,262,220947,6,0,P|309:218|323:57,1,200
127,32,221356,2,0,P|193:35|239:45,1,100
406,111,221629,1,0,0:0:0:0:
204,170,221765,2,0,P|138:167|92:157,1,100
48,343,222038,6,0,P|138:346|209:258,1,200
22,108,222447,2,0,P|80:153|121:161,1,100
226,41,222720,1,0,0:0:0:0:
91,328,222856,2,0,P|72:328|28:310,1,50
60,238,222993,2,0,P|79:238|123:256,1,50
309,367,223129,6,0,P|397:360|526:353,1,200
276,196,223538,2,0,P|296:247|358:283,1,100
481,179,223811,2,0,P|472:228|440:266,1,100
324,96,224084,2,0,P|370:79|419:88,1,100
151,32,224356,2,0,P|171:77|212:107,1,100
39,270,224629,6,0,P|97:284|213:216,1,200
103,23,225038,2,0,P|92:46|87:112,1,50
16,107,225174,2,0,P|24:131|67:181,1,50
292,34,225311,6,0,P|408:30|490:51,1,200
416,151,225720,2,0,P|408:203|407:298,1,100
228,111,225993,2,0,P|280:119|375:120,1,100
299,319,226265,2,0,P|307:267|308:172,1,100
106,202,226538,2,0,P|158:210|253:211,1,100
13,32,226811,6,0,P|55:100|165:96,1,200
282,24,227220,2,0,P|308:42|323:89,1,50
400,53,227356,2,0,P|405:84|383:127,1,50
217,328,227493,6,0,P|218:263|269:128,1,200
432,266,227902,2,0,P|398:251|321:226,1,100
120,202,228174,1,0,0:0:0:0:
368,117,228311,2,0,P|416:92|457:49,1,100
120,202,228584,6,0,P|152:245|282:309,1,200
80,88,228993,2,0,P|44:123|8:188,1,100
40,313,229265,1,0,0:0:0:0:
298,132,229402,2,0,P|266:118|210:119,1,50
192,185,229538,2,0,P|224:199|280:198,1,50
479,358,229674,6,0,P|464:277|380:183,1,200
220,375,230084,2,0,P|248:352|285:287,1,100
259,80,230356,1,0,0:0:0:0:
57,192,230493,2,0,L|178:208,1,100
448,51,230765,6,0,P|400:78|247:75,1,200
39,49,231174,2,0,P|106:52|144:103,1,100
179,257,231447,1,0,0:0:0:0:
13,224,231584,2,0,P|62:178|125:187,1,100
474,336,231856,6,0,L|432:157,1,179.999994506836
343,22,232129,6,0,L|443:175,1,165.000005035401
288,326,232402,6,0,L|370:161,1,150
248,111,232674,6,0,L|382:211,1,134.999995880127,0|0,0:0|0:0,0:0:0:0:
213,287,232947,6,0,L|265:237,1,40
158,152,233084,6,0,L|192:162,1,34.9999989318848
127,257,233220,6,0,L|157:237,1,29.9999990844727
93,174,233356,6,0,L|128:171,1,25
63,237,233493,6,0,L|98:234,1,20
23,201,233629,6,0,L|40:200,1,14.9999995422363
1,223,233765,6,0,L|28:222,1,20
