osu file format v14

[General]
AudioFilename: audio.mp3
AudioLeadIn: 0
PreviewTime: 355568
Countdown: 0
SampleSet: Normal
StackLeniency: 0
Mode: 1
LetterboxInBreaks: 0
WidescreenStoryboard: 0

[Editor]
Bookmarks: 41145,51908,148769,165349
DistanceSpacing: 2.6
BeatDivisor: 16
GridSize: 32
TimelineZoom: 3.699998

[Metadata]
Title:SOUND OF GRINDING A POLITICIAN'S SKULL INTO A FINE POWDER (FEAT. JOHNNASCUS)
TitleUnicode:SOUND OF GRINDING A POLITICIAN'S SKULL INTO A FINE POWDER (FEAT. JOHNNASCUS)
Artist:Lil Darkie
ArtistUnicode:Lil Darkie
Creator:koul
Version:REGICIDE
Source:
Tags:trap metal rock electronic rap hip hop english FT. lildvrkie prod. WENDIGO spider gang experimental swamp
BeatmapID:4267611
BeatmapSetID:2044694

[Difficulty]
HPDrainRate:5.5
CircleSize:2
OverallDifficulty:6
ApproachRate:10
SliderMultiplier:1.4
SliderTickRate:1

[Events]
//Background and Video events
0,0,"bg.jpg",0,0
//Break Periods
2,355599,395845
//Storyboard Layer 0 (Background)
//Storyboard Layer 1 (Fail)
//Storyboard Layer 2 (Pass)
//Storyboard Layer 3 (Foreground)
//Storyboard Layer 4 (Overlay)
//Storyboard Sound Samples

[TimingPoints]
243,269.058295964126,4,1,0,20,1,0
243,-142.857142857143,4,1,0,20,0,0
1314,-128.98568162676,4,1,0,26,0,0
2390,-117.569642465453,4,1,0,31,0,0
3466,-108.010075566751,4,1,0,37,0,0
4542,-99.8881848676854,4,1,0,43,0,0
5619,-92.8962932472541,4,1,0,49,0,0
6695,-86.8244679774029,4,1,0,54,0,0
7771,-81.4976717666065,4,1,0,60,0,0
8819,-76.9230769230769,4,1,0,100,0,0
9116,-76.9230769230769,4,1,0,100,0,0
9357,-142.857142857143,4,1,0,100,0,0
10433,-76.9230769230769,4,1,0,100,0,0
11509,-143.36209585196,4,1,0,100,0,0
11874,-148.551114941291,4,1,0,100,0,0
12076,-151.855522519546,4,1,0,100,0,0
12211,-154.14710485133,4,1,0,100,0,0
12480,-158.925896047021,4,1,0,100,0,0
12749,-164.010466222645,4,1,0,100,0,0
12883,-166.666666666667,4,1,0,100,0,0
13124,-76.9230769230769,4,1,0,100,0,0
14200,-143.36209585196,4,1,0,100,0,0
14738,-75.3895397896482,4,1,0,100,0,0
14873,-73.5017755645135,4,1,0,100,0,0
15007,-71.6931718260561,4,1,0,100,0,0
15276,-68.3423303035311,4,1,0,100,0,0
15814,-62.5,4,1,0,100,0,0
16151,-142.857142857143,4,1,0,100,0,0
16352,-147.063110333771,4,1,0,100,0,0
16487,-150.014867677669,4,1,0,100,0,0
16756,-156.264519126529,4,1,0,100,0,0
17025,-163.05753070459,4,1,0,100,0,0
17160,-166.666666666667,4,1,0,100,0,0
17429,-76.9230769230769,4,1,0,100,0,0
18505,-142.857142857143,4,1,0,100,0,0
19043,-75.3895397896482,4,1,0,100,0,0
19178,-73.5017755645135,4,1,0,100,0,0
19312,-71.6931718260561,4,1,0,100,0,0
19581,-68.3423303035311,4,1,0,100,0,0
20119,-142.857142857143,4,1,0,100,0,0
20388,-147.058823529412,4,1,0,100,0,0
20657,-151.515151515152,4,1,0,100,0,0
20791,-153.837355598765,4,1,0,100,0,0
21061,-158.739525551753,4,1,0,100,0,0
21330,-163.944417357387,4,1,0,100,0,0
21464,-166.666666666667,4,1,0,100,0,0
21734,-76.9230769230769,4,1,0,100,0,0
22810,-142.857142857143,4,1,0,100,0,0
23348,-75.3895397896482,4,1,0,100,0,0
23483,-73.5017755645135,4,1,0,100,0,0
23617,-71.6931718260561,4,1,0,100,0,0
23886,-68.3423303035311,4,1,0,100,0,0
24357,-166.666666666667,4,1,0,100,0,0
24963,-142.857142857143,4,1,0,100,0,0
25097,-148.909263357572,4,1,0,100,0,0
25232,-155.54821664465,4,1,0,100,0,0
25366,-162.750518313753,4,1,0,100,0,0
25501,-170.714026821312,4,1,0,100,0,0
25636,-179.496951219512,4,1,0,100,0,0
25770,-189.156626506024,4,1,0,100,0,0
25905,-200,4,1,0,100,0,0
26039,-125,4,1,0,100,0,0
26174,-128.217349857007,4,1,0,100,0,0
26308,-131.578947368421,4,1,0,100,0,0
26443,-135.148713826367,4,1,0,100,0,0
26577,-138.888888888889,4,1,0,100,0,0
26712,-142.872317824517,4,1,0,100,0,0
26846,-147.058823529412,4,1,0,100,0,0
27115,-156.25,4,1,0,100,0,0
27384,-166.666666666667,4,1,0,100,0,0
27653,-125,4,1,0,100,0,0
27788,-127.667984189723,4,1,0,100,0,0
27923,-130.452342487884,4,1,0,100,0,0
28057,-133.338837516513,4,1,0,100,0,0
28192,-136.378990035467,4,1,0,100,0,0
28326,-139.536893036115,4,1,0,100,0,0
28461,-142.869780608634,4,1,0,100,0,0
28730,-150.009288500836,4,1,0,100,0,0
28999,-157.89988267501,4,1,0,100,0,0
29268,-166.666666666667,4,1,0,100,0,0
29806,-200,4,1,0,100,0,0
30344,-125,4,1,0,100,0,0
30479,-126.588235294118,4,1,0,100,0,0
30748,-129.8764001545,4,1,0,100,0,0
31017,-133.339942500248,4,1,0,100,0,0
31151,-135.135135135135,4,1,0,100,0,0
31420,-138.888888888889,4,1,0,100,0,0
31689,-142.857142857143,4,1,0,100,0,0
31958,-125,4,1,0,100,0,0
32093,-127.667984189723,4,1,0,100,0,0
32227,-130.431271200129,4,1,0,100,0,0
32362,-133.338837516513,4,1,0,100,0,0
32496,-136.355960824046,4,1,0,100,0,0
32631,-139.536893036115,4,1,0,100,0,0
32766,-142.869780608634,4,1,0,100,0,0
33035,-150.009288500836,4,1,0,100,0,0
33304,-157.89988267501,4,1,0,100,0,0
33573,-166.666666666667,4,1,0,100,0,0
34111,-200,4,1,0,100,0,0
34245,-196.216826651609,4,1,0,100,0,0
34380,-192.547444244355,4,1,0,100,0,0
34514,-189.038487692098,4,1,0,100,0,0
34649,-185.630341880342,4,1,0,100,0,0
35187,-173.187141789185,4,1,0,100,0,0
35322,-170.322264428379,4,1,0,100,0,0
35725,-162.307333021952,4,1,0,100,0,0
35860,-159.788481434648,4,1,0,100,0,0
35994,-157.364428846372,4,1,0,100,0,0
36129,-154.995539696699,4,1,0,100,0,0
36263,-152.713689299055,4,1,0,100,0,0
36801,-144.190871369295,4,1,0,100,0,0
36936,-142.199488491049,4,1,0,100,0,0
37070,-140.276516298315,4,1,0,100,0,0
37205,-138.391079251294,4,1,0,100,0,0
37340,-136.555653797033,4,1,0,100,0,0
37474,-134.781343934839,4,1,0,100,0,0
37609,-133.039816232772,4,1,0,100,0,0
37743,-131.355131355131,4,1,0,100,0,0
37878,-129.700475879444,4,1,0,100,0,0
38012,-128.098792737996,4,1,0,100,0,0
38147,-126.524667758966,4,1,0,100,0,0
38281,-125,4,1,0,100,0,0
38416,-118.405627198124,4,1,0,100,0,0
38483,-115.384615384615,4,1,0,100,0,0
38550,-112.513924990717,4,1,0,100,0,0
38618,-109.74284679464,4,1,0,100,0,0
38685,-107.142857142857,4,1,0,100,0,0
38752,-104.663212435233,4,1,0,100,0,0
38819,-102.295746117488,4,1,0,100,0,0
38887,-100,4,1,0,100,0,0
38954,-76.9230769230769,4,1,0,100,0,0
40029,-142.857142857143,4,1,0,100,0,0
40567,-147.057216241325,4,1,0,100,0,0
41105,-151.511739203874,4,1,0,100,0,0
42182,-161.292256053704,4,1,0,100,0,0
42720,-76.9230769230769,4,1,0,100,0,0
44334,-142.857142857143,4,1,0,100,0,0
45410,-151.511739203874,4,1,0,100,0,0
46487,-161.292256053704,4,1,0,100,0,0
47025,-166.666666666667,4,1,0,100,0,0
47563,-76.9230769230769,4,1,0,100,0,0
48169,-125.439624853458,4,1,0,100,0,0
48304,-127.270761245675,4,1,0,100,0,0
48505,-130.098375151984,4,1,0,100,0,0
48640,-132.069120287253,4,1,0,100,0,0
48842,-135.132032146957,4,1,0,100,0,0
49111,-139.438455159341,4,1,0,100,0,0
49380,-144.028389623103,4,1,0,100,0,0
49514,-146.429460064693,4,1,0,100,0,0
49716,-150.204185809086,4,1,0,100,0,0
50489,-166.666666666667,4,1,0,100,0,0
50792,-125,4,1,0,100,0,0
50860,-127.382286995516,4,1,0,100,0,0
50961,-131.093164118835,4,1,0,100,0,0
51129,-137.769020915429,4,1,0,100,0,0
51331,-146.754924120116,4,1,0,100,0,0
51499,-155.172413793103,4,1,0,100,0,0
51701,-166.666666666667,4,1,0,100,0,0
51868,-76.9230769230769,4,1,0,100,0,0
52944,-142.857142857143,4,1,0,100,0,0
54020,-153.846153846154,4,1,0,100,0,0
55096,-166.666666666667,4,1,0,100,0,0
55652,-99.283305227656,4,1,0,100,0,0
55719,-96.5559655596556,4,1,0,100,0,0
55786,-93.974461292897,4,1,0,100,0,0
55853,-91.5273999222697,4,1,0,100,0,0
55921,-89.1707686482393,4,1,0,100,0,0
55988,-86.9645494830133,4,1,0,100,0,0
56055,-84.8648648648649,4,1,0,100,0,0
56123,-83.3333333333333,4,1,0,100,0,0
56202,-76.9230769230769,4,1,0,100,0,0
56341,-90.9796542396801,4,1,0,100,0,0
56700,-93.344273372267,4,1,0,100,0,0
56879,-94.5698149189506,4,1,0,100,0,0
57238,-97.1273603856971,4,1,0,100,0,0
57417,-98.4549596558658,4,1,0,100,0,0
57776,-101.230044490971,4,1,0,100,0,0
58314,-105.694611432944,4,1,0,100,0,0
58493,-107.268643057212,4,1,0,100,0,0
58852,-110.571150877594,4,1,0,100,0,0
59032,-112.304744207653,4,1,0,100,0,0
59390,-115.91944377847,4,1,0,100,0,0
59928,-121.811425332242,4,1,0,100,0,0
60063,-123.385115952662,4,1,0,100,0,0
60198,-125,4,1,0,100,0,0
60467,-76.9230769230769,4,1,0,100,0,0
61554,-142.857142857143,4,1,0,100,0,0
62630,-150.684931506849,4,1,0,100,0,0
63168,-154.929577464789,4,1,0,100,0,0
63706,-159.420289855072,4,1,0,100,0,0
64244,-164.179104477612,4,1,0,100,0,0
64379,-165.418157423971,4,1,0,100,0,0
64513,-166.666666666667,4,1,0,100,0,0
64811,-76.9230769230769,4,1,0,100,0,0
64951,-89.143865842895,4,1,0,100,0,0
65321,-93.1826052540444,4,1,0,100,0,0
65500,-94.4370628494071,4,1,0,100,0,0
65859,-97.0576110481294,4,1,0,100,0,0
66038,-98.4193337687786,4,1,0,100,0,0
66397,-101.268885423947,4,1,0,100,0,0
66935,-105.862185251799,4,1,0,100,0,0
67114,-107.484235455246,4,1,0,100,0,0
67473,-110.891963497203,4,1,0,100,0,0
67652,-112.673107408848,4,1,0,100,0,0
68011,-116.423538138212,4,1,0,100,0,0
68549,-122.535944310715,4,1,0,100,0,0
68729,-125.745808586332,4,1,0,100,0,0
69088,-166.666666666667,4,1,0,100,0,0
73393,-125,4,1,0,100,0,0
73528,-127.459554000875,4,1,0,100,0,0
73662,-129.998513453248,4,1,0,100,0,0
73797,-132.660800970874,4,1,0,100,0,0
73931,-135.413440693713,4,1,0,100,0,0
74066,-138.304602245769,4,1,0,100,0,0
74201,-141.321913380737,4,1,0,100,0,0
74336,-144.47381463737,4,1,0,100,0,0
74470,-147.744551444501,4,1,0,100,0,0
74605,-151.192946058091,4,1,0,100,0,0
74739,-154.778761061947,4,1,0,100,0,0
74874,-158.56754306437,4,1,0,100,0,0
75142,-166.666666666667,4,1,0,100,0,0
75545,-125.528738492162,4,1,0,100,0,0
75680,-127.673035556118,4,1,0,100,0,0
75814,-129.875144806281,4,1,0,100,0,0
75949,-132.171862719413,4,1,0,100,0,0
76083,-134.533333333333,4,1,0,100,0,0
76218,-136.999321113374,4,1,0,100,0,0
76352,-139.538099847877,4,1,0,100,0,0
76487,-142.192784667418,4,1,0,100,0,0
76621,-144.929617925883,4,1,0,100,0,0
76756,-147.795517796983,4,1,0,100,0,0
76890,-150.754519647393,4,1,0,100,0,0
77025,-153.857883501067,4,1,0,100,0,0
77159,-157.067247820672,4,1,0,100,0,0
77294,-160.438861504214,4,1,0,100,0,0
77428,-163.931762794476,4,1,0,100,0,0
77563,-166.666666666667,4,1,0,100,0,0
77698,-125,4,1,0,100,0,0
77833,-127.459554000875,4,1,0,100,0,0
77967,-129.998513453248,4,1,0,100,0,0
78102,-132.660800970874,4,1,0,100,0,0
78237,-135.434412265758,4,1,0,100,0,0
78371,-138.304602245769,4,1,0,100,0,0
78506,-141.321913380737,4,1,0,100,0,0
78640,-144.449950445986,4,1,0,100,0,0
78775,-147.744551444501,4,1,0,100,0,0
78909,-151.166810717372,4,1,0,100,0,0
79044,-154.778761061947,4,1,0,100,0,0
79178,-158.538796229152,4,1,0,100,0,0
79313,-162.516260918045,4,1,0,100,0,0
79447,-166.666666666667,4,1,0,100,0,0
79850,-125,4,1,0,100,0,0
79985,-127.917026793431,4,1,0,100,0,0
80119,-130.950274287737,4,1,0,100,0,0
80254,-134.155184916606,4,1,0,100,0,0
80388,-137.495354886659,4,1,0,100,0,0
80523,-141.032971221651,4,1,0,100,0,0
80657,-144.729121846274,4,1,0,100,0,0
80791,-148.624221731271,4,1,0,100,0,0
80926,-152.766308835673,4,1,0,100,0,0
81061,-157.145890847314,4,1,0,100,0,0
81195,-161.748633879781,4,1,0,100,0,0
81330,-166.666666666667,4,1,0,100,0,0
81464,-125,4,1,0,100,0,0
81599,-120.676402767102,4,1,0,100,0,0
81733,-116.67079514491,4,1,0,100,0,0
81800,-114.766081871345,4,1,0,100,0,0
81868,-112.895493767977,4,1,0,100,0,0
81935,-111.111111111111,4,1,0,100,0,0
82036,-86.9565217391304,4,1,0,100,0,1
82137,-87.572697306263,4,1,0,100,0,1
82204,-87.8817567923475,4,1,0,100,0,1
82271,-88.1930054552375,4,1,0,100,0,1
82406,-88.8268929754134,4,1,0,100,0,1
82540,-89.4651609236082,4,1,0,100,0,1
82608,-89.7925793569637,4,1,0,100,0,1
82675,-90.1175352173537,4,1,0,100,0,1
82742,-90.4448516257739,4,1,0,100,0,1
82809,-90.7745543972665,4,1,0,100,0,1
82944,-91.4462361465858,4,1,0,100,0,1
83078,-92.122845184588,4,1,0,100,0,1
83146,-92.4700431201711,4,1,0,100,0,1
83213,-92.8147043770444,4,1,0,100,0,1
83348,-93.5170341804648,4,1,0,100,0,1
83415,-93.8695593464464,4,1,0,100,0,1
83482,-94.2247523522302,4,1,0,100,0,1
83549,-94.5826435973605,4,1,0,100,0,1
83617,-94.9486671674748,4,1,0,100,0,1
83684,-95.3120893936451,4,1,0,100,0,1
83751,-95.6783043538102,4,1,0,100,0,1
83886,-96.4248147677228,4,1,0,100,0,1
83953,-96.7996472417555,4,1,0,100,0,1
84020,-97.1774052630966,4,1,0,100,0,1
84155,-97.9475859477738,4,1,0,100,0,1
84222,-98.3343745947921,4,1,0,100,0,1
84289,-98.7242301592937,4,1,0,100,0,1
84385,-99.1171892636907,4,1,0,100,0,1
84424,-99.519225033702,4,1,0,100,0,1
84491,-99.9185511690303,4,1,0,100,0,1
84558,-100.321094849254,4,1,0,100,0,1
84693,-101.142122747884,4,1,0,100,0,1
84789,-101.55460599199,4,1,0,100,0,1
84827,-101.970467435948,4,1,0,100,0,1
84962,-102.818828343584,4,1,0,100,0,1
85029,-103.245129829946,4,1,0,100,0,1
85096,-103.674981047189,4,1,0,100,0,1
85231,-104.552062966862,4,1,0,100,0,1
85298,-104.992888877701,4,1,0,100,0,1
85365,-105.437447862686,4,1,0,100,0,1
85433,-105.892508060626,4,1,0,100,0,1
85500,-106.344734393126,4,1,0,100,0,1
85567,-106.800839862754,4,1,0,100,0,1
85635,-107.267770805473,4,1,0,100,0,1
85702,-107.731845595547,4,1,0,100,0,1
85769,-108.199953306182,4,1,0,100,0,1
85836,-108.67214673736,4,1,0,100,0,1
85904,-109.155620690106,4,1,0,100,0,1
85971,-109.636210703396,4,1,0,100,0,1
86038,-110.121051311499,4,1,0,100,0,1
86173,-111.111111111111,4,1,0,100,0,1
86307,-87.1586123357325,4,1,0,100,0,1
86442,-87.9952219788971,4,1,0,100,0,1
86576,-88.8416700166542,4,1,0,100,0,1
86643,-89.2710301946131,4,1,0,100,0,1
86711,-89.7110631079925,4,1,0,100,0,1
86845,-90.5910082422007,4,1,0,100,0,1
86913,-91.0441832065561,4,1,0,100,0,1
86980,-91.4951502247457,4,1,0,100,0,1
87047,-91.9506070107137,4,1,0,100,0,1
87114,-92.4106209491951,4,1,0,100,0,1
87249,-93.3516375759953,4,1,0,100,0,1
87383,-94.304829541125,4,1,0,100,0,1
87451,-94.7960231015518,4,1,0,100,0,1
87518,-95.2850235594838,4,1,0,100,0,1
87652,-96.2783171521036,4,1,0,100,0,1
87720,-96.7903397359695,4,1,0,100,0,1
87787,-97.3001871157445,4,1,0,100,0,1
87922,-98.3439814373351,4,1,0,100,0,1
87989,-98.8703724415613,4,1,0,100,0,1
88056,-99.4024288376277,4,1,0,100,0,1
88123,-99.9402425828125,4,1,0,100,0,1
88191,-100.492066843139,4,1,0,100,0,1
88258,-101.041768720812,4,1,0,100,0,1
88325,-101.597517526721,4,1,0,100,0,1
88460,-102.736087129765,4,1,0,100,0,1
88527,-103.310683339733,4,1,0,100,0,1
88594,-103.891743057654,4,1,0,100,0,1
88729,-105.08261585749,4,1,0,100,0,1
88796,-105.683836589698,4,1,0,100,0,1
88863,-106.291976570418,4,1,0,100,0,1
88998,-107.538841194258,4,1,0,100,0,1
89065,-108.168580768088,4,1,0,100,0,1
89132,-108.805739203826,4,1,0,100,0,1
89200,-109.460128776622,4,1,0,100,0,1
89267,-110.11263946474,4,1,0,100,0,1
89334,-110.772976262934,4,1,0,100,0,1
89401,-111.111111111111,4,1,0,100,0,1
89536,-100,4,1,0,100,0,1
89805,-83.3333333333333,4,1,0,100,0,1
90074,-71.4285714285714,4,1,0,100,0,1
90343,-62.5,4,1,0,100,0,1
90612,-86.9565217391304,4,1,0,100,0,1
90679,-87.5887063521344,4,1,0,100,0,1
90747,-88.2397953606332,4,1,0,100,0,1
90814,-88.8908466214431,4,1,0,100,0,1
90881,-89.5515764716324,4,1,0,100,0,1
91016,-90.9131864666396,4,1,0,100,0,1
91083,-91.6044395015774,4,1,0,100,0,1
91150,-92.3062848778703,4,1,0,100,0,1
91217,-93.0189679411832,4,1,0,100,0,1
91285,-93.7536295848916,4,1,0,100,0,1
91419,-95.2358479435569,4,1,0,100,0,1
91487,-96.006089583482,4,1,0,100,0,1
91554,-96.7772875503549,4,1,0,100,0,1
91688,-98.3574596675927,4,1,0,100,0,1
91756,-99.1792401828279,4,1,0,100,0,1
91823,-100.002477762085,4,1,0,100,0,1
91957,-101.690644763033,4,1,0,100,0,1
92025,-102.569315611578,4,1,0,100,0,1
92092,-103.450043574102,4,1,0,100,0,1
92226,-105.257667431671,4,1,0,100,0,1
92294,-106.199347437112,4,1,0,100,0,1
92361,-107.143805251002,4,1,0,100,0,1
92428,-108.105212406921,4,1,0,100,0,1
92495,-109.084029298089,4,1,0,100,0,1
92563,-110.095747292616,4,1,0,100,0,1
92630,-111.111111111111,4,1,0,100,0,1
92765,-86.9565217391304,4,1,0,100,0,1
92832,-87.5890220601008,4,1,0,100,0,1
92899,-88.2307911025568,4,1,0,100,0,1
92966,-88.882034107434,4,1,0,100,0,1
93034,-89.5529014784887,4,1,0,100,0,1
93168,-90.904993690283,4,1,0,100,0,1
93235,-91.5964669285439,4,1,0,100,0,1
93303,-92.3091004782499,4,1,0,100,0,1
93370,-93.0221832772218,4,1,0,100,0,1
93437,-93.7463688968418,4,1,0,100,0,1
93572,-95.2403437529512,4,1,0,100,0,1
93639,-95.9996192380001,4,1,0,100,0,1
93706,-96.7710982104304,4,1,0,100,0,1
93841,-98.3638536002536,4,1,0,100,0,1
93908,-99.173960074737,4,1,0,100,0,1
93975,-99.9975211323467,4,1,0,100,0,1
94110,-101.699188221651,4,1,0,100,0,1
94177,-102.565406422415,4,1,0,100,0,1
94244,-103.446507334086,4,1,0,100,0,1
94379,-105.268651653141,4,1,0,100,0,1
94446,-106.19701995472,4,1,0,100,0,1
94513,-107.141908581445,4,1,0,100,0,1
94581,-108.118249309855,4,1,0,100,0,1
94648,-109.097793163133,4,1,0,100,0,1
94715,-110.095248492126,4,1,0,100,0,1
94782,-111.111111111111,4,1,0,100,0,1
94917,-86.9565217391304,4,1,0,100,0,1
94984,-87.5887063521344,4,1,0,100,0,1
95052,-88.2397953606332,4,1,0,100,0,1
95119,-88.8908466214431,4,1,0,100,0,1
95186,-89.5515764716324,4,1,0,100,0,1
95321,-90.9131864666396,4,1,0,100,0,1
95388,-91.6044395015774,4,1,0,100,0,1
95455,-92.3062848778703,4,1,0,100,0,1
95522,-93.0189679411832,4,1,0,100,0,1
95590,-93.7536295848916,4,1,0,100,0,1
95724,-95.2358479435569,4,1,0,100,0,1
95792,-96.006089583482,4,1,0,100,0,1
95859,-96.7772875503549,4,1,0,100,0,1
95993,-98.3574596675927,4,1,0,100,0,1
96061,-99.1792401828279,4,1,0,100,0,1
96128,-100.002477762085,4,1,0,100,0,1
96262,-101.690644763033,4,1,0,100,0,1
96330,-102.569315611578,4,1,0,100,0,1
96397,-103.450043574102,4,1,0,100,0,1
96531,-105.257667431671,4,1,0,100,0,1
96599,-106.199347437112,4,1,0,100,0,1
96666,-107.143805251002,4,1,0,100,0,1
96733,-108.105212406921,4,1,0,100,0,1
96800,-109.084029298089,4,1,0,100,0,1
96868,-110.095747292616,4,1,0,100,0,1
96935,-111.111111111111,4,1,0,100,0,1
97070,-86.9685639108157,4,1,0,100,0,1
97137,-87.783058428851,4,1,0,100,0,1
97204,-88.6129532947651,4,1,0,100,0,1
97271,-89.4586894586895,4,1,0,100,0,1
97339,-90.3337169159954,4,1,0,100,0,1
97473,-92.1091229099443,4,1,0,100,0,1
97540,-93.0232558139535,4,1,0,100,0,1
97608,-93.9697740535688,4,1,0,100,0,1
97675,-94.9214026602177,4,1,0,100,0,1
97742,-95.8925026721637,4,1,0,100,0,1
97877,-97.9108200810727,4,1,0,100,0,1
97944,-98.9443831731527,4,1,0,100,0,1
98011,-100,4,1,0,100,0,1
98146,-111.111111111111,4,1,0,100,0,1
98213,-110.238987816307,4,1,0,100,0,1
98280,-109.380448680693,4,1,0,100,0,1
98348,-108.52266174605,4,1,0,100,0,1
98415,-107.690547035935,4,1,0,100,0,1
98482,-106.8710959682,4,1,0,100,0,1
98549,-106.064021641118,4,1,0,100,0,1
98617,-105.257270693512,4,1,0,100,0,1
98684,-104.474297768402,4,1,0,100,0,1
98751,-103.702887370509,4,1,0,100,0,1
98818,-102.942785253255,4,1,0,100,0,1
98886,-102.182647410142,4,1,0,100,0,1
98953,-101.444588184562,4,1,0,100,0,1
99087,-100,4,1,0,100,0,1
99222,-86.9565217391304,4,1,0,100,0,1
99289,-87.5887063521344,4,1,0,100,0,1
99356,-88.2301504022386,4,1,0,100,0,1
99424,-88.8908466214431,4,1,0,100,0,1
99491,-89.5515764716324,4,1,0,100,0,1
99626,-90.9131864666396,4,1,0,100,0,1
99693,-91.6044395015774,4,1,0,100,0,1
99760,-92.3062848778703,4,1,0,100,0,1
99827,-93.0189679411832,4,1,0,100,0,1
99895,-93.7536295848916,4,1,0,100,0,1
100029,-95.2358479435569,4,1,0,100,0,1
100096,-95.994672248121,4,1,0,100,0,1
100164,-96.7772875503549,4,1,0,100,0,1
100298,-98.3574596675927,4,1,0,100,0,1
100365,-99.1670557016143,4,1,0,100,0,1
100433,-100.002477762085,4,1,0,100,0,1
100567,-101.690644763033,4,1,0,100,0,1
100635,-102.569315611578,4,1,0,100,0,1
100702,-103.450043574102,4,1,0,100,0,1
100836,-105.257667431671,4,1,0,100,0,1
100904,-106.199347437112,4,1,0,100,0,1
100971,-107.143805251002,4,1,0,100,0,1
101038,-108.105212406921,4,1,0,100,0,1
101105,-109.084029298089,4,1,0,100,0,1
101173,-110.095747292616,4,1,0,100,0,1
101240,-111.111111111111,4,1,0,100,0,1
101374,-117.131764940107,4,1,0,100,0,1
101509,-115.069922091469,4,1,0,100,0,1
101643,-113.093903181367,4,1,0,100,0,1
101711,-112.11688105447,4,1,0,100,0,1
101778,-111.170598053727,4,1,0,100,0,1
101913,-109.311615520391,4,1,0,100,0,1
101980,-108.411903811308,4,1,0,100,0,1
102047,-107.52688172043,4,1,0,100,0,1
102182,-105.786808115317,4,1,0,100,0,1
102316,-104.114437398614,4,1,0,100,0,1
102451,-102.482218028741,4,1,0,100,0,1
102518,-101.691009132025,4,1,0,100,0,1
102585,-100.911923615677,4,1,0,100,0,1
102720,-99.3778328312829,4,1,0,100,0,1
102787,-98.6336583866551,4,1,0,100,0,1
102854,-97.9005463571567,4,1,0,100,0,1
102989,-96.4559936606826,4,1,0,100,0,1
103124,-93.8967136150235,4,1,0,100,0,1
103258,-86.9565217391304,4,1,0,100,0,1
103325,-87.7707896575821,4,1,0,100,0,1
103392,-88.6004514672686,4,1,0,100,0,1
103460,-89.4586894586895,4,1,0,100,0,1
103527,-90.3207248669639,4,1,0,100,0,1
103661,-92.0956151928435,4,1,0,100,0,1
103729,-93.0232558139535,4,1,0,100,0,1
103796,-93.9557151406344,4,1,0,100,0,1
103863,-94.9070575789633,4,1,0,100,0,1
103930,-95.8778625954199,4,1,0,100,0,1
104065,-97.8955572876072,4,1,0,100,0,1
104200,-100,4,1,0,100,0,1
104334,-87.2708714328244,4,1,0,100,0,1
104401,-87.8970251226146,4,1,0,100,0,1
104469,-88.5417790338935,4,1,0,100,0,1
104536,-89.1863699582754,4,1,0,100,0,1
104603,-89.8404150522099,4,1,0,100,0,1
104738,-91.1878416211172,4,1,0,100,0,1
104872,-92.5658607001083,4,1,0,100,0,1
104939,-93.2706074861935,4,1,0,100,0,1
105007,-93.9969308994297,4,1,0,100,0,1
105141,-95.4618408504106,4,1,0,100,0,1
105209,-96.2228318210593,4,1,0,100,0,1
105276,-96.9845921164571,4,1,0,100,0,1
105410,-98.5448782596168,4,1,0,100,0,1
105545,-100.168411803471,4,1,0,100,0,1
105679,-101.833701396988,4,1,0,100,0,1
105747,-102.700132629314,4,1,0,100,0,1
105814,-103.56836420532,4,1,0,100,0,1
105881,-104.451401084218,4,1,0,100,0,1
105948,-105.349625218195,4,1,0,100,0,1
106083,-107.207230741099,4,1,0,100,0,1
106217,-109.117013639627,4,1,0,100,0,1
106285,-110.112419843846,4,1,0,100,0,1
106352,-111.490558457212,4,1,0,100,0,1
106487,-98.1393651951842,4,1,0,100,0,1
106650,-114.586559306287,4,1,0,100,0,1
106756,-85.5461917633964,4,1,0,100,0,1
106919,-117.859418135485,4,1,0,100,0,1
107025,-75.8173618940248,4,1,0,100,0,1
107188,-121.32473494371,4,1,0,100,0,1
107294,-68.0754143995951,4,1,0,100,0,1
107457,-125,4,1,0,100,0,1
107563,-62.5,4,1,0,100,0,1
107866,-111.111111111111,4,1,0,100,0,0
108937,-103.897671051044,4,1,0,100,0,0
110013,-97.5637393767705,4,1,0,100,0,0
111090,-91.9527954290596,4,1,0,100,0,0
112171,-86.9565217391304,4,1,0,100,0,1
112233,-87.5887063521344,4,1,0,100,0,1
112300,-88.2301504022386,4,1,0,100,0,1
112435,-89.5515764716324,4,1,0,100,0,1
112502,-90.2222023516788,4,1,0,100,0,1
112569,-90.9029482646006,4,1,0,100,0,1
112704,-92.3062848778703,4,1,0,100,0,1
112771,-93.0189679411832,4,1,0,100,0,1
112838,-93.7427416732476,4,1,0,100,0,1
112973,-95.2358479435569,4,1,0,100,0,1
113040,-95.994672248121,4,1,0,100,0,1
113107,-96.76568606296,4,1,0,100,0,1
113242,-98.3574596675927,4,1,0,100,0,1
113309,-99.1670557016143,4,1,0,100,0,1
113377,-100.002477762085,4,1,0,100,0,1
113444,-100.839496302219,4,1,0,100,0,1
113511,-101.690644763033,4,1,0,100,0,1
113578,-102.55628398638,4,1,0,100,0,1
113646,-103.450043574102,4,1,0,100,0,1
113713,-104.346027560175,4,1,0,100,0,1
113780,-105.257667431671,4,1,0,100,0,1
113915,-107.143805251002,4,1,0,100,0,1
114049,-109.084029298089,4,1,0,100,0,1
114184,-111.111111111111,4,1,0,100,0,1
114318,-86.9565217391304,4,1,0,100,0,1
114385,-87.5887063521344,4,1,0,100,0,1
114452,-88.2301504022386,4,1,0,100,0,1
114587,-89.5515764716324,4,1,0,100,0,1
114654,-90.2222023516788,4,1,0,100,0,1
114721,-90.9029482646006,4,1,0,100,0,1
114856,-92.3062848778703,4,1,0,100,0,1
114923,-93.0189679411832,4,1,0,100,0,1
114990,-93.7427416732476,4,1,0,100,0,1
115125,-95.2358479435569,4,1,0,100,0,1
115192,-95.994672248121,4,1,0,100,0,1
115259,-96.76568606296,4,1,0,100,0,1
115394,-98.3574596675927,4,1,0,100,0,1
115461,-99.1670557016143,4,1,0,100,0,1
115529,-100.002477762085,4,1,0,100,0,1
115596,-100.839496302219,4,1,0,100,0,1
115663,-101.690644763033,4,1,0,100,0,1
115730,-102.55628398638,4,1,0,100,0,1
115798,-103.450043574102,4,1,0,100,0,1
115865,-104.346027560175,4,1,0,100,0,1
115932,-105.257667431671,4,1,0,100,0,1
116067,-107.143805251002,4,1,0,100,0,1
116201,-109.084029298089,4,1,0,100,0,1
116336,-111.111111111111,4,1,0,100,0,1
116471,-86.9565217391304,4,1,0,100,0,1
116538,-87.5887063521344,4,1,0,100,0,1
116605,-88.2301504022386,4,1,0,100,0,1
116740,-89.5515764716324,4,1,0,100,0,1
116807,-90.2222023516788,4,1,0,100,0,1
116874,-90.9029482646006,4,1,0,100,0,1
117009,-92.3062848778703,4,1,0,100,0,1
117076,-93.0189679411832,4,1,0,100,0,1
117143,-93.7427416732476,4,1,0,100,0,1
117278,-95.2358479435569,4,1,0,100,0,1
117345,-95.994672248121,4,1,0,100,0,1
117412,-96.76568606296,4,1,0,100,0,1
117547,-98.3574596675927,4,1,0,100,0,1
117614,-99.1670557016143,4,1,0,100,0,1
117682,-100.002477762085,4,1,0,100,0,1
117749,-100.839496302219,4,1,0,100,0,1
117816,-101.690644763033,4,1,0,100,0,1
117883,-102.55628398638,4,1,0,100,0,1
117951,-103.450043574102,4,1,0,100,0,1
118018,-104.346027560175,4,1,0,100,0,1
118085,-105.257667431671,4,1,0,100,0,1
118220,-107.143805251002,4,1,0,100,0,1
118354,-109.084029298089,4,1,0,100,0,1
118489,-111.111111111111,4,1,0,100,0,1
118623,-86.9565217391304,4,1,0,100,0,1
118690,-87.5887063521344,4,1,0,100,0,1
118757,-88.2301504022386,4,1,0,100,0,1
118892,-89.5515764716324,4,1,0,100,0,1
118959,-90.2222023516788,4,1,0,100,0,1
119026,-90.9029482646006,4,1,0,100,0,1
119161,-92.3062848778703,4,1,0,100,0,1
119228,-93.0189679411832,4,1,0,100,0,1
119295,-93.7427416732476,4,1,0,100,0,1
119430,-95.2358479435569,4,1,0,100,0,1
119497,-95.994672248121,4,1,0,100,0,1
119564,-96.76568606296,4,1,0,100,0,1
119704,-98.3574596675927,4,1,0,100,0,0
119834,-100.002477762085,4,1,0,100,0,0
119968,-101.690644763033,4,1,0,100,0,0
120103,-103.450043574102,4,1,0,100,0,0
120237,-105.257667431671,4,1,0,100,0,0
120372,-107.143805251002,4,1,0,100,0,0
120506,-109.084029298089,4,1,0,100,0,0
120641,-111.111111111111,4,1,0,100,0,0
120781,-83.3333333333333,4,1,0,100,0,1
120809,-83.5645368338233,4,1,0,100,0,1
120876,-83.7970268250145,4,1,0,100,0,1
120943,-84.0308140745367,4,1,0,100,0,1
121011,-84.2694283208753,4,1,0,100,0,1
121078,-84.5058626465662,4,1,0,100,0,1
121145,-84.7436274303952,4,1,0,100,0,1
121212,-84.9827339341363,4,1,0,100,0,1
121280,-85.2267928034462,4,1,0,100,0,1
121347,-85.4686374994706,4,1,0,100,0,1
121414,-85.7118586476385,4,1,0,100,0,1
121482,-85.9601294939513,4,1,0,100,0,1
121549,-86.2061600239224,4,1,0,100,0,1
121616,-86.4536029474766,4,1,0,100,0,1
121683,-86.702470461869,4,1,0,100,0,1
121751,-86.9565217391304,4,1,0,100,0,1
121818,-87.2082973206569,4,1,0,100,0,1
121885,-87.4615351276384,4,1,0,100,0,1
121952,-87.7162479353212,4,1,0,100,0,1
122020,-87.9762838957189,4,1,0,100,0,1
122087,-88.2340081325696,4,1,0,100,0,1
122154,-88.4932467988072,4,1,0,100,0,1
122221,-88.7540132823152,4,1,0,100,0,1
122289,-89.0202479156557,4,1,0,100,0,1
122356,-89.2841341474206,4,1,0,100,0,1
122423,-89.5495895274018,4,1,0,100,0,1
122490,-89.8166280932882,4,1,0,100,0,1
122558,-90.0892857142857,4,1,0,100,0,1
122625,-90.3595576053374,4,1,0,100,0,1
122692,-90.6314560316177,4,1,0,100,0,1
122760,-90.9090909090909,4,1,0,100,0,1
122899,-83.3333333333333,4,1,0,100,0,1
122966,-83.5645368338233,4,1,0,100,0,1
123034,-83.8005066234791,4,1,0,100,0,1
123101,-84.0343133172316,4,1,0,100,0,1
123168,-84.2694283208753,4,1,0,100,0,1
123235,-84.5058626465662,4,1,0,100,0,1
123303,-84.7471862926256,4,1,0,100,0,1
123370,-84.9863129079806,4,1,0,100,0,1
123437,-85.2267928034462,4,1,0,100,0,1
123504,-85.4686374994706,4,1,0,100,0,1
123572,-85.7154992991547,4,1,0,100,0,1
123639,-85.9601294939513,4,1,0,100,0,1
123706,-86.2061600239224,4,1,0,100,0,1
123774,-86.4573068848807,4,1,0,100,0,1
123841,-86.7061957549196,4,1,0,100,0,1
123908,-86.9565217391304,4,1,0,100,0,1
123975,-87.2082973206569,4,1,0,100,0,1
124043,-87.4653259361997,4,1,0,100,0,1
124110,-87.7200608563356,4,1,0,100,0,1
124177,-87.9762838957189,4,1,0,100,0,1
124244,-88.2340081325696,4,1,0,100,0,1
124312,-88.4971275709336,4,1,0,100,0,1
124379,-88.7579169598874,4,1,0,100,0,1
124446,-89.0202479156557,4,1,0,100,0,1
124513,-89.2841341474206,4,1,0,100,0,1
124581,-89.5535635040383,4,1,0,100,0,1
124648,-89.8206258067388,4,1,0,100,0,1
124715,-90.0892857142857,4,1,0,100,0,1
124782,-90.3595576053374,4,1,0,100,0,1
124850,-90.6355266112733,4,1,0,100,0,1
124917,-90.9090909090909,4,1,0,100,0,1
125052,-83.3333333333333,4,1,0,100,0,1
125119,-83.5645368338233,4,1,0,100,0,1
125187,-83.8005066234791,4,1,0,100,0,1
125254,-84.0343133172316,4,1,0,100,0,1
125321,-84.2694283208753,4,1,0,100,0,1
125388,-84.5058626465662,4,1,0,100,0,1
125456,-84.7471862926256,4,1,0,100,0,1
125523,-84.9863129079806,4,1,0,100,0,1
125590,-85.2267928034462,4,1,0,100,0,1
125657,-85.4686374994706,4,1,0,100,0,1
125725,-85.7154992991547,4,1,0,100,0,1
125792,-85.9601294939513,4,1,0,100,0,1
125859,-86.2061600239224,4,1,0,100,0,1
125927,-86.4573068848807,4,1,0,100,0,1
125994,-86.7061957549196,4,1,0,100,0,1
126061,-86.9565217391304,4,1,0,100,0,1
126128,-87.2082973206569,4,1,0,100,0,1
126196,-87.4653259361997,4,1,0,100,0,1
126263,-87.7200608563356,4,1,0,100,0,1
126330,-87.9762838957189,4,1,0,100,0,1
126397,-88.2340081325696,4,1,0,100,0,1
126465,-88.4971275709336,4,1,0,100,0,1
126532,-88.7579169598874,4,1,0,100,0,1
126599,-89.0202479156557,4,1,0,100,0,1
126666,-89.2841341474206,4,1,0,100,0,1
126734,-89.5535635040383,4,1,0,100,0,1
126801,-89.8206258067388,4,1,0,100,0,1
126868,-90.0892857142857,4,1,0,100,0,1
126935,-90.3595576053374,4,1,0,100,0,1
127003,-90.6355266112733,4,1,0,100,0,1
127070,-90.9090909090909,4,1,0,100,0,1
127204,-84.1439018183366,4,1,0,100,0,1
127272,-84.827449104254,4,1,0,100,0,1
127339,-85.5221930090859,4,1,0,100,0,1
127406,-86.2284109082974,4,1,0,100,0,1
127474,-86.9571960830106,4,1,0,100,0,1
127541,-87.6874136853729,4,1,0,100,0,1
127608,-88.4299990583843,4,1,0,100,0,1
127675,-89.1852690969913,4,1,0,100,0,1
127743,-89.9651187872772,4,1,0,100,0,1
127810,-90.7469549023455,4,1,0,100,0,1
127877,-91.5424991405623,4,1,0,100,0,1
127945,-92.3643075148087,4,1,0,100,0,1
128012,-93.1885906828757,4,1,0,100,0,1
128079,-94.0277185649574,4,1,0,100,0,1
128146,-94.8820958178774,4,1,0,100,0,1
128281,-96.6516423290107,4,1,0,100,0,1
128415,-98.474584535152,4,1,0,100,0,1
128550,-100.382014223818,4,1,0,100,0,1
128684,-102.349821214514,4,1,0,100,0,1
128819,-104.41190149134,4,1,0,100,0,1
128953,-106.558781266655,4,1,0,100,0,1
129088,-108.778885445814,4,1,0,100,0,1
129222,-111.111111111111,4,1,0,100,0,1
129390,538.116591928251,4,1,0,100,1,0
129390,-45.4545454545455,4,1,0,100,0,0
129895,-46.5382223264094,4,1,0,100,0,0
130433,-32.2396424156241,4,1,0,100,0,0
130971,-48.9932993749297,4,1,0,100,0,0
131475,-32.2396424156241,4,1,0,100,0,0
131807,-50.9763926971176,4,1,0,100,0,0
132076,-51.6735869841539,4,1,0,100,0,0
132551,-32.2396424156241,4,1,0,100,0,0
133152,-54.6641088620758,4,1,0,100,0,0
133690,-56.2930413751085,4,1,0,100,0,0
134229,-58.0253492178282,4,1,0,100,0,0
134498,-58.9304006648756,4,1,0,100,0,0
134703,-32.2396424156241,4,1,0,100,0,0
135305,-61.8232693945415,4,1,0,100,0,0
135843,-63.9149756833808,4,1,0,100,0,0
136112,-65.0148197112822,4,1,0,100,0,0
136381,-66.1531785636798,4,1,0,100,0,0
136856,-32.2396424156241,4,1,0,100,0,0
137457,-71.1352713359153,4,1,0,100,0,0
137995,-73.9187354538402,4,1,0,100,0,0
138533,-76.9288994297825,4,1,0,100,0,0
140085,-32.2396424156241,4,1,0,100,0,0
140417,-46.1838109071702,4,1,0,100,0,0
140686,-46.9340239803005,4,1,0,100,0,0
141161,-32.2396424156241,4,1,0,100,0,0
141762,-50.1955437551577,4,1,0,100,0,0
142300,-51.9989295431231,4,1,0,100,0,0
142838,-53.9442126612735,4,1,0,100,0,0
143107,-54.9705304518664,4,1,0,100,0,0
143313,-32.2396424156241,4,1,0,100,0,0
143915,-58.3023554318292,4,1,0,100,0,0
144453,-60.7494897737635,4,1,0,100,0,0
144722,-62.059175797365,4,1,0,100,0,0
144991,-63.4214009828277,4,1,0,100,0,0
145466,-32.2396424156241,4,1,0,100,0,0
146067,-69.5258920584435,4,1,0,100,0,0
146605,-73.0342357768566,4,1,0,100,0,0
147143,-76.9306908914942,4,1,0,100,0,0
147653,-58.8308768423682,4,1,0,100,0,0
147788,-59.8399186888578,4,1,0,100,0,0
147923,-60.8841778697001,4,1,0,100,0,0
148057,-61.9573796369377,4,1,0,100,0,0
148192,-63.0775411811973,4,1,0,100,0,0
148326,-64.2301922814673,4,1,0,100,0,0
148461,-65.4348430119478,4,1,0,100,0,0
148595,-66.6761041902605,4,1,0,100,0,0
148694,-50,4,1,0,100,0,0
148931,-51.1954323777804,4,1,0,100,0,0
148999,-51.6129032258064,4,1,0,100,0,0
149201,-52.8941870468232,4,1,0,100,0,0
149268,-53.3333333333333,4,1,0,100,0,0
149771,-38.4245917387128,4,1,0,100,0,0
150008,-58.7175989085948,4,1,0,100,0,0
150277,-60.9545390171364,4,1,0,100,0,0
150344,-61.5384615384615,4,1,0,100,0,0
150546,-63.3686690223793,4,1,0,100,0,0
150815,-65.981910164035,4,1,0,100,0,0
150882,-66.6666666666667,4,1,0,100,0,0
151621,-50,4,1,0,100,0,0
151890,-50.7914402840162,4,1,0,100,0,0
151957,-50.9924776495609,4,1,0,100,0,0
152159,-51.6083386479592,4,1,0,100,0,0
152428,-52.4519435273147,4,1,0,100,0,0
152495,-52.6663683696713,4,1,0,100,0,0
152697,-53.4358233594717,4,1,0,100,0,0
152966,-54.2246885142917,4,1,0,100,0,0
153034,-54.4573195095792,4,1,0,100,0,0
153235,-55.1567691914459,4,1,0,100,0,0
153303,-55.3974841690912,4,1,0,100,0,0
153504,-56.1214538046423,4,1,0,100,0,0
153572,-56.3706815856499,4,1,0,100,0,0
153774,-57.1242637488694,4,1,0,100,0,0
154076,-38.4245917387128,4,1,0,100,0,0
154312,-59.2332502230254,4,1,0,100,0,0
154581,-60.347238405966,4,1,0,100,0,0
154648,-60.6312486829474,4,1,0,100,0,0
154850,-61.5039308362825,4,1,0,100,0,0
155119,-62.7058310732274,4,1,0,100,0,0
155186,-63.012531938192,4,1,0,100,0,0
155393,-64.1171664149355,4,1,0,100,0,0
155657,-65.2562874855098,4,1,0,100,0,0
155724,-65.5885109293078,4,1,0,100,0,0
155926,-66.6109324758843,4,1,0,100,0,0
156195,-68.023011453189,4,1,0,100,0,0
156262,-68.3840811260464,4,1,0,100,0,0
156464,-69.4962561391267,4,1,0,100,0,0
156733,-71.0347286991825,4,1,0,100,0,0
156800,-71.4285714285714,4,1,0,100,0,0
157339,-38.4245917387128,4,1,0,100,0,0
157608,-50.0042885324642,4,1,0,100,0,0
157877,-51.1852502194908,4,1,0,100,0,0
158146,-52.4233432245302,4,1,0,100,0,0
158415,-38.4245917387128,4,1,0,100,0,0
158617,-54.7417840375587,4,1,0,100,0,0
158684,-55.0883492393461,4,1,0,100,0,0
158953,-56.5251114989335,4,1,0,100,0,0
159155,-57.6542721518987,4,1,0,100,0,0
159222,-58.0388252862121,4,1,0,100,0,0
159424,-59.2299095804125,4,1,0,100,0,0
159491,-59.6358428805237,4,1,0,100,0,0
159693,-60.8940881554209,4,1,0,100,0,0
159850,-63.1088980298766,4,1,0,100,0,0
159910,-62.7016562701656,4,1,0,100,0,0
159969,-62.3062947525916,4,1,0,100,0,0
160029,-61.9093129446745,4,1,0,100,0,0
160231,-64.5196989818504,4,1,0,100,0,0
160298,-65.0016724272494,4,1,0,100,0,0
160567,-38.4245917387128,4,1,0,100,0,0
161105,-71.4285714285714,4,1,0,100,0,0
161644,-66.6666666666667,4,1,0,100,0,0
161846,-64.3254520166899,4,1,0,100,0,0
161914,-63.573883161512,4,1,0,100,0,0
162115,-61.4515861152632,4,1,0,100,0,0
162183,-60.7653145015602,4,1,0,100,0,0
162384,-58.8235294117647,4,1,0,100,0,0
162681,-52.6315789473684,4,1,0,100,0,0
162749,-51.8657993837727,4,1,0,100,0,0
162816,-51.1327680040501,4,1,0,100,0,0
162867,-50.5885299273729,4,1,0,100,0,0
162917,-50.0660938532716,4,1,0,100,0,0
162984,-49.3827160493827,4,1,0,100,0,0
163035,-48.8749092668764,4,1,0,100,0,0
163085,-48.3870967741936,4,1,0,100,0,0
163136,-47.8994585622258,4,1,0,100,0,0
163203,-47.2735782822373,4,1,0,100,0,0
163287,-46.5116279069767,4,1,0,100,0,0
163489,-48.1664572643049,4,1,0,100,0,0
163758,-50.5620747460803,4,1,0,100,0,0
163825,-51.1962857107198,4,1,0,100,0,0
164027,-53.2084625063235,4,1,0,100,0,0
164266,-56.1471707410551,4,1,0,100,0,0
164333,-56.9303151846557,4,1,0,100,0,0
164501,-58.9935713977536,4,1,0,100,0,0
164804,-63.1193451098664,4,1,0,100,0,0
164872,-64.110779425785,4,1,0,100,0,0
165069,-66.7393391145893,4,1,0,78,0,0
165338,-71.4285714285714,4,1,0,41,0,0
165982,-76.9230769230769,4,1,0,30,0,0
168135,269.058295964126,4,1,0,20,1,8
168135,-121.995852141027,4,1,0,20,0,0
168673,-125,4,1,0,30,0,0
169206,-117.648895968019,4,1,0,36,0,0
170282,-105.267570210982,4,1,0,48,0,0
171359,-95.2356874691881,4,1,0,60,0,0
172439,-86.9565217391304,4,1,0,100,0,1
172541,-88.6004514672686,4,1,0,100,0,1
172609,-89.4586894586895,4,1,0,100,0,1
172676,-90.3207248669639,4,1,0,100,0,1
172810,-92.0956151928435,4,1,0,100,0,1
172945,-93.9557151406344,4,1,0,100,0,1
173012,-94.9070575789633,4,1,0,100,0,1
173079,-95.8778625954199,4,1,0,100,0,1
173147,-96.8836778771984,4,1,0,100,0,1
173214,-97.8955572876072,4,1,0,100,0,1
173349,-100,4,1,0,100,0,1
173483,-86.9565217391304,4,1,0,100,0,1
173617,-88.6004514672686,4,1,0,100,0,1
173685,-89.4586894586895,4,1,0,100,0,1
173752,-90.3207248669639,4,1,0,100,0,1
173886,-92.0956151928435,4,1,0,100,0,1
174021,-93.9557151406344,4,1,0,100,0,1
174088,-94.9070575789633,4,1,0,100,0,1
174155,-95.8778625954199,4,1,0,100,0,1
174223,-96.8836778771984,4,1,0,100,0,1
174290,-97.8955572876072,4,1,0,100,0,1
174425,-100,4,1,0,100,0,1
174559,-86.9565217391304,4,1,0,100,0,1
174693,-88.6004514672686,4,1,0,100,0,1
174761,-89.4586894586895,4,1,0,100,0,1
174828,-90.3207248669639,4,1,0,100,0,1
174962,-92.0956151928435,4,1,0,100,0,1
175097,-93.9557151406344,4,1,0,100,0,1
175164,-94.9070575789633,4,1,0,100,0,1
175231,-95.8778625954199,4,1,0,100,0,1
175299,-96.8836778771984,4,1,0,100,0,1
175366,-97.8955572876072,4,1,0,100,0,1
175501,-100,4,1,0,100,0,1
175636,-86.9565217391304,4,1,0,100,0,1
175770,-88.6022315333553,4,1,0,100,0,1
175838,-89.4614251081428,4,1,0,100,0,1
175905,-90.3244384718756,4,1,0,100,0,1
176039,-92.1013996280709,4,1,0,100,0,1
176174,-93.9637525587898,4,1,0,100,0,1
176241,-94.9162800080694,4,1,0,100,0,1
176308,-95.8883171141794,4,1,0,100,0,1
176376,-96.8954332492406,4,1,0,100,0,1
176443,-97.9086463427323,4,1,0,100,0,1
176578,-100,4,1,0,100,0,1
176712,-83.3333333333333,4,1,0,100,0,1
176779,-84.0308140745367,4,1,0,100,0,1
176846,-84.740068867053,4,1,0,100,0,1
176914,-85.4722575180008,4,1,0,100,0,1
176981,-86.2061600239224,4,1,0,100,0,1
177048,-86.9527749052051,4,1,0,100,0,1
177115,-87.7124353457643,4,1,0,100,0,1
177250,-89.2841341474206,4,1,0,100,0,1
177317,-90.085264050712,4,1,0,100,0,1
177384,-90.9009009009009,4,1,0,100,0,1
177452,-91.7439534460811,4,1,0,100,0,1
177519,-92.5900435879789,4,1,0,100,0,1
177586,-93.4518847828101,4,1,0,100,0,1
177653,-94.329921002197,4,1,0,100,0,1
177788,-96.1501810558414,4,1,0,100,0,1
177855,-97.0799057102997,4,1,0,100,0,1
177923,-98.0420735558471,4,1,0,100,0,1
177990,-99.0089294475518,4,1,0,100,0,1
178057,-99.9950448441603,4,1,0,100,0,1
178124,-101.001001001001,4,1,0,100,0,1
178192,-102.0428802589,4,1,0,100,0,1
178326,-104.16021472076,4,1,0,100,0,1
178393,-105.252177541334,4,1,0,100,0,1
178461,-106.384100374295,4,1,0,100,0,1
178528,-107.523444160273,4,1,0,100,0,1
178595,-108.687456239565,4,1,0,100,0,1
178662,-109.876946531635,4,1,0,100,0,1
178730,-111.111111111111,4,1,0,100,0,1
178864,-83.3333333333333,4,1,0,100,0,1
178931,-83.9668671281062,4,1,0,100,0,1
178998,-84.6101074777041,4,1,0,100,0,1
179066,-85.2731044019359,4,1,0,100,0,1
179133,-85.9365927302288,4,1,0,100,0,1
179200,-86.6104868913858,4,1,0,100,0,1
179267,-87.2950336203846,4,1,0,100,0,1
179402,-88.7077439462959,4,1,0,100,0,1
179469,-89.4259818731118,4,1,0,100,0,1
179536,-90.1559454191033,4,1,0,100,0,1
179604,-90.9090909090909,4,1,0,100,0,1
179671,-91.6635699244395,4,1,0,100,0,1
179738,-92.4306769922558,4,1,0,100,0,1
179805,-93.2107318302053,4,1,0,100,0,1
179940,-94.8231676063557,4,1,0,100,0,1
180007,-95.6443065787773,4,1,0,100,0,1
180075,-96.4923718868171,4,1,0,100,0,1
180142,-97.342804525125,4,1,0,100,0,1
180209,-98.2083609820836,4,1,0,100,0,1
180276,-99.0894483128013,4,1,0,100,0,1
180344,-100,4,1,0,100,0,1
180478,-105.298532541727,4,1,0,100,0,1
180568,-102.207241491791,4,1,0,100,0,1
180658,-99.2922784409,4,1,0,100,0,1
180748,-96.5389750436479,4,1,0,100,0,1
180837,-93.9624150339864,4,1,0,100,0,1
180927,-91.4930893517617,4,1,0,100,0,1
181017,-76.9230769230769,4,1,0,100,0,1
181084,-77.5169976568202,4,1,0,100,0,1
181151,-78.1201610405698,4,1,0,100,0,1
181219,-78.7420009364757,4,1,0,100,0,1
181286,-79.3644551067762,4,1,0,100,0,1
181353,-79.9968286688337,4,1,0,100,0,1
181420,-80.6393606393606,4,1,0,100,0,1
181555,-81.965881397238,4,1,0,100,0,1
181622,-82.6405667717761,4,1,0,100,0,1
181689,-83.3264513997853,4,1,0,100,0,1
181757,-84.0343133172316,4,1,0,100,0,1
181824,-84.7436274303952,4,1,0,100,0,1
181891,-85.4650177875656,4,1,0,100,0,1
181958,-86.198795438042,4,1,0,100,0,1
182093,-87.7162479353212,4,1,0,100,0,1
182160,-88.4893663670248,4,1,0,100,0,1
182228,-89.2880845980266,4,1,0,100,0,1
182295,-90.0892857142857,4,1,0,100,0,1
182362,-90.904995720528,4,1,0,100,0,1
182429,-91.7356123283935,4,1,0,100,0,1
182497,-92.5942920069744,4,1,0,100,0,1
182631,-94.3343305908751,4,1,0,100,0,1
182698,-95.229106696239,4,1,0,100,0,1
182766,-96.1547624720065,4,1,0,100,0,1
182833,-97.0845761570288,4,1,0,100,0,1
182900,-98.0325479718241,4,1,0,100,0,1
182967,-98.9992150706436,4,1,0,100,0,1
183035,-100,4,1,0,100,0,1
183169,-76.9230769230769,4,1,0,100,0,1
183236,-77.5169976568202,4,1,0,100,0,1
183303,-78.1201610405698,4,1,0,100,0,1
183371,-78.7420009364757,4,1,0,100,0,1
183438,-79.3644551067762,4,1,0,100,0,1
183505,-79.9968286688337,4,1,0,100,0,1
183572,-80.6393606393606,4,1,0,100,0,1
183707,-81.965881397238,4,1,0,100,0,1
183774,-82.6405667717761,4,1,0,100,0,1
183841,-83.3264513997853,4,1,0,100,0,1
183909,-84.0343133172316,4,1,0,100,0,1
183976,-84.7436274303952,4,1,0,100,0,1
184043,-85.4650177875656,4,1,0,100,0,1
184110,-86.198795438042,4,1,0,100,0,1
184245,-87.7162479353212,4,1,0,100,0,1
184312,-88.4893663670248,4,1,0,100,0,1
184380,-89.2880845980266,4,1,0,100,0,1
184447,-90.0892857142857,4,1,0,100,0,1
184514,-90.904995720528,4,1,0,100,0,1
184581,-91.7356123283935,4,1,0,100,0,1
184649,-92.5942920069744,4,1,0,100,0,1
184716,-93.4562126615107,4,1,0,100,0,1
184783,-94.3343305908751,4,1,0,100,0,1
184851,-95.2425901453653,4,1,0,100,0,1
184918,-96.1547624720065,4,1,0,100,0,1
184985,-97.0845761570288,4,1,0,100,0,1
185053,-98.0468370420756,4,1,0,100,0,1
185120,-99.0137873509641,4,1,0,100,0,1
185187,-100,4,1,0,100,0,1
185322,-76.9230769230769,4,1,0,100,0,1
185389,-77.5169976568202,4,1,0,100,0,1
185456,-78.1201610405698,4,1,0,100,0,1
185524,-78.7420009364757,4,1,0,100,0,1
185591,-79.3644551067762,4,1,0,100,0,1
185658,-79.9968286688337,4,1,0,100,0,1
185725,-80.6393606393606,4,1,0,100,0,1
185860,-81.965881397238,4,1,0,100,0,1
185927,-82.6405667717761,4,1,0,100,0,1
185994,-83.3264513997853,4,1,0,100,0,1
186062,-84.0343133172316,4,1,0,100,0,1
186129,-84.7436274303952,4,1,0,100,0,1
186196,-85.4650177875656,4,1,0,100,0,1
186263,-86.198795438042,4,1,0,100,0,1
186398,-87.7162479353212,4,1,0,100,0,1
186465,-88.4893663670248,4,1,0,100,0,1
186533,-89.2880845980266,4,1,0,100,0,1
186600,-90.0892857142857,4,1,0,100,0,1
186667,-90.904995720528,4,1,0,100,0,1
186734,-91.7356123283935,4,1,0,100,0,1
186802,-92.5942920069744,4,1,0,100,0,1
186936,-94.3343305908751,4,1,0,100,0,1
187003,-95.229106696239,4,1,0,100,0,1
187071,-96.1547624720065,4,1,0,100,0,1
187138,-97.0845761570288,4,1,0,100,0,1
187205,-98.0325479718241,4,1,0,100,0,1
187272,-98.9992150706436,4,1,0,100,0,1
187340,-100,4,1,0,100,0,1
187474,-76.9230769230769,4,1,0,100,0,1
187541,-77.3464777161635,4,1,0,100,0,1
187608,-77.7745652802445,4,1,0,100,0,1
187676,-78.2139148494289,4,1,0,100,0,1
187743,-78.6516853932584,4,1,0,100,0,1
187810,-79.0943840047045,4,1,0,100,0,1
187877,-79.5420943691125,4,1,0,100,0,1
188012,-80.4597701149425,4,1,0,100,0,1
188079,-80.9231165928918,4,1,0,100,0,1
188146,-81.3918305597579,4,1,0,100,0,1
188214,-81.8731249184747,4,1,0,100,0,1
188281,-82.3529411764706,4,1,0,100,0,1
188348,-82.838414500022,4,1,0,100,0,1
188415,-83.7993004176557,4,1,0,100,0,1
188550,-85.7911621376412,4,1,0,100,0,1
188685,-87.8800202475567,4,1,0,100,0,1
188819,-90.0564889718209,4,1,0,100,0,1
188954,-92.3610059221877,4,1,0,100,0,1
189088,-94.7681286327175,4,1,0,100,0,1
189357,-100,4,1,0,100,0,1
189659,-86.9565217391304,4,1,0,100,0,0
189755,-88.0691894251494,4,1,0,100,0,0
189890,-89.2193308550186,4,1,0,100,0,0
190024,-90.3910505019392,4,1,0,100,0,0
190159,-91.6030534351145,4,1,0,100,0,0
190226,-92.2167149937865,4,1,0,100,0,0
190293,-92.8386540120794,4,1,0,100,0,0
190360,-93.4690391046894,4,1,0,100,0,0
190428,-94.1176470588235,4,1,0,100,0,0
190562,-95.422498780614,4,1,0,100,0,0
190630,-96.0985993063515,4,1,0,100,0,0
190697,-96.7741935483871,4,1,0,100,0,0
190966,-99.5850622406639,4,1,0,100,0,0
191100,-101.047095835094,4,1,0,100,0,0
191235,-102.564102564103,4,1,0,100,0,0
191504,-105.726872246696,4,1,0,100,0,0
191773,-109.090909090909,4,1,0,100,0,0
191908,-110.861165965485,4,1,0,100,0,0
192042,-112.676056338028,4,1,0,100,0,0
192132,-113.928741595638,4,1,0,100,0,0
192221,-115.195203768468,4,1,0,100,0,0
192311,-116.504854368932,4,1,0,100,0,0
192378,-117.499317499317,4,1,0,100,0,0
192446,-118.526134131341,4,1,0,100,0,0
192715,-122.770319096337,4,1,0,100,0,0
192782,-123.875127117831,4,1,0,100,0,0
192849,-125,4,1,0,100,0,0
193118,-76.9230769230769,4,1,0,100,0,0
193387,-111.111111111111,4,1,0,100,0,0
193656,-112.675687701207,4,1,0,100,0,0
193791,-113.477607612621,4,1,0,100,0,0
193925,-114.284955799198,4,1,0,100,0,0
194195,-115.947103342401,4,1,0,100,0,0
194464,-117.651881610232,4,1,0,100,0,0
194531,-118.08431851222,4,1,0,100,0,0
194598,-118.519946039699,4,1,0,100,0,0
194867,-120.301802431186,4,1,0,100,0,0
194934,-120.753976045553,4,1,0,100,0,0
195002,-121.216387441926,4,1,0,100,0,0
195271,-123.080881722275,4,1,0,100,0,0
195405,-124.0312310928,4,1,0,100,0,0
195540,-125.00362960597,4,1,0,100,0,0
195809,-126.987404501342,4,1,0,100,0,0
196078,-129.035158708749,4,1,0,100,0,0
196347,-131.150038080731,4,1,0,100,0,0
196616,-133.335398147861,4,1,0,100,0,0
196683,-133.891083258172,4,1,0,100,0,0
196751,-134.45981822157,4,1,0,100,0,0
197020,-136.757838559039,4,1,0,100,0,0
197087,-137.342478864253,4,1,0,100,0,0
197154,-137.932139309859,4,1,0,100,0,0
197423,-140.351449157239,4,1,0,100,0,0
197692,-142.857142857143,4,1,0,100,0,0
197961,-111.111111111111,4,1,0,100,0,0
198096,-111.943196316636,4,1,0,100,0,0
198230,-112.781534678366,4,1,0,100,0,0
198499,-114.502950522015,4,1,0,100,0,0
198769,-116.28443010257,4,1,0,100,0,0
198836,-116.735118875456,4,1,0,100,0,0
198903,-117.18931475029,4,1,0,100,0,0
199038,-118.115305823822,4,1,0,100,0,0
199172,-119.049023656421,4,1,0,100,0,0
199239,-119.521440416963,4,1,0,100,0,0
199307,-120.00475737393,4,1,0,100,0,0
199576,-121.955641506013,4,1,0,100,0,0
199710,-122.951319076342,4,1,0,100,0,0
199845,-123.971003808822,4,1,0,100,0,0
200114,-126.054094571803,4,1,0,100,0,0
200383,-128.208386277001,4,1,0,100,0,0
200657,-131.578947368421,4,1,0,100,0,0
200921,-132.7456913564,4,1,0,100,0,0
200988,-133.333333333333,4,1,0,100,0,0
201056,-133.935089931639,4,1,0,100,0,0
201190,-135.136945021094,4,1,0,100,0,0
201325,-136.36977969996,4,1,0,100,0,0
201392,-136.990021044057,4,1,0,100,0,0
201459,-137.608366588689,4,1,0,100,0,0
201728,-131.343910896291,4,1,0,100,0,0
201997,-125.624984296877,4,1,0,100,0,0
202266,-120.383300428565,4,1,0,100,0,0
202356,-118.725888493352,4,1,0,100,0,0
202446,-117.113494556965,4,1,0,100,0,0
202535,-115.561513393579,4,1,0,100,0,0
202625,-114.033370488147,4,1,0,100,0,0
202715,-112.545115320252,4,1,0,100,0,0
202804,-111.111111111111,4,1,0,100,0,0
203073,-113.042916235781,4,1,0,100,0,0
203141,-113.541937159179,4,1,0,100,0,0
203208,-114.03794744735,4,1,0,100,0,0
203343,-115.050651230101,4,1,0,100,0,0
203477,-116.073798778869,4,1,0,100,0,0
203544,-116.592227184854,4,1,0,100,0,0
203612,-117.123150070314,4,1,0,100,0,0
203881,-119.271685761047,4,1,0,100,0,0
204015,-120.371644872677,4,1,0,100,0,0
204150,-121.500521014241,4,1,0,100,0,0
204419,-123.814243239417,4,1,0,100,0,0
204688,-126.217796059753,4,1,0,100,0,0
204957,-128.716514571681,4,1,0,100,0,0
205226,-131.316164877243,4,1,0,100,0,0
205293,-131.98007847872,4,1,0,100,0,0
205360,-132.650739476678,4,1,0,100,0,0
205495,-134.022988505747,4,1,0,100,0,0
205635,-134.81874702827,4,1,0,100,0,0
205719,-132.968856200712,4,1,0,100,0,0
205786,-131.169044105591,4,1,0,100,0,0
205853,-129.417304364656,4,1,0,100,0,0
205920,-127.711736366487,4,1,0,100,0,0
205987,-126.050538387735,4,1,0,100,0,0
206055,-124.408158731481,4,1,0,100,0,0
206139,-122.437489922137,4,1,0,100,0,0
206223,-120.310319056849,4,1,0,100,0,0
206307,-119.047619047619,4,1,0,100,0,0
206571,-111.111111111111,4,1,0,100,0,0
206706,-111.943196316636,4,1,0,100,0,0
206840,-112.781534678366,4,1,0,100,0,0
207109,-114.502950522015,4,1,0,100,0,0
207378,-116.277729760876,4,1,0,100,0,0
207446,-116.735118875456,4,1,0,100,0,0
207513,-117.18931475029,4,1,0,100,0,0
207647,-118.10839283624,4,1,0,100,0,0
207782,-119.049023656421,4,1,0,100,0,0
207849,-119.521440416963,4,1,0,100,0,0
207917,-120.00475737393,4,1,0,100,0,0
208186,-121.955641506013,4,1,0,100,0,0
208320,-122.951319076342,4,1,0,100,0,0
208455,-123.971003808822,4,1,0,100,0,0
208724,-126.054094571803,4,1,0,100,0,0
208993,-128.208386277001,4,1,0,100,0,0
209262,-130.437592915778,4,1,0,100,0,0
209531,-132.7456913564,4,1,0,100,0,0
209598,-133.333333333333,4,1,0,100,0,0
209665,-133.926201221131,4,1,0,100,0,0
209800,-135.136945021094,4,1,0,100,0,0
209934,-136.360564903034,4,1,0,100,0,0
210002,-136.990021044057,4,1,0,100,0,0
210069,-137.928629881597,4,1,0,100,0,0
210361,-140.516017650692,4,1,0,100,0,0
210495,-141.841466060738,4,1,0,100,0,0
210562,-142.513611639283,4,1,0,100,0,0
210607,-142.857142857143,4,1,0,100,0,0
210876,-111.111111111111,4,1,0,100,0,0
211011,-111.890838206628,4,1,0,100,0,0
211145,-112.675687701207,4,1,0,100,0,0
211414,-114.284955799198,4,1,0,100,0,0
211683,-115.940858043145,4,1,0,100,0,0
211751,-116.367076631977,4,1,0,100,0,0
211818,-116.790103361276,4,1,0,100,0,0
211952,-117.645451315825,4,1,0,100,0,0
212087,-118.519946039699,4,1,0,100,0,0
212154,-118.958799635248,4,1,0,100,0,0
212221,-119.40091526834,4,1,0,100,0,0
212490,-121.20956161838,4,1,0,100,0,0
212625,-122.138054302494,4,1,0,100,0,0
212760,-123.080881722275,4,1,0,100,0,0
213029,-125.00362960597,4,1,0,100,0,0
213298,-126.987404501342,4,1,0,100,0,0
213567,-129.035158708749,4,1,0,100,0,0
213836,-131.150038080731,4,1,0,100,0,0
213903,-131.687620445994,4,1,0,100,0,0
213970,-132.229628036981,4,1,0,100,0,0
214105,-133.335398147861,4,1,0,100,0,0
214239,-134.45141946969,4,1,0,100,0,0
214307,-135.024934918295,4,1,0,100,0,0
214374,-135.594821884154,4,1,0,100,0,0
214643,-137.932139309859,4,1,0,100,0,0
214912,-140.351449157239,4,1,0,100,0,0
215181,-142.857142857143,4,1,0,100,0,0
215484,-166.666666666667,4,1,0,100,0,0
215720,-161.326816906507,4,1,0,100,0,0
215949,-156.339078191466,4,1,0,100,0,0
216493,-146.00483269853,4,1,0,100,0,0
216560,-144.812738646519,4,1,0,100,0,0
217031,-136.952095578349,4,1,0,100,0,0
217569,-128.956411647676,4,1,0,100,0,0
217637,-128.011777801716,4,1,0,100,0,0
217838,-125.298748769858,4,1,0,100,0,0
218107,-121.842851772104,4,1,0,100,0,0
218377,-118.560643852473,4,1,0,100,0,0
218646,-115.461847389558,4,1,0,100,0,0
218713,-114.715062586479,4,1,0,100,0,0
218780,-113.977875823262,4,1,0,100,0,0
218915,-112.520910267336,4,1,0,100,0,0
219049,-111.111111111111,4,1,0,100,0,0
219184,-106.369527422159,4,1,0,100,0,0
219251,-104.163442191611,4,1,0,100,0,0
219318,-102.047005307051,4,1,0,100,0,0
219385,-100.01486104919,4,1,0,100,0,0
219453,-98.0335032774945,4,1,0,100,0,0
219520,-96.1565937991141,4,1,0,100,0,0
219587,-94.3502032805271,4,1,0,100,0,0
219655,-92.5849497867657,4,1,0,100,0,0
219722,-90.9090909090909,4,1,0,100,0,0
219794,-83.3333333333333,4,1,0,100,0,1
219895,-84.0132970686008,4,1,0,100,0,1
219962,-84.3548974390096,4,1,0,100,0,1
220029,-84.6992870635549,4,1,0,100,0,1
220096,-85.0465002447381,4,1,0,100,0,1
220164,-85.4018186286557,4,1,0,100,0,1
220298,-86.1107669433775,4,1,0,100,0,1
220365,-86.4696734059098,4,1,0,100,0,1
220433,-86.8370088086462,4,1,0,100,0,1
220500,-87.2020075282309,4,1,0,100,0,1
220567,-87.5700875700876,4,1,0,100,0,1
220635,-87.9468522619424,4,1,0,100,0,1
220702,-88.3212606430296,4,1,0,100,0,1
220836,-89.0797231479108,4,1,0,100,0,1
220904,-89.4696189495366,4,1,0,100,0,1
220971,-89.8571336220829,4,1,0,100,0,1
221038,-90.2480197376964,4,1,0,100,0,1
221105,-90.6423214867949,4,1,0,100,0,1
221173,-91.0460470295408,4,1,0,100,0,1
221240,-91.4473684210526,4,1,0,100,0,1
221307,-91.8522434414855,4,1,0,100,0,1
221374,-92.2607195008629,4,1,0,100,0,1
221442,-92.6790238698493,4,1,0,100,0,1
221509,-93.0949032214855,4,1,0,100,0,1
221576,-93.5145317545748,4,1,0,100,0,1
221643,-93.9379603973779,4,1,0,100,0,1
221778,-94.8028918292184,4,1,0,100,0,1
221913,-95.6838989467887,4,1,0,100,0,1
221980,-96.1272475795298,4,1,0,100,0,1
222047,-96.5747238240811,4,1,0,100,0,1
222114,-97.0263855926288,4,1,0,100,0,1
222182,-97.4891289100856,4,1,0,100,0,1
222249,-97.949404552181,4,1,0,100,0,1
222316,-98.4140470121779,4,1,0,100,0,1
222451,-99.3637858317249,4,1,0,100,0,1
222518,-99.8419767274817,4,1,0,100,0,1
222585,-100.324792493685,4,1,0,100,0,1
222652,-100.812300551204,4,1,0,100,0,1
222720,-101.31195335277,4,1,0,100,0,1
222787,-101.80912619937,4,1,0,100,0,1
222854,-102.311202708671,4,1,0,100,0,1
222989,-103.33804178128,4,1,0,100,0,1
223056,-103.855349671249,4,1,0,100,0,1
223123,-104.37786288203,4,1,0,100,0,1
223191,-104.913578383274,4,1,0,100,0,1
223258,-105.446821423153,4,1,0,100,0,1
223325,-105.985512771635,4,1,0,100,0,1
223392,-106.529736358062,4,1,0,100,0,1
223460,-107.087827426811,4,1,0,100,0,1
223527,-107.64346007899,4,1,0,100,0,1
223594,-108.204888681302,4,1,0,100,0,1
223661,-108.77220439784,4,1,0,100,0,1
223796,-109.933565327428,4,1,0,100,0,1
223930,-111.111111111111,4,1,0,100,0,1
224065,-83.3333333333333,4,1,0,100,0,1
224132,-83.6926905666044,4,1,0,100,0,1
224200,-84.0605943068933,4,1,0,100,0,1
224267,-84.4262649872311,4,1,0,100,0,1
224334,-84.7951309640257,4,1,0,100,0,1
224401,-85.167234302681,4,1,0,100,0,1
224469,-85.5482456140351,4,1,0,100,0,1
224603,-86.3091287225099,4,1,0,100,0,1
224670,-86.6946685334578,4,1,0,100,0,1
224738,-87.0895005916103,4,1,0,100,0,1
224805,-87.4820595622533,4,1,0,100,0,1
224872,-87.8781735036381,4,1,0,100,0,1
224939,-88.2778909255488,4,1,0,100,0,1
225007,-88.6873095985086,4,1,0,100,0,1
225141,-89.5053230543319,4,1,0,100,0,1
225209,-89.9262332872291,4,1,0,100,0,1
225276,-90.3448435582112,4,1,0,100,0,1
225343,-90.7673693517614,4,1,0,100,0,1
225410,-91.1938658624962,4,1,0,100,0,1
225478,-91.6308458412609,4,1,0,100,0,1
225545,-92.0655149627112,4,1,0,100,0,1
225679,-92.9473433404813,4,1,0,100,0,1
225747,-93.4013312263564,4,1,0,100,0,1
225814,-93.8530013232287,4,1,0,100,0,1
225881,-94.3090610192438,4,1,0,100,0,1
225948,-94.7695746179822,4,1,0,100,0,1
226016,-95.2415830464611,4,1,0,100,0,1
226083,-95.7112714068404,4,1,0,100,0,1
226217,-96.6646843096442,4,1,0,100,0,1
226285,-97.1558079298665,4,1,0,100,0,1
226352,-97.6446146529499,4,1,0,100,0,1
226419,-98.1383647798742,4,1,0,100,0,1
226487,-98.6446163960957,4,1,0,100,0,1
226554,-99.1485576312111,4,1,0,100,0,1
226621,-99.6576742284897,4,1,0,100,0,1
226756,-100.699553421617,4,1,0,100,0,1
226823,-101.224765166848,4,1,0,100,0,1
226890,-101.755484258027,4,1,0,100,0,1
226957,-102.291797776379,4,1,0,100,0,1
227025,-102.841927660023,4,1,0,100,0,1
227092,-103.389785587448,4,1,0,100,0,1
227159,-103.943511857181,4,1,0,100,0,1
227294,-105.077441077441,4,1,0,100,0,1
227361,-105.649442097281,4,1,0,100,0,1
227428,-106.227704708221,4,1,0,100,0,1
227495,-106.812332292865,4,1,0,100,0,1
227563,-107.412302439562,4,1,0,100,0,1
227630,-108.010078356453,4,1,0,100,0,1
227697,-108.61454504956,4,1,0,100,0,1
227765,-109.234991039427,4,1,0,100,0,1
227832,-109.853284897637,4,1,0,100,0,1
227966,-109.901885092084,4,1,0,100,0,1
228130,-105.349516774935,4,1,0,100,0,1
228197,-103.227404811429,4,1,0,100,0,1
228264,-101.189098392485,4,1,0,100,0,1
228370,-83.3333333333333,4,1,0,100,0,1
228437,-83.7124041007536,4,1,0,100,0,1
228504,-84.0949392988678,4,1,0,100,0,1
228572,-84.4867753871454,4,1,0,100,0,1
228639,-84.8764369794176,4,1,0,100,0,1
228706,-85.2697095435685,4,1,0,100,0,1
228774,-85.6725958866037,4,1,0,100,0,1
228908,-86.4777668677234,4,1,0,100,0,1
228975,-86.8860545416109,4,1,0,100,0,1
229043,-87.3043970827728,4,1,0,100,0,1
229110,-87.720546385885,4,1,0,100,0,1
229177,-88.1406819644006,4,1,0,100,0,1
229244,-88.5648613704927,4,1,0,100,0,1
229312,-88.9995669120832,4,1,0,100,0,1
229446,-89.868804664723,4,1,0,100,0,1
229513,-90.3098220171391,4,1,0,100,0,1
229581,-90.7618697092381,4,1,0,100,0,1
229648,-91.2117177097204,4,1,0,100,0,1
229715,-91.6660471340421,4,1,0,100,0,1
229782,-92.1249252839211,4,1,0,100,0,1
229850,-92.595373986182,4,1,0,100,0,1
229984,-93.536640873919,4,1,0,100,0,1
230052,-94.0216562452341,4,1,0,100,0,1
230119,-94.5044837893769,4,1,0,100,0,1
230186,-94.9922958397535,4,1,0,100,0,1
230253,-95.4851699837373,4,1,0,100,0,1
230321,-95.9906578435189,4,1,0,100,0,1
230388,-96.4939740178432,4,1,0,100,0,1
230522,-97.516608668143,4,1,0,100,0,1
230590,-98.043893129771,4,1,0,100,0,1
230657,-98.5690302981853,4,1,0,100,0,1
230724,-99.0998231795531,4,1,0,100,0,1
230791,-99.6363636363636,4,1,0,100,0,1
230859,-100.18688551231,4,1,0,100,0,1
230926,-100.735294117647,4,1,0,100,0,1
231061,-101.85873605948,4,1,0,100,0,1
231128,-102.425652101678,4,1,0,100,0,1
231195,-102.998914042269,4,1,0,100,0,1
231262,-103.578629032258,4,1,0,100,0,1
231330,-104.173707333559,4,1,0,100,0,1
231397,-104.766760132552,4,1,0,100,0,1
231464,-105.366603999316,4,1,0,100,0,1
231599,-106.596351690153,4,1,0,100,0,1
231666,-107.217391304348,4,1,0,100,0,1
231733,-107.845709787457,4,1,0,100,0,1
231800,-108.481435861341,4,1,0,100,0,1
231868,-109.134360063728,4,1,0,100,0,1
231935,-109.785415368177,4,1,0,100,0,1
232002,-110.444285202436,4,1,0,100,0,1
232069,-111.111111111111,4,1,0,100,0,1
232137,-112.690779845285,4,1,0,100,0,1
232226,-114.827439284193,4,1,0,100,0,1
232316,-117.072111207646,4,1,0,100,0,1
232406,-119.406291537439,4,1,0,100,0,1
232495,-121.80790960452,4,1,0,100,0,1
232585,-124.336793540946,4,1,0,100,0,1
232708,-111.111111111111,4,1,0,100,0,0
232810,-109.38135347081,4,1,0,100,0,0
232945,-107.692307692308,4,1,0,100,0,0
233079,-106.066580296288,4,1,0,100,0,0
233214,-104.477611940299,4,1,0,100,0,0
233349,-102.935549117149,4,1,0,100,0,0
233483,-101.449275362319,4,1,0,100,0,0
233618,-99.994689607562,4,1,0,100,0,0
233752,-98.5915492957747,4,1,0,100,0,0
233887,-97.217202746657,4,1,0,100,0,0
234021,-95.8904109589041,4,1,0,100,0,0
234156,-94.5898427688753,4,1,0,100,0,0
234290,-93.3333333333333,4,1,0,100,0,0
234425,-92.1007581315725,4,1,0,100,0,0
234559,-90.9090909090909,4,1,0,100,0,0
234828,-111.111111111111,4,1,0,100,0,0
234962,-109.382257315374,4,1,0,100,0,0
235097,-107.694066537098,4,1,0,100,0,0
235231,-106.069136358518,4,1,0,100,0,0
235366,-104.480922803904,4,1,0,100,0,0
235501,-102.939569445962,4,1,0,100,0,0
235635,-101.453957996769,4,1,0,100,0,0
235770,-100,4,1,0,100,0,0
235904,-98.5974460958761,4,1,0,100,0,0
236039,-97.2236556920219,4,1,0,100,0,0
236173,-95.8973836913367,4,1,0,100,0,0
236308,-94.5973086965254,4,1,0,100,0,0
236442,-93.3412604042806,4,1,0,100,0,0
236577,-92.1091229099443,4,1,0,100,0,0
236711,-90.9788854579214,4,1,0,100,0,0
236980,-77.4237587836282,4,1,0,100,0,0
237128,-79.4289691780079,4,1,0,100,0,0
237263,-81.5016632464466,4,1,0,100,0,0
237397,-83.6124879450734,4,1,0,100,0,0
237532,-85.7943506785904,4,1,0,100,0,0
237666,-88.016352380168,4,1,0,100,0,0
237801,-90.3131336854264,4,1,0,100,0,0
237936,-92.6698493576692,4,1,0,100,0,0
238070,-95.0699207065287,4,1,0,100,0,0
238205,-97.5507644437017,4,1,0,100,0,0
238272,-98.8059309308838,4,1,0,100,0,0
238339,-100.077247398228,4,1,0,100,0,0
238474,-102.688757017635,4,1,0,100,0,0
238608,-105.348309669079,4,1,0,100,0,0
238675,-106.703805636045,4,1,0,100,0,0
238743,-108.097367334447,4,1,0,100,0,0
238877,-110.896998455301,4,1,0,100,0,0
239012,-113.790848813485,4,1,0,100,0,0
239146,-116.737936327845,4,1,0,100,0,0
239281,-119.784205600788,4,1,0,100,0,0
239415,-122.886516027546,4,1,0,100,0,0
239550,-126.093232109818,4,1,0,100,0,0
239684,-129.35894102992,4,1,0,100,0,0
239819,-132.734554644788,4,1,0,100,0,0
239953,-136.172268246512,4,1,0,100,0,0
240088,-139.725675216303,4,1,0,100,0,0
240155,-141.523497979974,4,1,0,100,0,0
240223,-143.371808122553,4,1,0,100,0,0
240357,-147.085017664752,4,1,0,100,0,0
240424,-148.977531639319,4,1,0,100,0,0
240492,-150.923192159838,4,1,0,100,0,0
240626,-154.831976213033,4,1,0,100,0,0
240747,-76.9230769230769,4,1,0,100,0,0
241016,-151.515151515152,4,1,0,100,0,0
241285,-77.3107295936235,4,1,0,100,0,0
241433,-78.8576533444061,4,1,0,100,0,0
241568,-80.4474228641935,4,1,0,100,0,0
241702,-82.0571092527713,4,1,0,100,0,0
241837,-83.7113797723641,4,1,0,100,0,0
241971,-85.3863752388581,4,1,0,100,0,0
242106,-87.1077637281529,4,1,0,100,0,0
242240,-88.8507180282473,4,1,0,100,0,0
242375,-90.641947634277,4,1,0,100,0,0
242509,-92.4556180309955,4,1,0,100,0,0
242577,-93.3898234195832,4,1,0,100,0,0
242644,-94.3195223858061,4,1,0,100,0,0
242779,-96.221003034171,4,1,0,100,0,0
242845,-97.1645198592992,4,1,0,100,0,0
242913,-98.1463057146668,4,1,0,100,0,0
243048,-100.124934277496,4,1,0,100,0,0
243182,-102.128351392993,4,1,0,100,0,0
243249,-103.145042711548,4,1,0,100,0,0
243317,-104.187257957732,4,1,0,100,0,0
243451,-106.271958809876,4,1,0,100,0,0
243586,-108.414400459593,4,1,0,100,0,0
243720,-110.583682936675,4,1,0,100,0,0
243855,-112.813048902598,4,1,0,100,0,0
243989,-115.070344696635,4,1,0,100,0,0
244124,-117.390161719736,4,1,0,100,0,0
244258,-119.739041755236,4,1,0,100,0,0
244393,-122.152979665355,4,1,0,100,0,0
244460,-123.369016860389,4,1,0,100,0,0
244527,-124.597159748332,4,1,0,100,0,0
244662,-127.109037269654,4,1,0,100,0,0
244796,-129.652383965838,4,1,0,100,0,0
244931,-132.266174757918,4,1,0,100,0,0
244998,-133.58288916465,4,1,0,100,0,0
245066,-134.93265954679,4,1,0,100,0,0
245200,-137.632550453349,4,1,0,100,0,0
245268,-139.02324009468,4,1,0,100,0,0
245334,-140.386463943704,4,1,0,100,0,0
245469,-142.857142857143,4,1,0,100,0,0
245590,-77.1166133942196,4,1,0,100,0,0
245619,-77.1280130445632,4,1,0,100,0,0
245738,-78.6709086293447,4,1,0,100,0,0
245873,-80.2565308843115,4,1,0,100,0,0
245940,-81.0552957438809,4,1,0,100,0,0
246007,-81.8620104275189,4,1,0,100,0,0
246142,-83.5119497485678,4,1,0,100,0,0
246276,-85.1825518224098,4,1,0,100,0,0
246410,-86.8865732008845,4,1,0,100,0,0
246545,-88.6377832291584,4,1,0,100,0,0
246680,-90.4242891201893,4,1,0,100,0,0
246814,-92.2331680337422,4,1,0,100,0,0
246881,-93.1511321258896,4,1,0,100,0,0
246949,-94.092139366709,4,1,0,100,0,0
247083,-95.9743912316398,4,1,0,100,0,0
247218,-97.9087673980671,4,1,0,100,0,0
247353,-99.8821311642616,4,1,0,100,0,0
247487,-101.880208037873,4,1,0,100,0,0
247554,-102.894185706351,4,1,0,100,0,0
247622,-103.9336166996,4,1,0,100,0,0
247756,-106.012740898269,4,1,0,100,0,0
247891,-108.149441289901,4,1,0,100,0,0
248025,-110.312900309211,4,1,0,100,0,0
248160,-112.536270965375,4,1,0,100,0,0
248294,-114.787485650498,4,1,0,100,0,0
248429,-117.101042148194,4,1,0,100,0,0
248563,-119.443572102899,4,1,0,100,0,0
248698,-121.850972620305,4,1,0,100,0,0
248765,-123.063712243623,4,1,0,100,0,0
248832,-124.288521835382,4,1,0,100,0,0
248967,-126.793572936134,4,1,0,100,0,0
249101,-129.329995646113,4,1,0,100,0,0
249236,-131.936658298218,4,1,0,100,0,0
249370,-134.57596507566,4,1,0,100,0,0
249505,-137.288360914546,4,1,0,100,0,0
249640,-140.055425439498,4,1,0,100,0,0
249774,-142.857142857143,4,1,0,100,0,0
249895,-77.3220005263565,4,1,0,100,0,0
250043,-78.9144756781924,4,1,0,100,0,0
250178,-80.552002328007,4,1,0,100,0,0
250312,-82.2110005596197,4,1,0,100,0,0
250447,-83.9169322428419,4,1,0,100,0,0
250581,-85.6452324485444,4,1,0,100,0,0
250716,-87.4224266750633,4,1,0,100,0,0
250850,-89.2229238329943,4,1,0,100,0,0
251000,-91.0605028947228,4,1,0,100,0,0
251119,-92.9500675019021,4,1,0,100,0,0
251187,-93.9166467351889,4,1,0,100,0,0
251254,-94.8788418025401,4,1,0,100,0,0
251388,-96.832906583288,4,1,0,100,0,0
251523,-98.8422523179763,4,1,0,100,0,0
251590,-99.8549112121381,4,1,0,100,0,0
251657,-100.877945001771,4,1,0,100,0,0
251792,-102.971227912153,4,1,0,100,0,0
251927,-105.107947803164,4,1,0,100,0,0
252061,-107.272684799072,4,1,0,100,0,0
252196,-109.49866271562,4,1,0,100,0,0
252330,-111.753828106413,4,1,0,100,0,0
252465,-114.072792658484,4,1,0,100,0,0
252599,-116.422163944439,4,1,0,100,0,0
252734,-118.837999498685,4,1,0,100,0,0
252868,-121.285511979057,4,1,0,100,0,0
253003,-123.802265165278,4,1,0,100,0,0
253070,-125.070644446374,4,1,0,100,0,0
253137,-126.352018530099,4,1,0,100,0,0
253406,-131.630170216762,4,1,0,100,0,0
253675,-137.128808173068,4,1,0,100,0,0
253944,-142.857142857143,4,1,0,100,0,0
254200,-77.3107295936235,4,1,0,100,0,0
254348,-78.8576533444061,4,1,0,100,0,0
254483,-80.4474228641935,4,1,0,100,0,0
254550,-81.2482797791499,4,1,0,100,0,0
254617,-82.0571092527713,4,1,0,100,0,0
254752,-83.7113797723641,4,1,0,100,0,0
254886,-85.3863752388581,4,1,0,100,0,0
255021,-87.1077637281529,4,1,0,100,0,0
255155,-88.8507180282473,4,1,0,100,0,0
255259,-90.641947634277,4,1,0,100,0,0
255424,-92.4556180309955,4,1,0,100,0,0
255492,-93.3898234195832,4,1,0,100,0,0
255559,-94.3195223858061,4,1,0,100,0,0
255693,-96.2067780113579,4,1,0,100,0,0
255828,-98.1463057146668,4,1,0,100,0,0
255962,-100.110132109265,4,1,0,100,0,0
256097,-102.128351392993,4,1,0,100,0,0
256231,-104.171855227823,4,1,0,100,0,0
256366,-106.271958809876,4,1,0,100,0,0
256501,-108.414400459593,4,1,0,100,0,0
256568,-109.493669616985,4,1,0,100,0,0
256635,-110.583682936675,4,1,0,100,0,0
256770,-112.813048902598,4,1,0,100,0,0
256904,-115.070344696635,4,1,0,100,0,0
257039,-117.390161719736,4,1,0,100,0,0
257106,-118.558784895145,4,1,0,100,0,0
257173,-119.739041755236,4,1,0,100,0,0
257308,-122.152979665355,4,1,0,100,0,0
257442,-124.597159748332,4,1,0,100,0,0
257577,-127.109037269654,4,1,0,100,0,0
257711,-129.652383965838,4,1,0,100,0,0
257846,-132.266174757918,4,1,0,100,0,0
257980,-134.912711509462,4,1,0,100,0,0
258115,-137.632550453349,4,1,0,100,0,0
258182,-139.002687318264,4,1,0,100,0,0
258249,-140.386463943704,4,1,0,100,0,0
258370,-142.857142857143,4,1,0,100,0,0
258504,-77.3122203884091,4,1,0,100,0,0
258653,-78.8768729502471,4,1,0,100,0,0
258788,-80.473191109412,4,1,0,100,0,0
258922,-82.0896314758899,4,1,0,100,0,0
259057,-83.7509697681264,4,1,0,100,0,0
259191,-85.433249871581,4,1,0,100,0,0
259326,-87.1622566522188,4,1,0,100,0,0
259460,-88.9130582315222,4,1,0,100,0,0
259581,-90.7124897268782,4,1,0,100,0,0
259729,-92.5346037516454,4,1,0,100,0,0
259796,-93.4593402506598,4,1,0,100,0,0
259864,-94.4073284527509,4,1,0,100,0,0
259998,-96.3036595724511,4,1,0,100,0,0
260133,-98.2526628077405,4,1,0,100,0,0
260200,-99.2345422316532,4,1,0,100,0,0
260267,-100.226233982027,4,1,0,100,0,0
260402,-102.254622676279,4,1,0,100,0,0
260536,-104.308579993917,4,1,0,100,0,0
260671,-106.419587621033,4,1,0,100,0,0
260805,-108.557205315113,4,1,0,100,0,0
260940,-110.754197052628,4,1,0,100,0,0
261075,-112.995651731876,4,1,0,100,0,0
261209,-115.265360813595,4,1,0,100,0,0
261344,-117.598112882829,4,1,0,100,0,0
261478,-119.960270193417,4,1,0,100,0,0
261613,-122.388038315118,4,1,0,100,0,0
261695,-123.611112510978,4,1,0,100,0,0
261747,-124.846409392234,4,1,0,100,0,0
261882,-127.373063694884,4,1,0,100,0,0
261949,-128.645955307476,4,1,0,100,0,0
262016,-129.931567451476,4,1,0,100,0,0
262151,-132.56113569897,4,1,0,100,0,0
262285,-135.223850670452,4,1,0,100,0,0
262353,-136.59546975885,4,1,0,100,0,0
262420,-137.96052468279,4,1,0,100,0,0
262554,-140.731695528675,4,1,0,100,0,0
262676,-142.857142857143,4,1,0,100,0,0
262809,-77.1649405947231,4,1,0,100,0,0
262958,-79.1128181807148,4,1,0,100,0,0
263092,-81.0948893933363,4,1,0,100,0,0
263227,-83.1419708291583,4,1,0,100,0,0
263362,-85.2407268210001,4,1,0,100,0,0
263496,-87.3763250042036,4,1,0,100,0,0
263631,-89.5819689625902,4,1,0,100,0,0
263765,-91.8263314557215,4,1,0,100,0,0
263886,-94.1443070994256,4,1,0,100,0,0
264034,-96.5029731819274,4,1,0,100,0,0
264169,-98.9390014739713,4,1,0,100,0,0
264303,-101.417792536364,4,1,0,100,0,0
264370,-102.680380336538,4,1,0,100,0,0
264438,-103.977885803848,4,1,0,100,0,0
264572,-106.582919715424,4,1,0,100,0,0
264707,-109.273396488465,4,1,0,100,0,0
264841,-112.011102696711,4,1,0,100,0,0
264962,-114.83860330312,4,1,0,100,0,0
265110,-117.715738702151,4,1,0,100,0,0
265245,-120.687241656331,4,1,0,100,0,0
265312,-122.189721991793,4,1,0,100,0,0
265379,-123.710907263481,4,1,0,100,0,0
265514,-126.83374649,4,1,0,100,0,0
265649,-130.035415668141,4,1,0,100,0,0
265716,-131.654274896952,4,1,0,100,0,0
265783,-133.293287906094,4,1,0,100,0,0
265918,-136.658015538544,4,1,0,100,0,0
266052,-140.081808607755,4,1,0,100,0,0
266187,-143.617899131369,4,1,0,100,0,0
266321,-147.216063247268,4,1,0,100,0,0
266456,-150.932244037238,4,1,0,100,0,0
266576,-76.9230769230769,4,1,0,100,0,0
266859,-162.59310291222,4,1,0,100,0,0
266927,-164.64768665338,4,1,0,100,0,0
266994,-166.697446910396,4,1,0,100,0,0
267114,-77.1741866756116,4,1,0,100,0,0
267263,-79.1976162207736,4,1,0,100,0,0
267397,-81.2585182976131,4,1,0,100,0,0
267532,-83.389034909477,4,1,0,100,0,0
267666,-85.5590072322741,4,1,0,100,0,0
267801,-87.8022783381453,4,1,0,100,0,0
267936,-90.1043657559072,4,1,0,100,0,0
268070,-92.4490862586179,4,1,0,100,0,0
268191,-94.873008305833,4,1,0,100,0,0
268339,-97.3418197320313,4,1,0,100,0,0
268406,-98.6002134984521,4,1,0,100,0,0
268474,-99.8940243293214,4,1,0,100,0,0
268608,-102.49349401071,4,1,0,100,0,0
268743,-105.180770325521,4,1,0,100,0,0
268810,-106.540502721005,4,1,0,100,0,0
268877,-107.917813160285,4,1,0,100,0,0
269012,-110.747309666877,4,1,0,100,0,0
269146,-113.629206514134,4,1,0,100,0,0
269267,-116.608450009377,4,1,0,100,0,0
269415,-119.642867057126,4,1,0,100,0,0
269550,-122.779782682668,4,1,0,100,0,0
269617,-124.367027646813,4,1,0,100,0,0
269684,-125.974791840763,4,1,0,100,0,0
269819,-129.277724164853,4,1,0,100,0,0
269953,-132.641824537239,4,1,0,100,0,0
270088,-136.119559752266,4,1,0,100,0,0
270223,-139.688477686379,4,1,0,100,0,0
270290,-141.494311089178,4,1,0,100,0,0
270344,-142.857142857143,4,1,0,100,0,0
270507,-100,4,1,0,100,0,0
271420,-181.818181818182,4,1,0,60,0,0
297232,-125,4,1,0,40,0,0
297366,-123.38289245028,4,1,0,44,0,0
297680,-119.752623688156,4,1,0,54,0,0
297837,-118.016437344168,4,1,0,59,0,0
298022,-115.855316834376,4,1,0,50,0,0
298218,-114.005352363961,4,1,0,46,0,0
298376,-112.648743940062,4,1,0,43,0,0
298487,-111.333739872811,4,1,0,40,0,0
298830,-125,4,1,0,50,0,0
299014,-120.01586986709,4,1,0,47,0,0
299149,-116.885625965997,4,1,0,45,0,0
299283,-113.935969868173,4,1,0,43,0,0
299452,-111.111111111111,4,1,0,40,0,0
299687,-125,4,1,0,42,0,0
299822,-121.198468123451,4,1,0,44,0,0
299956,-117.647058823529,4,1,0,47,0,0
300242,-125,4,1,0,50,0,0
300389,-120.352519966951,4,1,0,47,0,0
300528,-115.03027112398,4,1,0,44,0,0
300629,-111.111111111111,4,1,0,41,0,0
300999,-125,4,1,0,50,0,0
301167,-119.268558951965,4,1,0,47,0,0
301302,-115.06055818852,4,1,0,44,0,0
301436,-111.111111111111,4,1,0,41,0,0
301554,-76.9230769230769,4,1,0,100,0,0
302361,-100,4,1,0,100,0,0
302495,-100.836924614328,4,1,0,100,0,0
302630,-76.9230769230769,4,1,0,100,0,0
303034,-104.349793174767,4,1,0,100,0,0
303169,-76.9230769230769,4,1,0,100,0,0
303303,-106.196145497599,4,1,0,100,0,0
303437,-107.140487092707,4,1,0,100,0,0
303707,-76.9230769230769,4,1,0,100,0,0
303975,-111.107287867318,4,1,0,100,0,0
304244,-113.202916841958,4,1,0,100,0,0
304513,-115.379118130494,4,1,0,100,0,0
304783,-76.9230769230769,4,1,0,100,0,0
304917,-118.809331076606,4,1,0,100,0,0
305186,-121.208708708709,4,1,0,100,0,0
305455,-123.706995632519,4,1,0,100,0,0
305590,-125,4,1,0,100,0,0
305859,-76.9230769230769,4,1,0,100,0,0
306666,-100,4,1,0,100,0,0
306935,-76.9230769230769,4,1,0,100,0,0
307069,-102.616543306064,4,1,0,100,0,0
307339,-104.447528416601,4,1,0,100,0,0
307473,-75.8821968691961,4,1,0,100,0,0
307608,-72.013093289689,4,1,0,100,0,0
307742,-68.5440383463152,4,1,0,100,0,0
308011,-62.5,4,1,0,100,0,0
308280,-111.373405679656,4,1,0,100,0,0
308550,-76.9230769230769,4,1,0,100,0,0
308751,-115.196793002915,4,1,0,100,0,0
309088,-76.9230769230769,4,1,0,100,0,0
309289,-119.898346229707,4,1,0,100,0,0
309558,-122.396035003485,4,1,0,100,0,0
309827,-125,4,1,0,100,0,0
310164,-76.9230769230769,4,1,0,100,0,0
312047,-100,4,1,0,100,0,0
312316,-76.9230769230769,4,1,0,100,0,0
312854,-108.104036955212,4,1,0,100,0,0
313123,-111.105377231912,4,1,0,100,0,0
313393,-76.9230769230769,4,1,0,100,0,0
313661,-117.637416675773,4,1,0,100,0,0
313930,-121.200180139608,4,1,0,100,0,0
314200,-125,4,1,0,100,0,0
314469,-76.9230769230769,4,1,0,100,0,0
315545,-76.9230769230769,4,1,0,100,0,0
315814,-100,4,1,0,100,0,0
316083,-75.8821968691961,4,1,0,100,0,0
316218,-72.0403022670025,4,1,0,100,0,0
316353,-68.5440383463152,4,1,0,100,0,0
316622,-62.5,4,1,0,100,0,0
316891,-108.695652173913,4,1,0,100,0,0
317160,-111.111111111111,4,1,0,100,0,0
317250,-111.943404078236,4,1,0,100,0,0
317396,-113.320414525234,4,1,0,100,0,0
317698,-116.279069767442,4,1,0,100,0,0
317833,-117.652204338698,4,1,0,100,0,0
317967,-119.047619047619,4,1,0,100,0,0
318236,-121.951219512195,4,1,0,100,0,0
318326,-122.954566230917,4,1,0,100,0,0
318505,-125,4,1,0,100,0,0
318774,-76.9230769230769,4,1,0,100,0,0
319072,-100,4,1,0,100,0,0
319161,-101.682101682102,4,1,0,100,0,0
319341,-105.263157894737,4,1,0,100,0,0
319610,-111.111111111111,4,1,0,100,0,0
319850,-76.9230769230769,4,1,0,100,0,0
320148,-125,4,1,0,100,0,0
320388,-76.9230769230769,4,1,0,100,0,0
320926,-76.9230769230769,4,1,0,100,0,0
321061,-100,4,1,0,100,0,0
321195,-101.557053218685,4,1,0,100,0,0
321330,-103.175540077913,4,1,0,100,0,0
321464,-104.833873095838,4,1,0,100,0,0
321599,-106.559375762009,4,1,0,100,0,0
321733,-108.329201784829,4,1,0,100,0,0
321868,-110.172696331779,4,1,0,100,0,0
322003,-76.9230769230769,4,1,0,100,0,0
322271,-116.069057104914,4,1,0,100,0,0
322361,-117.47311827957,4,1,0,100,0,0
322540,-120.369095165955,4,1,0,100,0,0
322809,-125,4,1,0,100,0,0
323079,-76.9230769230769,4,1,0,100,0,0
323987,-100,4,1,0,100,0,0
324155,-76.9230769230769,4,1,0,100,0,0
324424,-102.945034763217,4,1,0,100,0,0
324693,-104.79401749349,4,1,0,100,0,0
324962,-106.710633668752,4,1,0,100,0,0
325231,-76.9230769230769,4,1,0,100,0,0
325500,-110.76217360621,4,1,0,100,0,0
325769,-76.9230769230769,4,1,0,100,0,0
326544,-119.562733297783,4,1,0,100,0,0
326779,-121.742165684145,4,1,0,100,0,0
327115,-125,4,1,0,100,0,0
327384,-153.846153846154,4,1,0,40,0,0
331184,-90.4977375565611,4,1,0,40,0,0
331217,-153.846153846154,4,1,0,40,0,0
333317,-102.304889959862,4,1,0,40,0,0
333353,-153.846153846154,4,1,0,40,0,0
333989,-106.647839173572,4,1,0,40,0,0
334026,-153.846153846154,4,1,0,40,0,0
335469,-118.072545473886,4,1,0,40,0,0
335506,-133.333333333333,4,1,0,40,0,0
352150,-137.498548368366,4,1,0,40,0,0
352420,-141.949406545978,4,1,0,40,0,0
352554,-144.267089070306,4,1,0,40,0,0
352958,-151.736511598103,4,1,0,40,0,0
353227,-157.154234138572,4,1,0,40,0,0
353362,-160.021624543857,4,1,0,40,0,0
353496,-162.973158981418,4,1,0,40,0,0
353631,-166.058906030856,4,1,0,40,0,0
353765,-169.23956546598,4,1,0,40,0,0
353900,-172.569596268766,4,1,0,40,0,0
354034,-176.007135424409,4,1,0,40,0,0
354169,-179.611650485437,4,1,0,40,0,0
354303,-183.338494890059,4,1,0,40,0,0
354438,-187.252886288154,4,1,0,40,0,0
354572,-191.307157860721,4,1,0,40,0,0
354856,-200,4,1,0,40,0,0
355399,538.116591928251,4,1,0,20,1,0
355399,-117.994100294985,4,1,0,20,0,0
357546,-122.385596759296,4,1,0,20,0,0
359698,-127.116614335725,4,1,0,20,0,0
361851,-132.230581342379,4,1,0,20,0,0
364003,-137.770588891571,4,1,0,20,0,0
366156,-143.798032501161,4,1,0,20,0,0
368308,-150.373809558463,4,1,0,20,0,0
370461,-157.58332644435,4,1,0,20,0,0
372613,-165.515090638886,4,1,0,20,0,0
374766,-174.291938997821,4,1,0,20,0,0
376918,-184.046952304268,4,1,0,20,0,0
379071,-194.96404117624,4,1,0,20,0,0
381223,-207.251862713829,4,1,0,20,0,0
383376,-221.199693184196,4,1,0,20,0,0
385528,-237.152384056607,4,1,0,20,0,0
387680,-255.584900146481,4,1,0,20,0,0
389838,-255.584900146481,4,1,0,5,0,0
391990,538.116591928251,9,1,0,5,1,8
396228,-43.4782608695652,7,1,0,5,0,0
396296,269.058295964126,4,1,0,5,1,0
396296,-86.9565217391304,4,1,0,80,0,1
396397,-87.9801194576448,4,1,0,80,0,1
396464,-88.4971275709337,4,1,0,80,0,1
396531,-89.0202479156558,4,1,0,80,0,1
396666,-90.0933077369526,4,1,0,80,0,1
396800,-91.1843115991144,4,1,0,80,0,1
396868,-91.7481245737668,4,1,0,80,0,1
396935,-92.3105072960981,4,1,0,80,0,1
397002,-92.8798269434344,4,1,0,80,0,1
397069,-93.4562126615107,4,1,0,80,0,1
397204,-94.6395910519158,4,1,0,80,0,1
397271,-95.2380952380953,4,1,0,80,0,1
397339,-95.8533225668551,4,1,0,80,0,1
397406,-96.4673263540322,4,1,0,80,0,1
397473,-97.0892470531633,4,1,0,80,0,1
397608,-98.3670485010968,4,1,0,80,0,1
397742,-99.6690867782881,4,1,0,80,0,1
397809,-100.333117883956,4,1,0,80,0,1
397877,-101.016168593883,4,1,0,80,0,1
397944,-101.698331905458,4,1,0,80,0,1
398011,-102.389771170531,4,1,0,80,0,1
398078,-103.09067688378,4,1,0,80,0,1
398146,-103.811924481712,4,1,0,80,0,1
398280,-105.263157894737,4,1,0,80,0,1
398415,-86.9565217391304,4,1,0,80,0,1
398549,-87.972448668207,4,1,0,80,0,1
398617,-88.4971275709337,4,1,0,80,0,1
398684,-89.0202479156558,4,1,0,80,0,1
398818,-90.085264050712,4,1,0,80,0,1
398953,-91.1843115991144,4,1,0,80,0,1
399020,-91.7397826976406,4,1,0,80,0,1
399087,-92.302062845904,4,1,0,80,0,1
399155,-92.8798269434344,4,1,0,80,0,1
399222,-93.4562126615107,4,1,0,80,0,1
399356,-94.630715123095,4,1,0,80,0,1
399424,-95.2380952380953,4,1,0,80,0,1
399491,-95.8442175255284,4,1,0,80,0,1
399558,-96.4581042971177,4,1,0,80,0,1
399626,-97.0892470531633,4,1,0,80,0,1
399760,-98.3574596675927,4,1,0,80,0,1
399895,-99.6690867782881,4,1,0,80,0,1
399962,-100.333117883956,4,1,0,80,0,1
400029,-101.006056359177,4,1,0,80,0,1
400096,-101.688082640464,4,1,0,80,0,1
400164,-102.389771170531,4,1,0,80,0,1
400231,-103.09067688378,4,1,0,80,0,1
400298,-103.801244791935,4,1,0,80,0,1
400433,-105.263157894737,4,1,0,80,0,1
400567,-86.9565217391304,4,1,0,80,0,1
400702,-88.0538418395962,4,1,0,80,0,1
400836,-89.1707686482393,4,1,0,80,0,1
400904,-89.7484756097561,4,1,0,80,0,1
400971,-90.3250551347205,4,1,0,80,0,1
401105,-91.5007285089849,4,1,0,80,0,1
401173,-92.1091229099443,4,1,0,80,0,1
401240,-92.7165354330709,4,1,0,80,0,1
401307,-93.3320122857426,4,1,0,80,0,1
401374,-93.9557151406344,4,1,0,80,0,1
401509,-95.2380952380953,4,1,0,80,0,1
401643,-96.5460694885723,4,1,0,80,0,1
401711,-97.2236556920219,4,1,0,80,0,1
401778,-97.9006443566826,4,1,0,80,0,1
401845,-98.5871271585557,4,1,0,80,0,1
401913,-99.2937704226837,4,1,0,80,0,1
402047,-100.716347695926,4,1,0,80,0,1
402114,-101.443032522076,4,1,0,80,0,1
402182,-102.191364721198,4,1,0,80,0,1
402249,-102.939569445962,4,1,0,80,0,1
402316,-103.698811096433,4,1,0,80,0,1
402451,-105.263157894737,4,1,0,80,0,1
402585,-100,4,1,0,80,0,1
402652,-99.1766007127934,4,1,0,80,0,1
402720,-98.3546617915905,4,1,0,80,0,1
402787,-97.5580270793037,4,1,0,80,0,1
402854,-96.7741935483871,4,1,0,80,0,1
402922,-95.9914357083383,4,1,0,80,0,1
402989,-95.232475808355,4,1,0,80,0,1
403056,-94.4854232525465,4,1,0,80,0,1
403123,-93.75,4,1,0,80,0,1
403191,-93.015214384509,4,1,0,80,0,1
403258,-92.3024133592588,4,1,0,80,0,1
403325,-91.6004540295119,4,1,0,80,0,1
403392,-90.9090909090909,4,1,0,80,0,1
403527,-95.2549575070821,4,1,0,80,0,1
403661,-100,4,1,0,80,0,1
403729,-99.1654393716249,4,1,0,80,0,1
403796,-98.3566646378576,4,1,0,80,0,1
403864,-97.5491971507908,4,1,0,80,0,1
403931,-96.7664670658683,4,1,0,80,0,1
403999,-95.9847944880019,4,1,0,80,0,1
404066,-95.2268709487331,4,1,0,80,0,1
404133,-94.4808231992516,4,1,0,80,0,1
404200,-93.7463742893607,4,1,0,80,0,1
404268,-93.0125474847473,4,1,0,80,0,1
404335,-92.3006625542609,4,1,0,80,0,1
404402,-91.5995918830065,4,1,0,80,0,1
404502,-91.5566729520218,4,1,0,80,0,0
404720,-111.111111111111,4,1,0,80,0,0
404905,-100,4,1,0,80,0,1
404939,-99.0700672129638,4,1,0,80,0,1
405007,-98.4626647144949,4,1,0,80,0,1
405074,-97.862664847658,4,1,0,80,0,1
405141,-97.2699331043211,4,1,0,80,0,1
405209,-96.6669661306262,4,1,0,80,0,1
405276,-96.0971688845226,4,1,0,80,0,1
405343,-95.5255681818182,4,1,0,80,0,1
405410,-94.9607272085429,4,1,0,80,0,1
405478,-94.3942451092201,4,1,0,80,0,1
405545,-93.8426652712367,4,1,0,80,0,1
405612,-93.2974941472297,4,1,0,80,0,1
405679,-92.7586206896552,4,1,0,80,0,1
405747,-92.2180322248886,4,1,0,80,0,1
405814,-91.6915210907542,4,1,0,80,0,1
405881,-91.170987968141,4,1,0,80,0,1
405948,-90.9090909090909,4,1,0,80,0,1
406083,-92.7210984792559,4,1,0,80,0,1
406217,-94.5925591203494,4,1,0,80,0,1
406352,-96.5559655596556,4,1,0,80,0,1
406419,-97.5609756097561,4,1,0,80,0,1
406487,-98.6026063746271,4,1,0,80,0,1
406621,-100.721732157177,4,1,0,80,0,1
406756,-102.950819672131,4,1,0,80,0,1
406890,-105.263157894737,4,1,0,80,0,1
407025,-100,4,1,0,80,0,1
407092,-99.6454463671482,4,1,0,80,0,1
407159,-99.2933980172959,4,1,0,80,0,1
407226,-98.9438284903578,4,1,0,80,0,1
407294,-98.5915492957747,4,1,0,80,0,1
407361,-98.2468955441929,4,1,0,80,0,1
407428,-97.9046430614049,4,1,0,80,0,1
407495,-97.5647668393782,4,1,0,80,0,1
407563,-97.2222222222222,4,1,0,80,0,1
407630,-96.8870594288654,4,1,0,80,0,1
407697,-96.5541995692749,4,1,0,80,0,1
407765,-96.2187020950434,4,1,0,80,0,1
407832,-95.8904109589041,4,1,0,80,0,1
407899,-95.5643524157531,4,1,0,80,0,1
407966,-95.2405037681453,4,1,0,80,0,1
408034,-94.9140581682544,4,1,0,80,0,1
408101,-94.5945945945946,4,1,0,80,0,1
408168,-94.2772743203325,4,1,0,80,0,1
408235,-93.9620758483034,4,1,0,80,0,1
408303,-93.6443206683907,4,1,0,80,0,1
408370,-93.3333333333333,4,1,0,80,0,1
408437,-93.0244047030926,4,1,0,80,0,1
408504,-92.7175144024816,4,1,0,80,0,1
408572,-92.4081071796633,4,1,0,80,0,1
408639,-92.1052631578947,4,1,0,80,0,1
408706,-91.8043976402906,4,1,0,80,0,1
408774,-91.5010447543612,4,1,0,80,0,1
408841,-91.2041073331396,4,1,0,80,0,1
408908,-90.9090909090909,4,1,0,80,0,1
409043,-100,4,1,0,80,0,1
409110,-99.4493301553382,4,1,0,80,0,1
409177,-98.9046918424064,4,1,0,80,0,1
409244,-98.3659865051622,4,1,0,80,0,1
409312,-97.8252081817447,4,1,0,80,0,1
409379,-97.2981666130589,4,1,0,80,0,1
409446,-96.7767735743422,4,1,0,80,0,1
409513,-96.260938743039,4,1,0,80,0,1
409581,-95.7429973097009,4,1,0,80,0,1
409648,-95.2380952380952,4,1,0,80,0,1
409715,-94.7384904478547,4,1,0,80,0,1
409782,-94.2441000077888,4,1,0,80,0,1
409850,-93.7475788331913,4,1,0,80,0,1
409917,-93.2634499768768,4,1,0,80,0,1
409984,-92.7842956828464,4,1,0,80,0,1
410052,-92.3029979403463,4,1,0,80,0,1
410119,-91.8336369156041,4,1,0,80,0,1
410186,-91.3690251453598,4,1,0,80,0,1
410253,-90.9090909090909,4,1,0,80,0,1
410388,-92.7210984792559,4,1,0,80,0,1
410522,-94.5925591203494,4,1,0,80,0,1
410590,-95.5714503119769,4,1,0,80,0,1
410657,-96.5559655596556,4,1,0,80,0,1
410791,-98.5871271585557,4,1,0,80,0,1
410926,-100.721732157177,4,1,0,80,0,1
410993,-101.815823605707,4,1,0,80,0,1
411061,-102.950819672131,4,1,0,80,0,1
411195,-105.263157894737,4,1,0,80,0,1
411330,-100,4,1,0,80,0,1
411397,-99.1766007127934,4,1,0,80,0,1
411464,-98.366650414432,4,1,0,80,0,1
411531,-97.569822270584,4,1,0,80,0,1
411599,-96.7741935483871,4,1,0,80,0,1
411666,-96.0028551034975,4,1,0,80,0,1
411733,-95.2437153310516,4,1,0,80,0,1
411800,-94.4964871194379,4,1,0,80,0,1
411868,-93.75,4,1,0,80,0,1
411935,-93.0259365994236,4,1,0,80,0,1
412002,-92.3129718599863,4,1,0,80,0,1
412069,-91.6108525371779,4,1,0,80,0,1
412137,-90.9090909090909,4,1,0,80,0,1
412304,-86.767895878525,4,1,0,80,0,0
413515,-83.3333333333333,4,1,0,80,0,1
413617,-84.2729474651299,4,1,0,80,0,1
413684,-84.7471862926256,4,1,0,80,0,1
413751,-85.2267928034462,4,1,0,80,0,1
413886,-86.2098427887902,4,1,0,80,0,1
413953,-86.7061957549197,4,1,0,80,0,1
414020,-87.2082973206569,4,1,0,80,0,1
414087,-87.7162479353212,4,1,0,80,0,1
414155,-88.2378662002623,4,1,0,80,0,1
414289,-89.2841341474206,4,1,0,80,0,1
414356,-89.8166280932882,4,1,0,80,0,1
414424,-90.3636037972416,4,1,0,80,0,1
414491,-90.9090909090909,4,1,0,80,0,1
414558,-91.4612037708484,4,1,0,80,0,1
414693,-92.5942920069744,4,1,0,80,0,1
414827,-93.7470965344235,4,1,0,80,0,1
414895,-94.3431510051426,4,1,0,80,0,1
414962,-94.9378998870907,4,1,0,80,0,1
415029,-95.5401950572863,4,1,0,80,0,1
415096,-96.1501810558414,4,1,0,80,0,1
415231,-97.4032242494449,4,1,0,80,0,1
415365,-98.679706601467,4,1,0,80,0,1
415433,-99.3403564044501,4,1,0,80,0,1
415500,-100,4,1,0,80,0,1
415635,-83.3333333333333,4,1,0,80,0,1
415769,-84.4118215182538,4,1,0,80,0,1
415903,-85.5185909980431,4,1,0,80,0,1
415971,-86.0914105594957,4,1,0,80,0,1
416038,-86.6633614278632,4,1,0,80,0,1
416172,-87.8303688071551,4,1,0,80,0,1
416240,-88.4346858241425,4,1,0,80,0,1
416307,-89.038304808476,4,1,0,80,0,1
416374,-89.6502205354395,4,1,0,80,0,1
416441,-90.2706052468498,4,1,0,80,0,1
416576,-91.5470828532523,4,1,0,80,0,1
416710,-92.8503133963667,4,1,0,80,0,1
416711,-92.8601784955376,4,1,0,80,0,1
416778,-93.525949705725,4,1,0,80,0,1
416845,-94.2013364949343,4,1,0,80,0,1
416979,-95.5818022747157,4,1,0,80,0,1
417047,-96.2979286029088,4,1,0,80,0,1
417114,-97.014097014097,4,1,0,80,0,1
417182,-97.7519293143944,4,1,0,80,0,1
417248,-98.4788732394366,4,1,0,80,0,1
417383,-100,4,1,0,80,0,1
417517,-96.175799086758,4,1,0,80,0,1
417563,-94.9295774647887,4,1,0,80,0,1
417608,-93.7413073713491,4,1,0,80,0,1
417652,-92.607859302006,4,1,0,80,0,1
417720,-90.9090909090909,4,1,0,80,0,1
417787,-83.3333333333333,4,1,0,80,0,1
417922,-84.2729474651299,4,1,0,80,0,1
418056,-85.2267928034462,4,1,0,80,0,1
418123,-85.7118586476385,4,1,0,80,0,1
418191,-86.2098427887902,4,1,0,80,0,1
418325,-87.2082973206569,4,1,0,80,0,1
418460,-88.2378662002623,4,1,0,80,0,1
418594,-89.2841341474206,4,1,0,80,0,1
418661,-89.8166280932882,4,1,0,80,0,1
418729,-90.3636037972416,4,1,0,80,0,1
418796,-90.9090909090909,4,1,0,80,0,1
418863,-91.4612037708484,4,1,0,80,0,1
418998,-92.5942920069744,4,1,0,80,0,1
419065,-93.1671283471837,4,1,0,80,0,1
419132,-93.7470965344235,4,1,0,80,0,1
419200,-94.3431510051426,4,1,0,80,0,1
419267,-94.9378998870907,4,1,0,80,0,1
419401,-96.1501810558414,4,1,0,80,0,1
419469,-96.7772875503549,4,1,0,80,0,1
419536,-97.4032242494449,4,1,0,80,0,1
419603,-98.0373105324524,4,1,0,80,0,1
419670,-98.679706601467,4,1,0,80,0,1
419805,-100,4,1,0,80,0,1
419939,-83.3333333333333,4,1,0,80,0,1
420074,-103.173666823974,4,1,0,80,0,1
420209,-104.843543939576,4,1,0,80,0,1
420276,-105.692530819434,4,1,0,80,0,1
420343,-106.555379554039,4,1,0,80,0,1
420478,-108.33746283449,4,1,0,80,0,1
420545,-109.244222361024,4,1,0,80,0,1
420612,-110.166288737717,4,1,0,80,0,1
420679,-111.104052852242,4,1,0,80,0,1
420747,-112.072279892349,4,1,0,80,0,1
420881,-114.030512452732,4,1,0,80,0,1
420948,-115.035516969219,4,1,0,80,0,1
421016,-116.073798778869,4,1,0,80,0,1
421083,-117.11530735235,4,1,0,80,0,1
421150,-118.175675675676,4,1,0,80,0,1
421285,-120.371644872677,4,1,0,80,0,1
421419,-122.63357172907,4,1,0,80,0,1
421587,-125,4,1,0,80,0,0
422125,-83.3333333333333,4,1,0,80,0,1
422226,-84.2659094705195,4,1,0,80,0,1
422294,-84.7471862926256,4,1,0,80,0,1
422361,-85.2267928034462,4,1,0,80,0,1
422495,-86.2024775736865,4,1,0,80,0,1
422630,-87.2082973206569,4,1,0,80,0,1
422697,-87.7162479353212,4,1,0,80,0,1
422765,-88.2378662002623,4,1,0,80,0,1
422832,-88.7579169598874,4,1,0,80,0,1
422899,-89.2841341474206,4,1,0,80,0,1
423034,-90.3636037972416,4,1,0,80,0,1
423101,-90.9090909090909,4,1,0,80,0,1
423168,-91.4612037708484,4,1,0,80,0,1
423235,-92.0200638394893,4,1,0,80,0,1
423303,-92.5942920069744,4,1,0,80,0,1
423437,-93.7470965344235,4,1,0,80,0,1
423572,-94.9378998870907,4,1,0,80,0,1
423639,-95.5401950572863,4,1,0,80,0,1
423706,-96.1501810558414,4,1,0,80,0,1
423774,-96.7772875503549,4,1,0,80,0,1
423841,-97.4032242494449,4,1,0,80,0,1
423975,-98.679706601467,4,1,0,80,0,1
424043,-99.3403564044501,4,1,0,80,0,1
424110,-100,4,1,0,80,0,1
424244,-83.6697247706422,4,1,0,80,0,1
424379,-84.9884088763916,4,1,0,80,0,1
424513,-86.3362459780629,4,1,0,80,0,1
424581,-87.036707488716,4,1,0,80,0,1
424648,-87.7380741248107,4,1,0,80,0,1
424782,-89.1752737519295,4,1,0,80,0,1
424850,-89.9227591912802,4,1,0,80,0,1
424917,-90.6716103480239,4,1,0,80,0,1
424984,-91.4330386827184,4,1,0,80,0,1
425052,-92.2190201729107,4,1,0,80,0,1
425186,-93.8080987949234,4,1,0,80,0,1
425253,-94.6233533250083,4,1,0,80,0,1
425321,-95.4653937947494,4,1,0,80,0,1
425388,-96.3098384169741,4,1,0,80,0,1
425455,-97.1693555305709,4,1,0,80,0,1
425590,-98.9486703772418,4,1,0,80,0,1
425657,-99.8561551668136,4,1,0,80,0,1
425724,-100.780439603154,4,1,0,80,0,1
425859,-102.695763799743,4,1,0,80,0,1
425926,-103.673620796389,4,1,0,80,0,1
425993,-104.670278893764,4,1,0,80,0,1
426061,-105.701599276985,4,1,0,80,0,1
426128,-106.737825216811,4,1,0,80,0,1
426262,-108.872446721052,4,1,0,80,0,1
426430,-111.111111111111,4,1,0,50,0,0
426800,-116.458190285697,4,1,0,50,0,0
427204,-122.36128101377,4,1,0,50,0,0
427473,-126.635286479468,4,1,0,50,0,0
427742,-131.218675367486,4,1,0,50,0,0
428146,-138.761427097784,4,1,0,50,0,0
428549,-147.201992377646,4,1,0,50,0,0
428953,-156.761101064898,4,1,0,50,0,0
429356,-167.619129463327,4,1,0,50,0,0
429626,-175.776145631505,4,1,0,50,0,0
429895,-184.732679831415,4,1,0,50,0,0
430298,-200,4,1,0,50,0,0
430718,-100,4,1,0,50,0,0

[HitObjects]
256,192,243,8,0,8583,0:0:0:0:
381,150,8852,5,4,0:0:0:0:
381,150,9121,1,4,0:0:0:0:
446,131,9390,1,8,0:0:0:0:
412,125,9929,1,8,0:0:0:0:
386,155,10467,1,4,0:0:0:0:
412,125,11005,1,4,0:0:0:0:
441,130,11543,1,8,0:0:0:0:
293,81,11879,1,0,0:0:0:0:
274,120,12081,1,8,0:0:0:0:
408,146,12216,1,8,0:0:0:0:
408,146,12485,1,0,0:0:0:0:
408,146,12754,1,0,0:0:0:0:
408,146,12888,1,8,0:0:0:0:
412,126,13157,1,4,0:0:0:0:
412,126,13426,1,4,0:0:0:0:
412,126,13695,1,4,0:0:0:0:
416,146,14234,1,8,0:0:0:0:
432,130,14772,1,4,0:0:0:0:
432,130,14906,1,4,0:0:0:0:
432,130,15041,1,4,0:0:0:0:
292,121,15310,1,4,0:0:0:0:
337,126,15848,1,4,0:0:0:0:
432,182,16184,1,0,0:0:0:0:
310,90,16386,1,8,0:0:0:0:
310,90,16521,1,8,0:0:0:0:
279,113,16790,1,0,0:0:0:0:
279,113,17059,1,8,0:0:0:0:
279,113,17193,1,8,0:0:0:0:
375,154,17462,1,4,0:0:0:0:
424,173,17731,1,4,0:0:0:0:
424,173,18000,1,4,0:0:0:0:
424,173,18538,1,8,0:0:0:0:
424,173,19077,1,4,0:0:0:0:
424,173,19211,1,4,0:0:0:0:
424,173,19346,1,4,0:0:0:0:
424,173,19615,1,4,0:0:0:0:
460,194,20153,1,0,0:0:0:0:
439,202,20422,1,0,0:0:0:0:
439,202,20691,1,8,0:0:0:0:
439,202,20825,1,8,0:0:0:0:
356,126,21095,1,0,0:0:0:0:
356,126,21364,1,8,0:0:0:0:
356,126,21498,1,8,0:0:0:0:
356,126,21767,1,4,0:0:0:0:
356,126,22036,1,4,0:0:0:0:
356,126,22305,1,4,0:0:0:0:
404,190,22843,1,8,0:0:0:0:
281,108,23382,1,4,0:0:0:0:
281,108,23516,1,4,0:0:0:0:
281,108,23651,1,4,0:0:0:0:
286,124,23920,1,4,0:0:0:0:
346,136,24390,1,0,0:0:0:0:
309,116,24660,1,0,0:0:0:0:
396,123,24996,1,8,0:0:0:0:
240,103,25130,1,8,0:0:0:0:
275,107,25265,1,8,0:0:0:0:
275,107,25399,1,8,0:0:0:0:
275,107,25534,1,8,0:0:0:0:
275,107,25669,1,8,0:0:0:0:
275,107,25803,1,8,0:0:0:0:
275,107,25938,1,8,0:0:0:0:
404,174,26072,1,0,0:0:0:0:
404,174,26207,1,0,0:0:0:0:
404,174,26341,1,8,0:0:0:0:
404,174,26476,1,0,0:0:0:0:
404,174,26610,1,8,0:0:0:0:
404,174,26745,1,8,0:0:0:0:
404,174,26879,1,0,0:0:0:0:
404,174,27148,1,8,0:0:0:0:
404,174,27417,1,8,0:0:0:0:
444,201,27686,1,0,0:0:0:0:
444,201,27821,1,0,0:0:0:0:
444,201,27956,1,8,0:0:0:0:
444,201,28090,1,0,0:0:0:0:
444,201,28225,1,0,0:0:0:0:
444,201,28359,1,8,0:0:0:0:
444,201,28494,1,0,0:0:0:0:
444,201,28763,1,8,0:0:0:0:
444,201,29032,1,0,0:0:0:0:
450,197,29301,1,8,0:0:0:0:
441,191,29839,1,8,0:0:0:0:
441,191,30108,1,8,0:0:0:0:
471,198,30377,1,0,0:0:0:0:
428,211,30512,1,8,0:0:0:0:
433,191,30781,1,0,0:0:0:0:
493,243,31050,1,0,0:0:0:0:
428,185,31184,1,8,0:0:0:0:
471,198,31453,1,8,0:0:0:0:
411,204,31722,1,0,0:0:0:0:
435,208,31991,1,0,0:0:0:0:
435,208,32126,1,0,0:0:0:0:
435,208,32260,1,8,0:0:0:0:
409,162,32395,1,8,0:0:0:0:
443,203,32529,1,0,0:0:0:0:
443,203,32664,1,8,0:0:0:0:
443,203,32799,1,0,0:0:0:0:
443,203,33068,1,8,0:0:0:0:
443,203,33337,1,8,0:0:0:0:
443,203,33606,1,0,0:0:0:0:
468,222,34144,1,8,0:0:0:0:
443,203,34278,1,8,0:0:0:0:
377,170,34413,1,0,0:0:0:0:
377,170,34547,1,8,0:0:0:0:
377,170,34682,1,0,0:0:0:0:
439,234,35220,1,8,0:0:0:0:
439,234,35355,1,8,0:0:0:0:
432,238,35758,1,0,0:0:0:0:
432,238,35893,1,8,0:0:0:0:
432,238,36027,1,0,0:0:0:0:
432,238,36162,1,0,0:0:0:0:
432,238,36296,1,8,0:0:0:0:
432,238,36834,1,8,0:0:0:0:
432,238,36969,1,0,0:0:0:0:
432,238,37103,1,8,0:0:0:0:
249,160,37238,1,8,0:0:0:0:
321,154,37373,1,0,0:0:0:0:
321,154,37507,1,0,0:0:0:0:
321,154,37642,1,8,0:0:0:0:
321,154,37776,1,0,0:0:0:0:
321,154,37911,1,8,0:0:0:0:
321,154,38045,1,8,0:0:0:0:
224,137,38180,1,0,0:0:0:0:
224,137,38314,1,0,0:0:0:0:
224,137,38449,1,8,0:0:0:0:
340,140,38516,1,8,0:0:0:0:
235,144,38583,1,8,0:0:0:0:
339,152,38651,1,8,0:0:0:0:
224,137,38718,1,8,0:0:0:0:
347,142,38785,1,8,0:0:0:0:
347,142,38852,1,8,0:0:0:0:
347,142,38920,1,8,0:0:0:0:
346,167,38987,1,4,0:0:0:0:
317,203,40063,1,8,0:0:0:0:
317,203,40601,1,0,0:0:0:0:
366,204,41139,1,8,0:0:0:0:
330,152,42216,1,8,0:0:0:0:
470,204,42754,1,12,0:0:0:0:
499,265,43292,1,4,0:0:0:0:
240,89,44368,1,8,0:0:0:0:
315,218,45444,1,8,0:0:0:0:
317,218,46521,1,8,0:0:0:0:
270,166,47059,1,0,0:0:0:0:
328,179,47597,1,4,0:0:0:0:
408,262,48202,1,0,0:0:0:0:
415,258,48337,1,0,0:0:0:0:
415,258,48538,1,8,0:0:0:0:
415,258,48673,1,8,0:0:0:0:
415,258,48942,1,0,0:0:0:0:
299,168,49144,1,0,0:0:0:0:
222,192,49413,1,0,0:0:0:0:
281,210,49547,1,0,0:0:0:0:
222,192,49749,1,8,0:0:0:0:
411,208,50523,1,8,0:0:0:0:
260,157,50825,1,0,0:0:0:0:
376,108,50910,1,0,0:0:0:0:
376,108,50994,1,0,0:0:0:0:
267,137,51162,1,0,0:0:0:0:
290,177,51364,1,0,0:0:0:0:
453,276,51532,1,0,0:0:0:0:
276,157,51734,1,0,0:0:0:0:
326,133,51902,1,12,0:0:0:0:
306,157,52978,1,8,0:0:0:0:
356,187,54054,1,8,0:0:0:0:
360,183,55130,1,8,0:0:0:0:
144,126,55669,1,0,0:0:0:0:
144,126,55736,1,0,0:0:0:0:
144,126,55803,1,0,0:0:0:0:
144,126,55870,1,0,0:0:0:0:
144,126,55938,1,0,0:0:0:0:
144,126,56005,1,0,0:0:0:0:
144,126,56072,1,8,0:0:0:0:
177,140,56139,1,8,0:0:0:0:
177,140,56207,1,4,0:0:0:0:
325,164,56386,1,8,0:0:0:0:
452,250,56745,1,0,0:0:0:0:
469,183,56924,1,8,0:0:0:0:
470,251,57283,1,8,0:0:0:0:
498,284,57462,1,0,0:0:0:0:
467,242,57821,1,8,0:0:0:0:
467,242,58359,1,8,0:0:0:0:
467,242,58538,1,0,0:0:0:0:
467,242,58897,1,0,0:0:0:0:
467,242,59077,1,8,0:0:0:0:
327,122,59435,1,8,0:0:0:0:
376,199,59973,1,0,0:0:0:0:
376,199,60108,1,8,0:0:0:0:
376,199,60243,1,8,0:0:0:0:
376,199,60512,1,4,0:0:0:0:
379,216,61588,1,8,0:0:0:0:
379,216,62664,1,8,0:0:0:0:
379,216,63202,1,0,0:0:0:0:
379,216,63740,1,8,0:0:0:0:
379,216,64278,1,0,0:0:0:0:
379,216,64413,1,0,0:0:0:0:
379,216,64547,1,8,0:0:0:0:
379,216,64816,1,4,0:0:0:0:
379,216,64996,1,8,0:0:0:0:
373,197,65355,1,0,0:0:0:0:
282,136,65534,1,8,0:0:0:0:
311,98,65893,1,8,0:0:0:0:
296,114,66072,1,0,0:0:0:0:
296,114,66431,1,8,0:0:0:0:
296,114,66969,1,0,0:0:0:0:
296,114,67148,1,8,0:0:0:0:
251,128,67507,1,0,0:0:0:0:
251,128,67686,1,8,0:0:0:0:
481,183,68045,1,8,0:0:0:0:
496,276,68583,1,0,0:0:0:0:
424,238,68763,1,8,0:0:0:0:
439,217,69121,1,0,0:0:0:0:
439,217,69480,1,0,0:0:0:0:
367,93,69660,1,8,0:0:0:0:
418,234,71274,1,8,0:0:0:0:
418,234,71632,1,0,0:0:0:0:
418,234,71812,1,8,0:0:0:0:
366,198,73426,1,0,0:0:0:0:
341,127,73561,1,0,0:0:0:0:
331,136,73695,1,8,0:0:0:0:
341,157,73830,1,0,0:0:0:0:
342,157,73964,1,0,0:0:0:0:
342,157,74099,1,8,0:0:0:0:
366,198,74234,1,0,0:0:0:0:
341,127,74369,1,0,0:0:0:0:
331,136,74503,1,8,0:0:0:0:
341,157,74638,1,0,0:0:0:0:
342,157,74772,1,0,0:0:0:0:
342,157,74907,1,8,0:0:0:0:
331,156,75175,1,0,0:0:0:0:
366,198,75579,1,0,0:0:0:0:
341,127,75714,1,0,0:0:0:0:
331,136,75848,1,8,0:0:0:0:
341,157,75983,1,0,0:0:0:0:
342,157,76117,1,0,0:0:0:0:
342,157,76252,1,8,0:0:0:0:
366,198,76386,1,0,0:0:0:0:
341,127,76521,1,0,0:0:0:0:
341,157,76790,1,0,0:0:0:0:
342,157,76924,1,8,0:0:0:0:
173,170,77059,1,0,0:0:0:0:
173,170,77193,1,0,0:0:0:0:
181,167,77328,1,8,0:0:0:0:
181,167,77462,1,0,0:0:0:0:
181,167,77597,1,0,0:0:0:0:
300,153,77731,1,0,0:0:0:0:
308,235,77866,1,0,0:0:0:0:
308,235,78000,1,8,0:0:0:0:
366,198,78135,1,0,0:0:0:0:
341,127,78270,1,0,0:0:0:0:
331,136,78404,1,8,0:0:0:0:
341,157,78539,1,0,0:0:0:0:
342,157,78673,1,0,0:0:0:0:
342,157,78808,1,8,0:0:0:0:
366,198,78942,1,0,0:0:0:0:
341,127,79077,1,0,0:0:0:0:
331,136,79211,1,8,0:0:0:0:
342,157,79480,1,0,0:0:0:0:
366,198,79884,1,0,0:0:0:0:
341,127,80019,1,0,0:0:0:0:
331,136,80153,1,8,0:0:0:0:
341,157,80288,1,0,0:0:0:0:
342,157,80422,1,0,0:0:0:0:
342,157,80557,1,8,0:0:0:0:
295,166,80691,1,0,0:0:0:0:
284,172,80825,1,0,0:0:0:0:
284,172,81095,1,0,0:0:0:0:
284,172,81229,1,8,0:0:0:0:
284,172,81364,1,0,0:0:0:0:
414,230,81498,1,8,0:0:0:0:
414,230,81633,1,8,0:0:0:0:
414,230,81767,1,8,0:0:0:0:
414,230,81834,1,8,0:0:0:0:
414,230,81902,1,8,0:0:0:0:
414,230,81969,1,8,0:0:0:0:
358,225,82036,1,4,0:0:0:0:
361,212,82171,1,8,0:0:0:0:
361,212,82238,1,0,0:0:0:0:
361,212,82305,1,8,0:0:0:0:
341,182,82440,1,0,0:0:0:0:
343,212,82574,1,8,0:0:0:0:
402,235,82642,1,0,0:0:0:0:
402,235,82709,1,0,0:0:0:0:
402,235,82776,1,0,0:0:0:0:
402,235,82843,1,8,0:0:0:0:
402,235,82978,1,0,0:0:0:0:
328,153,83112,1,8,0:0:0:0:
328,153,83180,1,8,0:0:0:0:
328,153,83247,1,0,0:0:0:0:
465,274,83382,1,8,0:0:0:0:
465,274,83449,1,0,0:0:0:0:
465,274,83516,1,8,0:0:0:0:
444,243,83583,1,0,0:0:0:0:
444,243,83651,1,8,0:0:0:0:
444,243,83718,1,8,0:0:0:0:
356,212,83785,1,0,0:0:0:0:
364,212,83920,1,8,0:0:0:0:
176,136,83987,1,0,0:0:0:0:
364,212,84054,1,8,0:0:0:0:
176,136,84189,1,0,0:0:0:0:
176,136,84256,1,8,0:0:0:0:
176,136,84323,1,0,0:0:0:0:
44,102,84390,1,0,0:0:0:0:
251,127,84458,1,8,0:0:0:0:
412,208,84592,1,8,0:0:0:0:
251,127,84727,1,0,0:0:0:0:
186,61,84794,1,0,0:0:0:0:
251,127,84861,1,0,0:0:0:0:
251,127,84996,1,8,0:0:0:0:
363,127,85063,1,8,0:0:0:0:
363,127,85130,1,0,0:0:0:0:
363,127,85265,1,8,0:0:0:0:
363,127,85332,1,8,0:0:0:0:
363,127,85399,1,0,0:0:0:0:
473,269,85467,1,0,0:0:0:0:
363,127,85534,1,8,0:0:0:0:
363,127,85601,1,8,0:0:0:0:
363,127,85669,1,0,0:0:0:0:
363,127,85736,1,0,0:0:0:0:
363,127,85803,1,8,0:0:0:0:
363,127,85870,1,0,0:0:0:0:
363,127,85938,1,8,0:0:0:0:
363,127,86005,1,8,0:0:0:0:
474,262,86072,1,0,0:0:0:0:
363,127,86207,1,8,0:0:0:0:
315,239,86341,1,4,0:0:0:0:
366,185,86476,1,0,0:0:0:0:
366,185,86610,1,8,0:0:0:0:
366,185,86677,1,8,0:0:0:0:
366,185,86745,1,0,0:0:0:0:
366,185,86879,1,8,0:0:0:0:
366,185,86947,1,0,0:0:0:0:
366,185,87014,1,0,0:0:0:0:
366,185,87081,1,0,0:0:0:0:
366,185,87148,1,8,0:0:0:0:
338,164,87283,1,0,0:0:0:0:
341,186,87417,1,8,0:0:0:0:
341,186,87485,1,8,0:0:0:0:
341,186,87552,1,0,0:0:0:0:
341,186,87686,1,8,0:0:0:0:
287,142,87754,1,0,0:0:0:0:
341,186,87821,1,0,0:0:0:0:
324,158,87956,1,8,0:0:0:0:
241,146,88023,1,8,0:0:0:0:
198,178,88090,1,0,0:0:0:0:
324,158,88157,1,0,0:0:0:0:
241,146,88225,1,8,0:0:0:0:
250,154,88292,1,8,0:0:0:0:
241,146,88359,1,8,0:0:0:0:
366,175,88494,1,0,0:0:0:0:
371,177,88561,1,8,0:0:0:0:
440,111,88628,1,8,0:0:0:0:
335,197,88763,1,8,0:0:0:0:
345,127,88830,1,0,0:0:0:0:
440,111,88897,1,0,0:0:0:0:
345,127,89032,1,8,0:0:0:0:
345,127,89099,1,8,0:0:0:0:
314,92,89166,1,0,0:0:0:0:
440,113,89234,1,0,0:0:0:0:
345,127,89301,1,8,0:0:0:0:
432,118,89368,1,8,0:0:0:0:
364,153,89435,1,0,0:0:0:0:
380,155,89570,1,8,0:0:0:0:
255,190,89839,1,8,0:0:0:0:
255,190,90108,1,8,0:0:0:0:
255,190,90377,1,8,0:0:0:0:
376,199,90646,1,0,0:0:0:0:
392,243,90713,1,0,0:0:0:0:
376,199,90781,1,0,0:0:0:0:
376,199,90848,1,0,0:0:0:0:
376,199,90915,1,8,0:0:0:0:
376,199,91050,1,8,0:0:0:0:
411,237,91117,1,0,0:0:0:0:
411,237,91184,1,0,0:0:0:0:
406,237,91251,1,0,0:0:0:0:
411,237,91319,1,8,0:0:0:0:
421,209,91453,1,8,0:0:0:0:
422,223,91521,1,8,0:0:0:0:
422,223,91588,1,0,0:0:0:0:
431,196,91722,1,8,0:0:0:0:
408,207,91790,1,0,0:0:0:0:
408,207,91857,1,8,0:0:0:0:
408,212,91991,1,0,0:0:0:0:
406,212,92059,1,8,0:0:0:0:
406,212,92126,1,0,0:0:0:0:
408,205,92260,1,8,0:0:0:0:
421,192,92328,1,8,0:0:0:0:
392,185,92395,1,0,0:0:0:0:
421,192,92462,1,0,0:0:0:0:
421,192,92529,1,8,0:0:0:0:
421,192,92597,1,8,0:0:0:0:
392,186,92664,1,8,0:0:0:0:
471,232,92799,1,0,0:0:0:0:
350,168,92866,1,8,0:0:0:0:
371,167,92933,1,0,0:0:0:0:
371,167,93000,1,0,0:0:0:0:
382,152,93068,1,8,0:0:0:0:
220,117,93202,1,8,0:0:0:0:
382,152,93269,1,8,0:0:0:0:
382,152,93337,1,8,0:0:0:0:
382,152,93404,1,0,0:0:0:0:
382,152,93471,1,8,0:0:0:0:
382,152,93606,1,8,0:0:0:0:
408,176,93673,1,8,0:0:0:0:
408,176,93740,1,0,0:0:0:0:
446,136,93875,1,8,0:0:0:0:
408,176,93942,1,0,0:0:0:0:
408,176,94009,1,8,0:0:0:0:
446,192,94144,1,0,0:0:0:0:
410,168,94211,1,0,0:0:0:0:
410,168,94278,1,8,0:0:0:0:
278,116,94413,1,0,0:0:0:0:
410,168,94480,1,0,0:0:0:0:
353,141,94547,1,8,0:0:0:0:
353,141,94615,1,8,0:0:0:0:
384,158,94682,1,8,0:0:0:0:
384,158,94749,1,0,0:0:0:0:
278,116,94816,1,8,0:0:0:0:
376,199,94951,1,0,0:0:0:0:
319,129,95018,1,8,0:0:0:0:
376,199,95086,1,8,0:0:0:0:
498,267,95153,1,0,0:0:0:0:
376,199,95220,1,0,0:0:0:0:
498,267,95355,1,8,0:0:0:0:
411,237,95422,1,8,0:0:0:0:
498,267,95489,1,8,0:0:0:0:
498,267,95556,1,8,0:0:0:0:
498,267,95624,1,0,0:0:0:0:
421,209,95758,1,8,0:0:0:0:
422,223,95826,1,8,0:0:0:0:
422,223,95893,1,0,0:0:0:0:
431,196,96027,1,8,0:0:0:0:
408,207,96095,1,0,0:0:0:0:
408,207,96162,1,8,0:0:0:0:
408,212,96296,1,0,0:0:0:0:
406,212,96364,1,8,0:0:0:0:
406,212,96431,1,0,0:0:0:0:
408,205,96565,1,8,0:0:0:0:
421,192,96633,1,8,0:0:0:0:
392,185,96700,1,0,0:0:0:0:
421,192,96767,1,0,0:0:0:0:
421,192,96834,1,8,0:0:0:0:
421,192,96902,1,8,0:0:0:0:
392,186,96969,1,8,0:0:0:0:
471,232,97104,1,0,0:0:0:0:
350,168,97171,1,0,0:0:0:0:
371,167,97238,1,0,0:0:0:0:
371,167,97305,1,8,0:0:0:0:
382,152,97373,1,0,0:0:0:0:
382,152,97507,1,8,0:0:0:0:
382,152,97574,1,0,0:0:0:0:
382,152,97642,1,8,0:0:0:0:
382,152,97709,1,8,0:0:0:0:
382,152,97776,1,0,0:0:0:0:
382,152,97911,1,8,0:0:0:0:
408,176,97978,1,8,0:0:0:0:
408,176,98045,1,0,0:0:0:0:
446,136,98180,1,8,0:0:0:0:
147,148,98247,1,8,0:0:0:0:
241,127,98314,1,0,0:0:0:0:
241,127,98382,1,0,0:0:0:0:
241,127,98449,1,8,0:0:0:0:
241,127,98516,1,8,0:0:0:0:
410,168,98583,1,8,0:0:0:0:
241,127,98651,1,0,0:0:0:0:
241,127,98718,1,8,0:0:0:0:
410,168,98785,1,0,0:0:0:0:
353,141,98852,1,8,0:0:0:0:
241,127,98920,1,8,0:0:0:0:
233,132,98987,1,0,0:0:0:0:
278,116,99121,1,8,0:0:0:0:
312,159,99256,1,0,0:0:0:0:
312,159,99323,1,8,0:0:0:0:
312,159,99390,1,8,0:0:0:0:
308,151,99458,1,8,0:0:0:0:
214,56,99525,1,0,0:0:0:0:
318,137,99660,1,8,0:0:0:0:
318,137,99727,1,0,0:0:0:0:
318,137,99794,1,0,0:0:0:0:
318,137,99861,1,8,0:0:0:0:
318,137,99929,1,8,0:0:0:0:
318,137,100063,1,8,0:0:0:0:
318,137,100130,1,8,0:0:0:0:
318,137,100198,1,0,0:0:0:0:
286,146,100332,1,8,0:0:0:0:
286,146,100399,1,0,0:0:0:0:
286,146,100467,1,8,0:0:0:0:
285,129,100601,1,0,0:0:0:0:
285,129,100669,1,8,0:0:0:0:
285,129,100736,1,0,0:0:0:0:
262,93,100870,1,8,0:0:0:0:
262,93,100938,1,8,0:0:0:0:
255,190,101005,1,0,0:0:0:0:
262,93,101072,1,0,0:0:0:0:
262,93,101139,1,8,0:0:0:0:
276,115,101207,1,0,0:0:0:0:
255,190,101274,1,8,0:0:0:0:
363,155,101408,1,0,0:0:0:0:
321,117,101543,1,0,0:0:0:0:
350,107,101677,1,8,0:0:0:0:
350,107,101745,1,0,0:0:0:0:
350,107,101812,1,8,0:0:0:0:
361,110,101947,1,8,0:0:0:0:
266,111,102014,1,8,0:0:0:0:
361,110,102081,1,0,0:0:0:0:
361,110,102216,1,8,0:0:0:0:
361,179,102350,1,0,0:0:0:0:
321,127,102485,1,8,0:0:0:0:
321,127,102552,1,8,0:0:0:0:
321,127,102619,1,0,0:0:0:0:
321,127,102754,1,8,0:0:0:0:
321,127,102821,1,0,0:0:0:0:
321,127,102888,1,8,0:0:0:0:
321,127,103023,1,8,0:0:0:0:
321,127,103157,1,0,0:0:0:0:
366,151,103292,1,8,0:0:0:0:
294,93,103359,1,8,0:0:0:0:
294,93,103426,1,8,0:0:0:0:
294,93,103494,1,8,0:0:0:0:
301,98,103561,1,0,0:0:0:0:
437,164,103695,1,8,0:0:0:0:
437,164,103763,1,0,0:0:0:0:
437,164,103830,1,8,0:0:0:0:
437,164,103897,1,8,0:0:0:0:
437,164,103964,1,0,0:0:0:0:
437,164,104099,1,8,0:0:0:0:
437,164,104234,1,0,0:0:0:0:
369,103,104368,1,8,0:0:0:0:
369,103,104435,1,8,0:0:0:0:
369,103,104503,1,8,0:0:0:0:
369,103,104570,1,8,0:0:0:0:
296,120,104637,1,0,0:0:0:0:
307,155,104772,1,0,0:0:0:0:
340,142,104906,1,8,0:0:0:0:
340,142,104973,1,8,0:0:0:0:
340,142,105041,1,0,0:0:0:0:
320,111,105175,1,8,0:0:0:0:
320,111,105243,1,0,0:0:0:0:
320,111,105310,1,8,0:0:0:0:
328,108,105444,1,0,0:0:0:0:
328,108,105579,1,8,0:0:0:0:
337,117,105713,1,0,0:0:0:0:
337,117,105781,1,8,0:0:0:0:
337,117,105848,1,0,0:0:0:0:
337,117,105915,1,0,0:0:0:0:
337,117,105982,1,8,0:0:0:0:
337,117,106117,1,8,0:0:0:0:
305,151,106251,1,0,0:0:0:0:
318,124,106319,1,0,0:0:0:0:
318,124,106386,1,0,0:0:0:0:
318,124,106521,1,8,0:0:0:0:
161,116,106655,1,0,0:0:0:0:
336,130,106790,1,8,0:0:0:0:
161,116,106924,1,0,0:0:0:0:
336,130,107059,1,8,0:0:0:0:
161,116,107193,1,0,0:0:0:0:
336,130,107328,1,8,0:0:0:0:
191,110,107462,1,0,0:0:0:0:
336,130,107597,1,8,0:0:0:0:
256,192,107866,8,0,111902,0:0:0:0:
391,207,112171,5,0,0:0:0:0:
448,233,112238,1,8,0:0:0:0:
448,233,112305,1,8,0:0:0:0:
401,132,112440,1,8,0:0:0:0:
325,167,112507,1,0,0:0:0:0:
401,132,112574,1,0,0:0:0:0:
448,233,112709,1,0,0:0:0:0:
401,132,112776,1,8,0:0:0:0:
401,132,112843,1,0,0:0:0:0:
401,132,112978,1,8,0:0:0:0:
450,200,113045,1,8,0:0:0:0:
401,132,113112,1,8,0:0:0:0:
318,138,113247,1,0,0:0:0:0:
318,138,113314,1,0,0:0:0:0:
318,138,113382,1,8,0:0:0:0:
318,138,113449,1,0,0:0:0:0:
318,152,113516,1,8,0:0:0:0:
318,152,113583,1,8,0:0:0:0:
318,152,113651,1,0,0:0:0:0:
318,152,113718,1,0,0:0:0:0:
454,192,113785,1,8,0:0:0:0:
387,194,113920,1,0,0:0:0:0:
399,157,114054,1,8,0:0:0:0:
411,158,114189,1,8,0:0:0:0:
391,207,114323,1,0,0:0:0:0:
448,233,114390,1,8,0:0:0:0:
448,233,114457,1,8,0:0:0:0:
401,132,114592,1,8,0:0:0:0:
325,167,114659,1,0,0:0:0:0:
401,132,114726,1,0,0:0:0:0:
448,233,114861,1,0,0:0:0:0:
401,132,114928,1,8,0:0:0:0:
401,132,114995,1,0,0:0:0:0:
401,132,115130,1,8,0:0:0:0:
450,200,115197,1,8,0:0:0:0:
401,132,115264,1,8,0:0:0:0:
318,138,115399,1,0,0:0:0:0:
318,138,115466,1,0,0:0:0:0:
318,138,115534,1,8,0:0:0:0:
318,138,115601,1,0,0:0:0:0:
318,152,115668,1,8,0:0:0:0:
318,152,115735,1,8,0:0:0:0:
318,152,115803,1,0,0:0:0:0:
318,152,115870,1,0,0:0:0:0:
265,191,115938,1,8,0:0:0:0:
387,194,116072,1,0,0:0:0:0:
399,157,116206,1,8,0:0:0:0:
411,158,116341,1,8,0:0:0:0:
391,207,116476,1,0,0:0:0:0:
448,233,116543,1,8,0:0:0:0:
448,233,116610,1,8,0:0:0:0:
401,132,116745,1,8,0:0:0:0:
325,167,116812,1,0,0:0:0:0:
401,132,116879,1,0,0:0:0:0:
448,233,117014,1,0,0:0:0:0:
401,132,117081,1,8,0:0:0:0:
401,132,117148,1,0,0:0:0:0:
401,132,117283,1,8,0:0:0:0:
450,200,117350,1,8,0:0:0:0:
401,132,117417,1,8,0:0:0:0:
318,138,117552,1,0,0:0:0:0:
318,138,117619,1,0,0:0:0:0:
318,138,117687,1,8,0:0:0:0:
318,138,117754,1,0,0:0:0:0:
318,152,117821,1,8,0:0:0:0:
318,152,117888,1,8,0:0:0:0:
318,152,117956,1,0,0:0:0:0:
318,152,118023,1,0,0:0:0:0:
454,192,118090,1,8,0:0:0:0:
387,194,118225,1,0,0:0:0:0:
399,157,118359,1,8,0:0:0:0:
411,158,118494,1,8,0:0:0:0:
391,207,118628,1,0,0:0:0:0:
448,233,118695,1,8,0:0:0:0:
448,233,118762,1,8,0:0:0:0:
401,132,118897,1,8,0:0:0:0:
325,167,118964,1,0,0:0:0:0:
401,132,119031,1,0,0:0:0:0:
448,233,119166,1,0,0:0:0:0:
401,132,119233,1,8,0:0:0:0:
401,132,119300,1,0,0:0:0:0:
401,132,119435,1,8,0:0:0:0:
450,200,119502,1,8,0:0:0:0:
401,132,119569,1,8,0:0:0:0:
318,138,119704,1,0,0:0:0:0:
233,114,119839,1,0,0:0:0:0:
318,152,119973,1,8,0:0:0:0:
193,39,120108,1,8,0:0:0:0:
454,192,120242,1,0,0:0:0:0:
387,194,120377,1,0,0:0:0:0:
399,157,120511,1,8,0:0:0:0:
406,217,120646,1,0,0:0:0:0:
462,288,120781,1,8,0:0:0:0:
332,216,120848,1,0,0:0:0:0:
128,156,120915,1,8,0:0:0:0:
462,288,120982,1,8,0:0:0:0:
462,288,121050,1,0,0:0:0:0:
492,216,121117,1,0,0:0:0:0:
492,216,121184,1,8,0:0:0:0:
310,272,121251,1,0,0:0:0:0:
311,253,121319,1,0,0:0:0:0:
311,253,121386,1,0,0:0:0:0:
311,253,121453,1,8,0:0:0:0:
311,253,121521,1,8,0:0:0:0:
311,253,121588,1,8,0:0:0:0:
447,249,121655,1,0,0:0:0:0:
311,253,121722,1,0,0:0:0:0:
447,249,121790,1,8,0:0:0:0:
467,273,121857,1,0,0:0:0:0:
467,273,121924,1,0,0:0:0:0:
467,273,121991,1,8,0:0:0:0:
427,247,122059,1,8,0:0:0:0:
427,247,122126,1,0,0:0:0:0:
427,247,122193,1,0,0:0:0:0:
433,248,122260,1,8,0:0:0:0:
433,248,122328,1,8,0:0:0:0:
433,248,122395,1,8,0:0:0:0:
433,248,122462,1,0,0:0:0:0:
433,248,122529,1,8,0:0:0:0:
467,273,122597,1,0,0:0:0:0:
467,273,122664,1,8,0:0:0:0:
467,273,122731,1,8,0:0:0:0:
467,273,122799,1,0,0:0:0:0:
462,288,122933,1,8,0:0:0:0:
332,216,123000,1,0,0:0:0:0:
128,156,123067,1,8,0:0:0:0:
462,288,123134,1,8,0:0:0:0:
462,288,123202,1,0,0:0:0:0:
492,216,123269,1,0,0:0:0:0:
492,216,123336,1,8,0:0:0:0:
310,272,123403,1,0,0:0:0:0:
311,253,123471,1,0,0:0:0:0:
311,253,123538,1,0,0:0:0:0:
311,253,123605,1,8,0:0:0:0:
311,253,123673,1,8,0:0:0:0:
311,253,123740,1,8,0:0:0:0:
447,249,123807,1,0,0:0:0:0:
311,253,123874,1,0,0:0:0:0:
447,249,123942,1,8,0:0:0:0:
467,273,124009,1,0,0:0:0:0:
467,273,124076,1,0,0:0:0:0:
467,273,124143,1,8,0:0:0:0:
427,247,124211,1,8,0:0:0:0:
427,247,124278,1,0,0:0:0:0:
427,247,124345,1,0,0:0:0:0:
433,248,124412,1,8,0:0:0:0:
433,248,124480,1,8,0:0:0:0:
433,248,124547,1,8,0:0:0:0:
433,248,124614,1,0,0:0:0:0:
433,248,124681,1,8,0:0:0:0:
467,273,124749,1,0,0:0:0:0:
467,273,124816,1,8,0:0:0:0:
467,273,124883,1,8,0:0:0:0:
467,273,124951,1,0,0:0:0:0:
462,288,125086,1,8,0:0:0:0:
332,216,125153,1,0,0:0:0:0:
128,156,125220,1,8,0:0:0:0:
462,288,125287,1,8,0:0:0:0:
462,288,125355,1,0,0:0:0:0:
492,216,125422,1,0,0:0:0:0:
492,216,125489,1,8,0:0:0:0:
310,272,125556,1,0,0:0:0:0:
311,253,125624,1,0,0:0:0:0:
311,253,125691,1,0,0:0:0:0:
311,253,125758,1,8,0:0:0:0:
311,253,125826,1,8,0:0:0:0:
311,253,125893,1,8,0:0:0:0:
447,249,125960,1,0,0:0:0:0:
311,253,126027,1,0,0:0:0:0:
447,249,126095,1,8,0:0:0:0:
467,273,126162,1,0,0:0:0:0:
467,273,126229,1,0,0:0:0:0:
467,273,126296,1,8,0:0:0:0:
427,247,126364,1,8,0:0:0:0:
427,247,126431,1,0,0:0:0:0:
427,247,126498,1,0,0:0:0:0:
433,248,126565,1,8,0:0:0:0:
433,248,126633,1,8,0:0:0:0:
433,248,126700,1,8,0:0:0:0:
433,248,126767,1,0,0:0:0:0:
433,248,126834,1,8,0:0:0:0:
467,273,126902,1,0,0:0:0:0:
467,273,126969,1,8,0:0:0:0:
467,273,127036,1,8,0:0:0:0:
467,273,127104,1,0,0:0:0:0:
462,288,127238,1,8,0:0:0:0:
332,216,127305,1,0,0:0:0:0:
128,156,127372,1,8,0:0:0:0:
462,288,127439,1,8,0:0:0:0:
462,288,127507,1,0,0:0:0:0:
492,216,127574,1,0,0:0:0:0:
492,216,127641,1,8,0:0:0:0:
310,272,127708,1,0,0:0:0:0:
311,253,127776,1,0,0:0:0:0:
311,253,127843,1,0,0:0:0:0:
311,253,127910,1,8,0:0:0:0:
311,253,127978,1,8,0:0:0:0:
311,253,128045,1,8,0:0:0:0:
255,190,128112,1,8,0:0:0:0:
311,253,128179,1,0,0:0:0:0:
467,273,128314,1,0,0:0:0:0:
467,273,128448,1,8,0:0:0:0:
427,247,128583,1,0,0:0:0:0:
433,248,128717,1,8,0:0:0:0:
433,248,128852,1,8,0:0:0:0:
255,190,128987,1,0,0:0:0:0:
467,273,129121,1,8,0:0:0:0:
467,273,129256,1,0,0:0:0:0:
268,148,129390,5,8,0:0:0:0:
268,148,129929,1,8,0:0:0:0:
268,148,130467,1,12,0:0:0:0:
273,152,131005,1,8,0:0:0:0:
290,141,131543,1,4,0:0:0:0:
441,219,131812,1,8,0:0:0:0:
441,219,132081,1,0,0:0:0:0:
398,162,132619,1,12,0:0:0:0:
382,177,133157,1,0,0:0:0:0:
396,217,133695,1,0,0:0:0:0:
326,131,134234,1,0,0:0:0:0:
345,148,134503,1,0,0:0:0:0:
345,148,134772,1,12,0:0:0:0:
351,145,135310,1,8,0:0:0:0:
354,206,135848,1,0,0:0:0:0:
354,206,136117,1,8,0:0:0:0:
354,206,136386,1,0,0:0:0:0:
354,206,136924,1,12,0:0:0:0:
354,206,137462,1,8,0:0:0:0:
354,206,138000,1,0,0:0:0:0:
354,206,138538,1,0,0:0:0:0:
256,192,139077,8,0,140018,0:0:0:0:
328,128,140153,5,4,0:0:0:0:
328,128,140422,1,8,0:0:0:0:
328,128,140691,1,0,0:0:0:0:
284,110,141229,1,12,0:0:0:0:
368,167,141767,1,0,0:0:0:0:
368,167,142305,1,0,0:0:0:0:
405,150,142843,1,8,0:0:0:0:
368,167,143112,1,0,0:0:0:0:
372,153,143382,1,12,0:0:0:0:
353,178,143920,1,8,0:0:0:0:
426,227,144458,1,0,0:0:0:0:
421,241,144727,1,8,0:0:0:0:
418,236,144996,1,8,0:0:0:0:
383,234,145534,1,12,0:0:0:0:
395,212,146072,1,0,0:0:0:0:
395,211,146610,1,0,0:0:0:0:
385,236,147148,1,8,0:0:0:0:
385,236,147686,1,8,0:0:0:0:
385,236,147821,1,8,0:0:0:0:
220,170,147956,1,8,0:0:0:0:
220,170,148090,1,8,0:0:0:0:
321,224,148225,1,8,0:0:0:0:
321,224,148359,1,8,0:0:0:0:
321,224,148494,1,8,0:0:0:0:
120,168,148628,1,8,0:0:0:0:
335,193,148763,1,0,0:0:0:0:
310,176,148964,1,8,0:0:0:0:
457,275,149032,1,0,0:0:0:0:
443,245,149234,1,0,0:0:0:0:
457,275,149301,1,8,0:0:0:0:
335,177,149839,1,8,0:0:0:0:
282,126,150062,1,8,0:0:0:0:
504,284,150310,1,8,0:0:0:0:
156,137,150377,1,0,0:0:0:0:
439,250,150579,1,8,0:0:0:0:
436,226,150848,1,8,0:0:0:0:
282,126,150915,1,0,0:0:0:0:
333,201,151676,1,8,0:0:0:0:
169,178,151924,1,0,0:0:0:0:
336,179,151991,1,8,0:0:0:0:
265,120,152193,1,0,0:0:0:0:
406,271,152462,1,0,0:0:0:0:
263,171,152529,1,8,0:0:0:0:
196,129,152765,1,8,0:0:0:0:
312,99,153000,1,8,0:0:0:0:
334,136,153068,1,0,0:0:0:0:
411,170,153269,1,8,0:0:0:0:
411,170,153337,1,0,0:0:0:0:
411,170,153538,1,0,0:0:0:0:
334,136,153606,1,8,0:0:0:0:
326,190,153874,1,8,0:0:0:0:
334,136,154144,1,8,0:0:0:0:
416,239,154346,1,8,0:0:0:0:
370,193,154615,1,0,0:0:0:0:
311,144,154682,1,0,0:0:0:0:
332,147,154884,1,8,0:0:0:0:
403,231,155153,1,0,0:0:0:0:
311,144,155220,1,0,0:0:0:0:
45,151,155456,1,0,0:0:0:0:
411,239,155691,1,8,0:0:0:0:
318,153,155758,1,8,0:0:0:0:
412,234,155960,1,8,0:0:0:0:
262,126,156229,1,0,0:0:0:0:
360,218,156296,1,8,0:0:0:0:
331,206,156498,1,0,0:0:0:0:
262,130,156767,1,0,0:0:0:0:
379,225,156834,1,8,0:0:0:0:
219,162,157373,1,4,0:0:0:0:
504,318,157642,1,0,0:0:0:0:
446,230,157911,1,8,0:0:0:0:
481,263,158180,1,0,0:0:0:0:
446,230,158449,1,8,0:0:0:0:
464,280,158651,1,0,0:0:0:0:
436,231,158718,1,8,0:0:0:0:
427,169,158987,1,0,0:0:0:0:
282,202,159189,1,0,0:0:0:0:
282,202,159256,1,8,0:0:0:0:
429,222,159458,1,8,0:0:0:0:
396,232,159525,1,0,0:0:0:0:
372,203,159727,1,8,0:0:0:0:
404,250,159884,1,0,0:0:0:0:
223,150,159944,1,0,0:0:0:0:
330,160,160003,1,0,0:0:0:0:
149,112,160063,1,8,0:0:0:0:
483,185,160265,1,8,0:0:0:0:
483,185,160332,1,0,0:0:0:0:
483,185,160601,1,8,0:0:0:0:
483,185,161139,1,8,0:0:0:0:
495,224,161677,1,0,0:0:0:0:
495,224,161879,1,8,0:0:0:0:
495,224,161947,1,0,0:0:0:0:
495,224,162148,1,8,0:0:0:0:
495,224,162216,1,0,0:0:0:0:
417,112,162417,1,0,0:0:0:0:
460,235,162686,1,8,0:0:0:0:
285,121,162754,1,8,0:0:0:0:
487,119,162821,1,0,0:0:0:0:
291,71,162872,1,0,0:0:0:0:
345,100,162922,1,8,0:0:0:0:
132,132,162989,1,8,0:0:0:0:
132,132,163040,1,0,0:0:0:0:
140,138,163090,1,0,0:0:0:0:
144,114,163141,1,8,0:0:0:0:
31,162,163208,1,8,0:0:0:0:
382,270,163292,1,0,0:0:0:0:
434,245,163526,1,8,0:0:0:0:
228,108,163763,1,0,0:0:0:0:
221,115,163830,1,8,0:0:0:0:
273,147,164064,1,0,0:0:0:0:
333,243,164301,1,0,0:0:0:0:
265,132,164368,1,8,0:0:0:0:
413,253,164546,1,8,0:0:0:0:
139,202,164839,1,0,0:0:0:0:
139,202,164906,1,8,0:0:0:0:
286,238,165107,1,8,0:0:0:0:
220,158,165376,1,0,0:0:0:0:
256,192,168673,8,0,172103,0:0:0:0:
439,246,172440,5,0,0:0:0:0:
435,259,172574,1,8,0:0:0:0:
435,259,172642,1,8,0:0:0:0:
435,259,172709,1,0,0:0:0:0:
435,259,172843,1,8,0:0:0:0:
455,222,172978,1,0,0:0:0:0:
501,300,173045,1,8,0:0:0:0:
455,222,173112,1,8,0:0:0:0:
455,222,173180,1,8,0:0:0:0:
455,222,173247,1,0,0:0:0:0:
410,203,173382,1,8,0:0:0:0:
439,246,173516,1,0,0:0:0:0:
435,259,173650,1,8,0:0:0:0:
435,259,173718,1,8,0:0:0:0:
435,259,173785,1,0,0:0:0:0:
435,259,173919,1,8,0:0:0:0:
455,222,174054,1,0,0:0:0:0:
501,300,174121,1,8,0:0:0:0:
455,222,174188,1,8,0:0:0:0:
455,222,174256,1,8,0:0:0:0:
455,222,174323,1,0,0:0:0:0:
410,203,174458,1,8,0:0:0:0:
439,246,174592,1,0,0:0:0:0:
435,259,174726,1,8,0:0:0:0:
435,259,174794,1,8,0:0:0:0:
435,259,174861,1,0,0:0:0:0:
435,259,174995,1,8,0:0:0:0:
455,222,175130,1,0,0:0:0:0:
501,300,175197,1,8,0:0:0:0:
455,222,175264,1,8,0:0:0:0:
455,222,175332,1,8,0:0:0:0:
455,222,175399,1,0,0:0:0:0:
410,203,175534,1,8,0:0:0:0:
439,246,175669,1,0,0:0:0:0:
435,259,175803,1,8,0:0:0:0:
435,259,175871,1,8,0:0:0:0:
435,259,175938,1,0,0:0:0:0:
435,259,176072,1,8,0:0:0:0:
455,222,176207,1,0,0:0:0:0:
501,300,176274,1,8,0:0:0:0:
455,222,176341,1,8,0:0:0:0:
455,222,176409,1,8,0:0:0:0:
455,222,176476,1,0,0:0:0:0:
410,203,176611,1,8,0:0:0:0:
245,145,176745,1,0,0:0:0:0:
407,213,176812,1,0,0:0:0:0:
407,213,176879,1,8,0:0:0:0:
407,213,176947,1,8,0:0:0:0:
407,213,177014,1,0,0:0:0:0:
407,213,177081,1,0,0:0:0:0:
396,164,177148,1,8,0:0:0:0:
432,268,177283,1,0,0:0:0:0:
432,268,177350,1,0,0:0:0:0:
441,244,177417,1,8,0:0:0:0:
286,159,177485,1,8,0:0:0:0:
481,266,177552,1,8,0:0:0:0:
231,103,177619,1,0,0:0:0:0:
272,123,177686,1,8,0:0:0:0:
272,123,177821,1,0,0:0:0:0:
287,130,177888,1,0,0:0:0:0:
272,123,177956,1,8,0:0:0:0:
410,177,178023,1,0,0:0:0:0:
410,177,178090,1,8,0:0:0:0:
410,177,178157,1,8,0:0:0:0:
287,130,178225,1,0,0:0:0:0:
272,123,178359,1,0,0:0:0:0:
410,177,178494,1,8,0:0:0:0:
410,177,178561,1,8,0:0:0:0:
410,177,178628,1,0,0:0:0:0:
323,117,178695,1,8,0:0:0:0:
410,177,178763,1,8,0:0:0:0:
245,145,178897,1,0,0:0:0:0:
173,34,178964,1,0,0:0:0:0:
321,130,179032,1,8,0:0:0:0:
173,34,179099,1,8,0:0:0:0:
317,53,179166,1,0,0:0:0:0:
317,53,179234,1,0,0:0:0:0:
269,167,179300,1,8,0:0:0:0:
432,268,179435,1,0,0:0:0:0:
432,268,179502,1,0,0:0:0:0:
432,268,179569,1,8,0:0:0:0:
286,159,179637,1,8,0:0:0:0:
231,103,179704,1,8,0:0:0:0:
231,103,179771,1,0,0:0:0:0:
272,123,179838,1,8,0:0:0:0:
272,123,179973,1,0,0:0:0:0:
272,123,180040,1,0,0:0:0:0:
272,123,180108,1,8,0:0:0:0:
272,123,180175,1,8,0:0:0:0:
272,123,180242,1,0,0:0:0:0:
272,123,180309,1,0,0:0:0:0:
272,123,180377,1,8,0:0:0:0:
272,123,180511,1,0,0:0:0:0:
214,116,180601,1,0,0:0:0:0:
222,115,180691,1,0,0:0:0:0:
253,116,180781,1,8,0:0:0:0:
253,116,180870,1,8,0:0:0:0:
253,116,180960,1,8,0:0:0:0:
245,145,181050,1,0,0:0:0:0:
269,167,181117,1,8,0:0:0:0:
269,167,181184,1,0,0:0:0:0:
269,167,181252,1,0,0:0:0:0:
269,167,181319,1,8,0:0:0:0:
269,167,181386,1,8,0:0:0:0:
269,167,181453,1,8,0:0:0:0:
432,268,181588,1,0,0:0:0:0:
432,268,181655,1,0,0:0:0:0:
432,268,181722,1,8,0:0:0:0:
286,159,181790,1,8,0:0:0:0:
231,103,181857,1,0,0:0:0:0:
231,103,181924,1,0,0:0:0:0:
272,123,181991,1,8,0:0:0:0:
272,123,182126,1,0,0:0:0:0:
272,123,182193,1,8,0:0:0:0:
272,123,182261,1,8,0:0:0:0:
272,123,182328,1,8,0:0:0:0:
272,123,182395,1,0,0:0:0:0:
272,123,182462,1,0,0:0:0:0:
272,123,182530,1,8,0:0:0:0:
272,123,182664,1,0,0:0:0:0:
272,123,182799,1,8,0:0:0:0:
272,123,182866,1,0,0:0:0:0:
272,123,182933,1,8,0:0:0:0:
272,123,183000,1,8,0:0:0:0:
419,215,183068,1,8,0:0:0:0:
245,145,183202,1,0,0:0:0:0:
366,192,183269,1,0,0:0:0:0:
269,167,183337,1,8,0:0:0:0:
376,186,183404,1,8,0:0:0:0:
269,167,183471,1,0,0:0:0:0:
376,186,183538,1,0,0:0:0:0:
269,167,183605,1,8,0:0:0:0:
432,268,183740,1,0,0:0:0:0:
432,268,183807,1,0,0:0:0:0:
432,268,183874,1,8,0:0:0:0:
286,159,183942,1,8,0:0:0:0:
231,103,184009,1,8,0:0:0:0:
231,103,184076,1,0,0:0:0:0:
272,123,184143,1,8,0:0:0:0:
272,123,184278,1,0,0:0:0:0:
272,123,184345,1,8,0:0:0:0:
272,123,184413,1,8,0:0:0:0:
272,123,184480,1,0,0:0:0:0:
272,123,184547,1,8,0:0:0:0:
272,123,184614,1,8,0:0:0:0:
272,123,184682,1,8,0:0:0:0:
360,205,184749,1,0,0:0:0:0:
286,159,184816,1,8,0:0:0:0:
379,109,184884,1,0,0:0:0:0:
397,110,184951,1,8,0:0:0:0:
397,110,185018,1,8,0:0:0:0:
397,110,185086,1,0,0:0:0:0:
282,175,185153,1,0,0:0:0:0:
282,175,185220,1,8,0:0:0:0:
245,145,185355,1,0,0:0:0:0:
199,216,185422,1,8,0:0:0:0:
269,167,185489,1,8,0:0:0:0:
269,167,185556,1,0,0:0:0:0:
269,167,185624,1,0,0:0:0:0:
269,167,185691,1,0,0:0:0:0:
269,167,185758,1,8,0:0:0:0:
432,268,185893,1,0,0:0:0:0:
432,268,185960,1,0,0:0:0:0:
432,268,186027,1,8,0:0:0:0:
286,159,186095,1,8,0:0:0:0:
231,103,186162,1,0,0:0:0:0:
231,103,186229,1,0,0:0:0:0:
272,123,186296,1,8,0:0:0:0:
272,123,186431,1,0,0:0:0:0:
272,123,186498,1,8,0:0:0:0:
272,123,186566,1,8,0:0:0:0:
272,123,186633,1,8,0:0:0:0:
272,123,186700,1,0,0:0:0:0:
272,123,186767,1,0,0:0:0:0:
272,123,186835,1,8,0:0:0:0:
272,123,186969,1,0,0:0:0:0:
272,123,187104,1,8,0:0:0:0:
272,123,187171,1,0,0:0:0:0:
272,123,187238,1,8,0:0:0:0:
272,123,187305,1,8,0:0:0:0:
272,123,187373,1,0,0:0:0:0:
245,145,187507,1,0,0:0:0:0:
269,167,187574,1,8,0:0:0:0:
269,167,187641,1,0,0:0:0:0:
269,167,187709,1,0,0:0:0:0:
269,167,187776,1,8,0:0:0:0:
269,167,187843,1,8,0:0:0:0:
269,167,187910,1,8,0:0:0:0:
432,268,188045,1,0,0:0:0:0:
432,268,188112,1,0,0:0:0:0:
432,268,188179,1,8,0:0:0:0:
286,159,188247,1,8,0:0:0:0:
231,103,188314,1,0,0:0:0:0:
231,103,188381,1,0,0:0:0:0:
272,123,188448,1,8,0:0:0:0:
272,123,188583,1,0,0:0:0:0:
272,123,188718,1,8,0:0:0:0:
272,123,188852,1,0,0:0:0:0:
272,123,188987,1,8,0:0:0:0:
272,123,189121,1,0,0:0:0:0:
307,71,189390,1,0,0:0:0:0:
408,255,189660,1,0,0:0:0:0:
408,255,189794,1,8,0:0:0:0:
408,255,189929,1,0,0:0:0:0:
408,255,190063,1,0,0:0:0:0:
499,250,190198,1,8,0:0:0:0:
499,250,190265,1,8,0:0:0:0:
499,250,190332,1,8,0:0:0:0:
388,194,190399,1,8,0:0:0:0:
499,250,190467,1,0,0:0:0:0:
388,194,190601,1,8,0:0:0:0:
388,194,190669,1,8,0:0:0:0:
388,194,190736,1,0,0:0:0:0:
438,250,191005,1,0,0:0:0:0:
438,250,191139,1,8,0:0:0:0:
211,162,191274,1,8,0:0:0:0:
261,165,191543,1,8,0:0:0:0:
381,234,191812,1,0,0:0:0:0:
381,234,191947,1,8,0:0:0:0:
381,234,192081,1,0,0:0:0:0:
274,172,192171,1,0,0:0:0:0:
274,172,192260,1,0,0:0:0:0:
373,205,192350,1,8,0:0:0:0:
373,205,192417,1,8,0:0:0:0:
373,205,192485,1,8,0:0:0:0:
373,205,192754,1,8,0:0:0:0:
373,205,192821,1,8,0:0:0:0:
299,197,192888,1,0,0:0:0:0:
361,183,193157,1,4,0:0:0:0:
382,199,193426,1,8,0:0:0:0:
387,195,193695,1,8,0:0:0:0:
387,195,193830,1,8,0:0:0:0:
387,195,193964,1,0,0:0:0:0:
382,199,194234,1,0,0:0:0:0:
407,215,194503,1,8,0:0:0:0:
407,215,194570,1,8,0:0:0:0:
407,215,194637,1,8,0:0:0:0:
407,215,194906,1,8,0:0:0:0:
407,215,194973,1,8,0:0:0:0:
426,261,195041,1,0,0:0:0:0:
426,261,195310,1,0,0:0:0:0:
426,261,195444,1,8,0:0:0:0:
426,261,195579,1,8,0:0:0:0:
426,261,195848,1,8,0:0:0:0:
459,258,196117,1,0,0:0:0:0:
459,258,196386,1,0,0:0:0:0:
459,258,196655,1,8,0:0:0:0:
459,258,196722,1,8,0:0:0:0:
459,258,196790,1,8,0:0:0:0:
459,258,197059,1,8,0:0:0:0:
459,258,197126,1,8,0:0:0:0:
459,258,197193,1,0,0:0:0:0:
459,258,197462,1,8,0:0:0:0:
459,258,197731,1,0,0:0:0:0:
459,258,198000,1,8,0:0:0:0:
470,255,198135,1,8,0:0:0:0:
470,255,198269,1,0,0:0:0:0:
492,256,198538,1,0,0:0:0:0:
490,257,198808,1,8,0:0:0:0:
436,248,198875,1,8,0:0:0:0:
436,248,198942,1,8,0:0:0:0:
436,248,199077,1,0,0:0:0:0:
436,248,199211,1,8,0:0:0:0:
436,248,199278,1,8,0:0:0:0:
436,248,199346,1,0,0:0:0:0:
436,248,199615,1,0,0:0:0:0:
436,248,199749,1,8,0:0:0:0:
436,248,199884,1,8,0:0:0:0:
436,248,200153,1,8,0:0:0:0:
436,248,200422,1,0,0:0:0:0:
154,58,200691,1,0,0:0:0:0:
331,181,200960,1,8,0:0:0:0:
313,215,201027,1,8,0:0:0:0:
331,181,201095,1,8,0:0:0:0:
331,181,201229,1,0,0:0:0:0:
331,181,201364,1,8,0:0:0:0:
331,181,201431,1,8,0:0:0:0:
331,181,201498,1,0,0:0:0:0:
331,181,201767,1,0,0:0:0:0:
331,181,202036,1,8,0:0:0:0:
331,181,202305,1,8,0:0:0:0:
385,107,202395,1,8,0:0:0:0:
385,107,202485,1,8,0:0:0:0:
296,164,202574,1,0,0:0:0:0:
277,135,202664,1,0,0:0:0:0:
173,139,202754,1,8,0:0:0:0:
192,135,202843,1,0,0:0:0:0:
432,135,203112,1,8,0:0:0:0:
432,135,203180,1,8,0:0:0:0:
432,135,203247,1,8,0:0:0:0:
432,135,203382,1,0,0:0:0:0:
432,135,203516,1,8,0:0:0:0:
432,135,203583,1,8,0:0:0:0:
432,135,203651,1,0,0:0:0:0:
432,135,203920,1,0,0:0:0:0:
423,137,204054,1,8,0:0:0:0:
432,135,204189,1,8,0:0:0:0:
432,135,204458,1,8,0:0:0:0:
423,137,204727,1,0,0:0:0:0:
412,145,204996,1,0,0:0:0:0:
412,145,205265,1,8,0:0:0:0:
412,145,205332,1,8,0:0:0:0:
412,145,205399,1,8,0:0:0:0:
412,145,205534,1,0,0:0:0:0:
412,145,205669,1,8,0:0:0:0:
412,145,205736,1,8,0:0:0:0:
412,145,205803,1,0,0:0:0:0:
183,108,205870,1,8,0:0:0:0:
183,108,205937,1,8,0:0:0:0:
183,108,206004,1,8,0:0:0:0:
412,145,206072,1,0,0:0:0:0:
183,108,206156,1,8,0:0:0:0:
183,108,206240,1,8,0:0:0:0:
412,145,206341,1,0,0:0:0:0:
370,152,206610,1,8,0:0:0:0:
370,152,206745,1,8,0:0:0:0:
370,152,206879,1,0,0:0:0:0:
404,162,207148,1,0,0:0:0:0:
373,172,207417,1,8,0:0:0:0:
373,172,207485,1,8,0:0:0:0:
389,142,207552,1,8,0:0:0:0:
389,142,207686,1,0,0:0:0:0:
389,142,207821,1,8,0:0:0:0:
389,142,207888,1,8,0:0:0:0:
389,142,207956,1,0,0:0:0:0:
295,137,208225,1,0,0:0:0:0:
295,137,208359,1,8,0:0:0:0:
331,133,208494,1,8,0:0:0:0:
331,133,208763,1,8,0:0:0:0:
331,133,209032,1,0,0:0:0:0:
331,133,209301,1,0,0:0:0:0:
331,133,209570,1,8,0:0:0:0:
331,133,209637,1,8,0:0:0:0:
331,133,209704,1,8,0:0:0:0:
331,133,209839,1,0,0:0:0:0:
331,133,209973,1,8,0:0:0:0:
331,133,210041,1,8,0:0:0:0:
331,133,210108,1,0,0:0:0:0:
331,133,210377,1,8,0:0:0:0:
320,93,210511,1,0,0:0:0:0:
320,93,210578,1,0,0:0:0:0:
331,133,210646,1,8,0:0:0:0:
331,133,210915,1,0,0:0:0:0:
331,133,211050,1,8,0:0:0:0:
331,133,211184,1,0,0:0:0:0:
331,133,211453,1,0,0:0:0:0:
331,133,211722,1,8,0:0:0:0:
331,133,211790,1,8,0:0:0:0:
331,133,211857,1,8,0:0:0:0:
331,133,211991,1,0,0:0:0:0:
331,133,212126,1,8,0:0:0:0:
331,133,212193,1,8,0:0:0:0:
331,133,212260,1,0,0:0:0:0:
331,133,212529,1,0,0:0:0:0:
225,41,212664,1,8,0:0:0:0:
331,133,212799,1,8,0:0:0:0:
331,133,213068,1,8,0:0:0:0:
243,163,213337,1,0,0:0:0:0:
290,164,213606,1,0,0:0:0:0:
290,164,213875,1,8,0:0:0:0:
289,136,213942,1,8,0:0:0:0:
289,136,214009,1,8,0:0:0:0:
289,136,214144,1,0,0:0:0:0:
289,136,214278,1,8,0:0:0:0:
289,136,214346,1,8,0:0:0:0:
294,139,214413,1,0,0:0:0:0:
294,139,214682,1,0,0:0:0:0:
289,136,214951,1,8,0:0:0:0:
289,136,215220,1,8,0:0:0:0:
294,139,215489,1,0,0:0:0:0:
394,165,215725,1,0,0:0:0:0:
394,165,215960,1,8,0:0:0:0:
358,227,216498,1,8,0:0:0:0:
358,227,217036,1,8,0:0:0:0:
358,227,217574,1,8,0:0:0:0:
358,227,217843,1,8,0:0:0:0:
358,227,218112,1,8,0:0:0:0:
358,227,218382,1,8,0:0:0:0:
358,227,218651,1,8,0:0:0:0:
280,153,218785,1,8,0:0:0:0:
358,227,218920,1,8,0:0:0:0:
296,138,219054,1,8,0:0:0:0:
444,253,219189,1,0,0:0:0:0:
156,149,219256,1,0,0:0:0:0:
296,138,219323,1,8,0:0:0:0:
281,183,219390,1,8,0:0:0:0:
339,261,219458,1,0,0:0:0:0:
310,201,219525,1,0,0:0:0:0:
310,201,219592,1,8,0:0:0:0:
296,138,219660,1,8,0:0:0:0:
296,138,219727,1,8,0:0:0:0:
483,304,219794,1,0,0:0:0:0:
345,232,219929,1,0,0:0:0:0:
349,224,219996,1,0,0:0:0:0:
403,182,220063,1,8,0:0:0:0:
366,212,220130,1,0,0:0:0:0:
345,232,220198,1,0,0:0:0:0:
418,164,220332,1,8,0:0:0:0:
418,164,220399,1,8,0:0:0:0:
283,137,220467,1,0,0:0:0:0:
283,137,220534,1,0,0:0:0:0:
429,162,220601,1,8,0:0:0:0:
377,216,220669,1,8,0:0:0:0:
429,162,220736,1,0,0:0:0:0:
422,165,220870,1,8,0:0:0:0:
422,165,220938,1,8,0:0:0:0:
422,165,221005,1,0,0:0:0:0:
302,123,221072,1,8,0:0:0:0:
302,123,221139,1,0,0:0:0:0:
302,123,221207,1,0,0:0:0:0:
302,123,221274,1,8,0:0:0:0:
302,123,221341,1,0,0:0:0:0:
302,123,221408,1,8,0:0:0:0:
302,123,221476,1,8,0:0:0:0:
304,123,221543,1,8,0:0:0:0:
304,123,221610,1,0,0:0:0:0:
456,197,221677,1,0,0:0:0:0:
318,149,221812,1,8,0:0:0:0:
316,167,221947,1,0,0:0:0:0:
442,268,222014,1,8,0:0:0:0:
426,257,222081,1,8,0:0:0:0:
442,268,222148,1,0,0:0:0:0:
442,268,222216,1,8,0:0:0:0:
426,257,222283,1,0,0:0:0:0:
426,257,222350,1,0,0:0:0:0:
426,257,222485,1,8,0:0:0:0:
426,257,222552,1,8,0:0:0:0:
426,257,222619,1,0,0:0:0:0:
426,257,222686,1,8,0:0:0:0:
426,257,222754,1,8,0:0:0:0:
426,257,222821,1,8,0:0:0:0:
426,257,222888,1,0,0:0:0:0:
244,245,223023,1,8,0:0:0:0:
244,245,223090,1,0,0:0:0:0:
244,245,223157,1,0,0:0:0:0:
256,248,223225,1,0,0:0:0:0:
256,248,223292,1,8,0:0:0:0:
293,235,223359,1,8,0:0:0:0:
252,238,223426,1,0,0:0:0:0:
252,238,223494,1,0,0:0:0:0:
252,238,223561,1,8,0:0:0:0:
252,238,223628,1,8,0:0:0:0:
252,238,223695,1,8,0:0:0:0:
252,238,223830,1,0,0:0:0:0:
252,238,223964,1,8,0:0:0:0:
360,201,224099,1,0,0:0:0:0:
360,201,224166,1,0,0:0:0:0:
234,151,224234,1,8,0:0:0:0:
234,151,224301,1,0,0:0:0:0:
243,147,224368,1,8,0:0:0:0:
243,147,224435,1,8,0:0:0:0:
439,162,224503,1,0,0:0:0:0:
451,160,224637,1,8,0:0:0:0:
451,160,224704,1,8,0:0:0:0:
451,160,224772,1,0,0:0:0:0:
351,128,224839,1,0,0:0:0:0:
351,128,224906,1,8,0:0:0:0:
351,128,224973,1,8,0:0:0:0:
351,128,225041,1,0,0:0:0:0:
438,199,225175,1,8,0:0:0:0:
438,199,225243,1,8,0:0:0:0:
438,199,225310,1,0,0:0:0:0:
438,199,225377,1,0,0:0:0:0:
438,199,225444,1,8,0:0:0:0:
438,199,225512,1,8,0:0:0:0:
438,199,225579,1,8,0:0:0:0:
463,213,225713,1,0,0:0:0:0:
223,178,225781,1,0,0:0:0:0:
461,197,225848,1,8,0:0:0:0:
223,178,225915,1,8,0:0:0:0:
351,244,225982,1,0,0:0:0:0:
461,197,226050,1,0,0:0:0:0:
461,197,226117,1,8,0:0:0:0:
430,169,226251,1,0,0:0:0:0:
441,190,226319,1,8,0:0:0:0:
441,190,226386,1,0,0:0:0:0:
441,190,226453,1,0,0:0:0:0:
459,189,226521,1,8,0:0:0:0:
459,189,226588,1,8,0:0:0:0:
459,189,226655,1,0,0:0:0:0:
459,189,226790,1,8,0:0:0:0:
459,189,226857,1,8,0:0:0:0:
461,205,226924,1,8,0:0:0:0:
459,189,226991,1,0,0:0:0:0:
459,189,227059,1,8,0:0:0:0:
459,189,227126,1,8,0:0:0:0:
459,189,227193,1,0,0:0:0:0:
454,270,227328,1,0,0:0:0:0:
461,180,227395,1,0,0:0:0:0:
341,132,227462,1,8,0:0:0:0:
341,132,227529,1,0,0:0:0:0:
461,180,227597,1,8,0:0:0:0:
341,132,227664,1,8,0:0:0:0:
461,180,227731,1,0,0:0:0:0:
341,132,227799,1,0,0:0:0:0:
484,288,227866,1,8,0:0:0:0:
405,206,228000,1,0,0:0:0:0:
405,206,228135,1,0,0:0:0:0:
405,206,228202,1,0,0:0:0:0:
248,153,228269,1,0,0:0:0:0:
397,211,228404,1,8,0:0:0:0:
418,119,228471,1,8,0:0:0:0:
194,190,228538,1,0,0:0:0:0:
419,169,228606,1,0,0:0:0:0:
419,169,228673,1,8,0:0:0:0:
419,169,228740,1,8,0:0:0:0:
419,169,228808,1,0,0:0:0:0:
212,199,228942,1,8,0:0:0:0:
212,199,229009,1,8,0:0:0:0:
212,199,229077,1,8,0:0:0:0:
284,202,229144,1,0,0:0:0:0:
284,202,229211,1,8,0:0:0:0:
284,202,229278,1,8,0:0:0:0:
442,254,229346,1,0,0:0:0:0:
413,157,229480,1,8,0:0:0:0:
413,158,229547,1,0,0:0:0:0:
412,158,229615,1,0,0:0:0:0:
413,157,229682,1,0,0:0:0:0:
413,157,229749,1,8,0:0:0:0:
413,157,229816,1,8,0:0:0:0:
413,157,229884,1,0,0:0:0:0:
413,157,230018,1,8,0:0:0:0:
413,157,230086,1,8,0:0:0:0:
455,241,230153,1,0,0:0:0:0:
413,157,230220,1,0,0:0:0:0:
413,158,230287,1,8,0:0:0:0:
413,158,230355,1,8,0:0:0:0:
436,200,230422,1,8,0:0:0:0:
431,206,230556,1,0,0:0:0:0:
457,175,230624,1,0,0:0:0:0:
431,206,230691,1,8,0:0:0:0:
457,175,230758,1,8,0:0:0:0:
457,175,230825,1,0,0:0:0:0:
457,175,230893,1,8,0:0:0:0:
431,206,230960,1,0,0:0:0:0:
431,206,231095,1,8,0:0:0:0:
431,206,231162,1,0,0:0:0:0:
431,206,231229,1,8,0:0:0:0:
431,206,231296,1,8,0:0:0:0:
431,206,231364,1,8,0:0:0:0:
431,206,231431,1,0,0:0:0:0:
431,206,231498,1,0,0:0:0:0:
290,144,231633,1,8,0:0:0:0:
290,144,231700,1,0,0:0:0:0:
421,188,231767,1,0,0:0:0:0:
290,144,231834,1,8,0:0:0:0:
421,188,231902,1,8,0:0:0:0:
431,206,231969,1,8,0:0:0:0:
431,206,232036,1,0,0:0:0:0:
431,206,232103,1,0,0:0:0:0:
458,269,232171,1,8,0:0:0:0:
451,130,232260,1,8,0:0:0:0:
451,130,232350,1,8,0:0:0:0:
451,130,232440,1,8,0:0:0:0:
451,130,232529,1,8,0:0:0:0:
451,130,232619,1,8,0:0:0:0:
465,139,232709,1,0,0:0:0:0:
386,172,232843,1,0,0:0:0:0:
386,172,232978,1,8,0:0:0:0:
386,172,233112,1,0,0:0:0:0:
386,172,233247,1,0,0:0:0:0:
386,172,233382,1,8,0:0:0:0:
392,167,233516,1,0,0:0:0:0:
392,167,233651,1,0,0:0:0:0:
392,167,233785,1,8,0:0:0:0:
392,167,233920,1,0,0:0:0:0:
392,167,234054,1,0,0:0:0:0:
392,167,234189,1,8,0:0:0:0:
385,187,234323,1,0,0:0:0:0:
385,187,234458,1,0,0:0:0:0:
385,187,234592,1,8,0:0:0:0:
465,139,234861,1,0,0:0:0:0:
386,172,234995,1,0,0:0:0:0:
386,172,235130,1,8,0:0:0:0:
386,172,235264,1,0,0:0:0:0:
386,172,235399,1,0,0:0:0:0:
386,172,235534,1,8,0:0:0:0:
392,167,235668,1,0,0:0:0:0:
392,167,235803,1,0,0:0:0:0:
392,167,235937,1,8,0:0:0:0:
392,167,236072,1,0,0:0:0:0:
392,167,236206,1,0,0:0:0:0:
392,167,236341,1,8,0:0:0:0:
385,187,236475,1,0,0:0:0:0:
385,187,236610,1,0,0:0:0:0:
385,187,236744,1,8,0:0:0:0:
266,220,237014,1,4,0:0:0:0:
447,198,237148,1,8,0:0:0:0:
447,198,237283,1,0,0:0:0:0:
447,198,237417,1,0,0:0:0:0:
447,198,237552,1,8,0:0:0:0:
447,198,237686,1,0,0:0:0:0:
447,198,237821,1,8,0:0:0:0:
447,198,237956,1,8,0:0:0:0:
382,250,238090,1,8,0:0:0:0:
447,198,238225,1,0,0:0:0:0:
401,214,238292,1,0,0:0:0:0:
447,198,238359,1,8,0:0:0:0:
447,198,238494,1,0,0:0:0:0:
447,198,238628,1,8,0:0:0:0:
297,119,238695,1,8,0:0:0:0:
447,198,238763,1,8,0:0:0:0:
447,198,238897,1,0,0:0:0:0:
344,179,239032,1,0,0:0:0:0:
419,238,239166,1,8,0:0:0:0:
420,222,239301,1,8,0:0:0:0:
420,222,239435,1,0,0:0:0:0:
420,222,239570,1,0,0:0:0:0:
420,222,239704,1,8,0:0:0:0:
420,222,239839,1,0,0:0:0:0:
420,222,239973,1,8,0:0:0:0:
420,222,240108,1,8,0:0:0:0:
336,133,240175,1,8,0:0:0:0:
419,238,240243,1,8,0:0:0:0:
420,222,240377,1,0,0:0:0:0:
420,222,240444,1,0,0:0:0:0:
420,222,240512,1,8,0:0:0:0:
266,106,240646,1,0,0:0:0:0:
419,238,240781,1,12,0:0:0:0:
419,238,241050,1,0,0:0:0:0:
430,280,241319,1,4,0:0:0:0:
409,249,241453,1,0,0:0:0:0:
409,249,241588,1,8,0:0:0:0:
406,241,241722,1,8,0:0:0:0:
406,242,241857,1,0,0:0:0:0:
426,206,241991,1,8,0:0:0:0:
426,206,242126,1,0,0:0:0:0:
426,206,242260,1,0,0:0:0:0:
401,257,242395,1,8,0:0:0:0:
432,204,242529,1,8,0:0:0:0:
432,204,242597,1,8,0:0:0:0:
432,204,242664,1,0,0:0:0:0:
432,204,242799,1,0,0:0:0:0:
181,104,242865,1,0,0:0:0:0:
432,204,242933,1,8,0:0:0:0:
432,204,243068,1,8,0:0:0:0:
409,254,243202,1,0,0:0:0:0:
445,221,243269,1,8,0:0:0:0:
438,192,243337,1,8,0:0:0:0:
430,228,243471,1,0,0:0:0:0:
430,228,243606,1,0,0:0:0:0:
430,228,243740,1,8,0:0:0:0:
430,228,243875,1,8,0:0:0:0:
255,190,244009,1,0,0:0:0:0:
430,228,244144,1,0,0:0:0:0:
430,228,244278,1,8,0:0:0:0:
430,228,244413,1,0,0:0:0:0:
189,169,244480,1,0,0:0:0:0:
409,254,244547,1,8,0:0:0:0:
340,141,244682,1,8,0:0:0:0:
306,162,244816,1,0,0:0:0:0:
306,162,244951,1,8,0:0:0:0:
331,154,245018,1,8,0:0:0:0:
331,154,245086,1,0,0:0:0:0:
311,102,245220,1,0,0:0:0:0:
311,102,245288,1,0,0:0:0:0:
301,146,245354,1,8,0:0:0:0:
345,164,245489,1,8,0:0:0:0:
306,162,245624,1,4,0:0:0:0:
288,137,245758,1,0,0:0:0:0:
289,138,245893,1,8,0:0:0:0:
336,151,245960,1,8,0:0:0:0:
336,151,246027,1,0,0:0:0:0:
321,163,246162,1,8,0:0:0:0:
321,163,246296,1,0,0:0:0:0:
321,163,246430,1,8,0:0:0:0:
321,163,246565,1,0,0:0:0:0:
386,192,246700,1,8,0:0:0:0:
315,163,246834,1,0,0:0:0:0:
321,163,246901,1,0,0:0:0:0:
321,163,246969,1,8,0:0:0:0:
321,163,247103,1,0,0:0:0:0:
321,163,247238,1,8,0:0:0:0:
297,164,247373,1,0,0:0:0:0:
319,168,247507,1,8,0:0:0:0:
319,168,247574,1,8,0:0:0:0:
319,168,247642,1,0,0:0:0:0:
386,192,247776,1,8,0:0:0:0:
388,158,247911,1,0,0:0:0:0:
388,158,248045,1,8,0:0:0:0:
386,160,248180,1,8,0:0:0:0:
457,167,248314,1,0,0:0:0:0:
386,160,248449,1,0,0:0:0:0:
457,167,248583,1,8,0:0:0:0:
365,142,248718,1,0,0:0:0:0:
365,142,248785,1,0,0:0:0:0:
457,167,248852,1,8,0:0:0:0:
365,142,248987,1,0,0:0:0:0:
433,161,249121,1,8,0:0:0:0:
365,142,249256,1,0,0:0:0:0:
365,142,249390,1,8,0:0:0:0:
365,142,249525,1,0,0:0:0:0:
433,161,249660,1,8,0:0:0:0:
365,142,249794,1,8,0:0:0:0:
356,149,249929,1,4,0:0:0:0:
443,154,250063,1,0,0:0:0:0:
468,158,250198,1,8,0:0:0:0:
391,156,250332,1,8,0:0:0:0:
391,156,250467,1,0,0:0:0:0:
391,156,250601,1,8,0:0:0:0:
391,156,250736,1,0,0:0:0:0:
391,156,250870,1,8,0:0:0:0:
351,153,251005,1,8,0:0:0:0:
391,156,251139,1,0,0:0:0:0:
391,156,251207,1,0,0:0:0:0:
391,156,251274,1,8,0:0:0:0:
391,156,251408,1,0,0:0:0:0:
391,156,251543,1,8,0:0:0:0:
391,156,251610,1,8,0:0:0:0:
391,156,251677,1,8,0:0:0:0:
401,169,251812,1,0,0:0:0:0:
391,156,251947,1,8,0:0:0:0:
401,169,252081,1,8,0:0:0:0:
287,191,252216,1,0,0:0:0:0:
416,182,252350,1,8,0:0:0:0:
416,182,252485,1,0,0:0:0:0:
416,182,252619,1,0,0:0:0:0:
315,107,252754,1,8,0:0:0:0:
418,181,252888,1,0,0:0:0:0:
310,79,253023,1,8,0:0:0:0:
310,79,253090,1,8,0:0:0:0:
390,155,253157,1,0,0:0:0:0:
390,155,253426,1,0,0:0:0:0:
390,155,253695,1,0,0:0:0:0:
390,155,253964,1,0,0:0:0:0:
403,172,254234,1,4,0:0:0:0:
398,143,254368,1,0,0:0:0:0:
398,143,254503,1,8,0:0:0:0:
394,145,254570,1,8,0:0:0:0:
394,145,254637,1,0,0:0:0:0:
312,189,254772,1,0,0:0:0:0:
434,147,254906,1,8,0:0:0:0:
434,147,255041,1,0,0:0:0:0:
434,147,255175,1,0,0:0:0:0:
411,152,255310,1,8,0:0:0:0:
434,147,255444,1,8,0:0:0:0:
434,147,255512,1,8,0:0:0:0:
434,147,255579,1,0,0:0:0:0:
434,147,255713,1,8,0:0:0:0:
432,162,255848,1,0,0:0:0:0:
432,162,255982,1,0,0:0:0:0:
295,116,256117,1,8,0:0:0:0:
295,116,256251,1,0,0:0:0:0:
450,232,256386,1,8,0:0:0:0:
412,173,256521,1,0,0:0:0:0:
412,173,256588,1,0,0:0:0:0:
412,173,256655,1,8,0:0:0:0:
450,232,256790,1,0,0:0:0:0:
454,224,256924,1,0,0:0:0:0:
440,208,257059,1,8,0:0:0:0:
453,220,257126,1,8,0:0:0:0:
453,220,257193,1,0,0:0:0:0:
435,200,257328,1,0,0:0:0:0:
450,232,257462,1,8,0:0:0:0:
435,200,257597,1,0,0:0:0:0:
435,200,257731,1,0,0:0:0:0:
435,200,257866,1,8,0:0:0:0:
255,190,258000,1,8,0:0:0:0:
435,200,258135,1,0,0:0:0:0:
435,200,258202,1,0,0:0:0:0:
435,200,258269,1,8,0:0:0:0:
435,200,258404,1,8,0:0:0:0:
418,221,258538,1,4,0:0:0:0:
464,206,258673,1,0,0:0:0:0:
464,206,258808,1,8,0:0:0:0:
464,206,258942,1,8,0:0:0:0:
426,212,259077,1,0,0:0:0:0:
464,206,259211,1,0,0:0:0:0:
464,206,259346,1,8,0:0:0:0:
464,206,259480,1,0,0:0:0:0:
426,212,259615,1,8,0:0:0:0:
453,224,259749,1,0,0:0:0:0:
453,224,259816,1,0,0:0:0:0:
454,224,259884,1,8,0:0:0:0:
464,206,260018,1,0,0:0:0:0:
358,134,260153,1,8,0:0:0:0:
358,134,260220,1,8,0:0:0:0:
454,224,260287,1,0,0:0:0:0:
454,224,260422,1,8,0:0:0:0:
453,224,260556,1,0,0:0:0:0:
426,212,260691,1,8,0:0:0:0:
419,130,260825,1,0,0:0:0:0:
415,168,260960,1,0,0:0:0:0:
415,168,261095,1,8,0:0:0:0:
426,212,261229,1,0,0:0:0:0:
430,205,261364,1,0,0:0:0:0:
423,177,261498,1,8,0:0:0:0:
423,177,261633,1,0,0:0:0:0:
440,56,261700,1,0,0:0:0:0:
426,212,261767,1,8,0:0:0:0:
288,107,261902,1,8,0:0:0:0:
288,107,261969,1,8,0:0:0:0:
422,220,262036,1,0,0:0:0:0:
485,217,262171,1,0,0:0:0:0:
477,188,262305,1,8,0:0:0:0:
420,199,262373,1,8,0:0:0:0:
493,285,262440,1,0,0:0:0:0:
395,173,262574,1,8,0:0:0:0:
457,223,262709,1,0,0:0:0:0:
430,221,262843,1,4,0:0:0:0:
451,223,262978,1,8,0:0:0:0:
457,223,263112,1,8,0:0:0:0:
457,223,263247,1,0,0:0:0:0:
430,221,263382,1,0,0:0:0:0:
447,227,263516,1,8,0:0:0:0:
451,223,263651,1,0,0:0:0:0:
451,223,263785,1,0,0:0:0:0:
430,221,263920,1,8,0:0:0:0:
450,227,264054,1,0,0:0:0:0:
450,227,264189,1,8,0:0:0:0:
451,223,264323,1,8,0:0:0:0:
435,238,264390,1,8,0:0:0:0:
451,223,264458,1,0,0:0:0:0:
432,238,264592,1,0,0:0:0:0:
432,238,264727,1,8,0:0:0:0:
438,237,264861,1,0,0:0:0:0:
434,232,264996,1,8,0:0:0:0:
440,237,265130,1,0,0:0:0:0:
440,237,265265,1,8,0:0:0:0:
440,237,265332,1,8,0:0:0:0:
440,237,265399,1,0,0:0:0:0:
434,232,265534,1,0,0:0:0:0:
440,237,265669,1,8,0:0:0:0:
440,237,265736,1,8,0:0:0:0:
440,237,265803,1,0,0:0:0:0:
440,237,265938,1,0,0:0:0:0:
434,232,266072,1,8,0:0:0:0:
441,237,266207,1,0,0:0:0:0:
434,232,266341,1,0,0:0:0:0:
440,237,266476,1,8,0:0:0:0:
255,190,266610,1,12,0:0:0:0:
434,232,266879,1,0,0:0:0:0:
442,192,266947,1,0,0:0:0:0:
442,192,267014,1,8,0:0:0:0:
434,232,267148,1,4,0:0:0:0:
454,217,267283,1,0,0:0:0:0:
454,217,267417,1,8,0:0:0:0:
454,217,267552,1,8,0:0:0:0:
434,232,267686,1,0,0:0:0:0:
454,217,267821,1,0,0:0:0:0:
454,217,267956,1,8,0:0:0:0:
454,217,268090,1,0,0:0:0:0:
434,232,268225,1,8,0:0:0:0:
454,217,268359,1,8,0:0:0:0:
454,217,268426,1,8,0:0:0:0:
454,217,268494,1,0,0:0:0:0:
479,227,268628,1,0,0:0:0:0:
454,217,268763,1,8,0:0:0:0:
454,217,268830,1,8,0:0:0:0:
454,217,268897,1,8,0:0:0:0:
479,227,269032,1,0,0:0:0:0:
479,227,269166,1,8,0:0:0:0:
302,192,269301,1,0,0:0:0:0:
479,227,269435,1,0,0:0:0:0:
479,227,269570,1,8,0:0:0:0:
479,227,269637,1,8,0:0:0:0:
479,227,269704,1,0,0:0:0:0:
345,150,269839,1,0,0:0:0:0:
489,221,269973,1,8,0:0:0:0:
489,221,270108,1,0,0:0:0:0:
489,221,270243,1,8,0:0:0:0:
489,221,270310,1,8,0:0:0:0:
489,221,270377,1,0,0:0:0:0:
256,192,270512,8,0,271319,0:0:0:0:
336,181,271453,5,8,0:0:0:0:
336,181,271588,1,0,0:0:0:0:
291,119,271722,1,8,0:0:0:0:
291,119,271857,1,8,0:0:0:0:
291,119,271991,1,0,0:0:0:0:
291,119,272126,1,0,0:0:0:0:
291,119,272260,1,8,0:0:0:0:
291,119,272529,1,0,0:0:0:0:
291,119,272664,1,8,0:0:0:0:
291,119,272933,1,0,0:0:0:0:
276,132,273202,1,8,0:0:0:0:
276,132,273337,1,8,0:0:0:0:
276,132,273471,1,0,0:0:0:0:
276,132,273606,1,8,0:0:0:0:
276,132,273740,1,0,0:0:0:0:
276,132,273875,1,8,0:0:0:0:
276,132,274009,1,8,0:0:0:0:
276,132,274144,1,0,0:0:0:0:
276,132,274278,1,0,0:0:0:0:
276,132,274413,1,8,0:0:0:0:
321,126,274547,1,8,0:0:0:0:
321,126,274682,1,0,0:0:0:0:
335,119,274816,1,8,0:0:0:0:
408,128,275085,1,0,0:0:0:0:
447,115,275310,1,0,0:0:0:0:
499,96,275422,1,0,0:0:0:0:
265,147,275590,1,8,0:0:0:0:
392,128,275758,1,0,0:0:0:0:
412,104,275893,1,8,0:0:0:0:
475,221,276027,1,0,0:0:0:0:
475,221,276162,1,0,0:0:0:0:
475,221,276296,1,8,0:0:0:0:
448,227,276431,1,0,0:0:0:0:
448,227,276565,1,8,0:0:0:0:
465,206,276700,1,0,0:0:0:0:
465,206,276834,1,8,0:0:0:0:
465,206,276969,1,8,0:0:0:0:
464,206,277238,1,0,0:0:0:0:
236,118,277462,1,8,0:0:0:0:
440,43,277642,1,0,0:0:0:0:
481,68,277731,1,0,0:0:0:0:
481,68,277911,1,8,0:0:0:0:
475,283,278180,1,8,0:0:0:0:
475,283,278269,1,0,0:0:0:0:
464,179,278449,1,8,0:0:0:0:
489,197,278718,1,8,0:0:0:0:
489,197,278819,1,0,0:0:0:0:
459,111,278987,1,8,0:0:0:0:
459,111,279121,1,8,0:0:0:0:
459,111,279256,1,0,0:0:0:0:
441,142,279390,1,8,0:0:0:0:
438,177,279660,1,0,0:0:0:0:
437,186,279794,1,8,0:0:0:0:
437,186,279861,1,0,0:0:0:0:
437,186,280063,1,0,0:0:0:0:
437,186,280332,1,8,0:0:0:0:
437,186,280450,1,8,0:0:0:0:
437,186,280584,1,0,0:0:0:0:
437,186,280719,1,8,0:0:0:0:
437,186,280853,1,8,0:0:0:0:
437,186,281005,1,0,0:0:0:0:
419,197,281274,1,0,0:0:0:0:
419,197,281408,1,8,0:0:0:0:
419,197,281543,1,8,0:0:0:0:
419,197,281677,1,0,0:0:0:0:
426,191,281812,1,8,0:0:0:0:
426,191,281947,1,0,0:0:0:0:
426,191,282081,1,0,0:0:0:0:
426,191,282216,1,8,0:0:0:0:
437,201,282350,1,0,0:0:0:0:
437,201,282485,1,8,0:0:0:0:
412,222,282619,1,0,0:0:0:0:
412,222,282754,1,8,0:0:0:0:
437,201,282888,1,8,0:0:0:0:
412,222,283023,1,0,0:0:0:0:
412,222,283157,1,8,0:0:0:0:
431,227,283426,1,0,0:0:0:0:
431,227,283561,1,8,0:0:0:0:
438,232,283695,1,0,0:0:0:0:
438,232,283830,1,8,0:0:0:0:
431,227,283964,1,8,0:0:0:0:
438,232,284099,1,0,0:0:0:0:
438,232,284234,1,8,0:0:0:0:
450,259,284503,1,0,0:0:0:0:
448,236,284637,1,8,0:0:0:0:
448,236,284772,1,8,0:0:0:0:
448,236,284906,1,0,0:0:0:0:
448,236,284973,1,8,0:0:0:0:
381,172,285108,1,8,0:0:0:0:
280,184,285310,1,0,0:0:0:0:
481,217,285579,1,0,0:0:0:0:
420,193,285713,1,8,0:0:0:0:
420,193,285848,1,8,0:0:0:0:
420,193,286117,1,8,0:0:0:0:
418,147,286217,1,0,0:0:0:0:
420,193,286386,1,8,0:0:0:0:
400,224,286655,1,0,0:0:0:0:
400,224,286790,1,0,0:0:0:0:
401,223,286924,1,8,0:0:0:0:
400,224,287193,1,0,0:0:0:0:
400,224,287328,1,0,0:0:0:0:
400,224,287462,1,8,0:0:0:0:
371,208,287731,1,0,0:0:0:0:
371,208,287866,1,8,0:0:0:0:
371,208,288000,1,8,0:0:0:0:
371,208,288135,1,0,0:0:0:0:
371,208,288269,1,0,0:0:0:0:
371,208,288404,1,8,0:0:0:0:
416,178,288673,1,8,0:0:0:0:
416,178,288808,1,0,0:0:0:0:
416,178,288942,1,8,0:0:0:0:
416,178,289077,1,8,0:0:0:0:
416,178,289211,1,0,0:0:0:0:
416,178,289346,1,0,0:0:0:0:
416,178,289480,1,8,0:0:0:0:
416,178,289615,1,0,0:0:0:0:
416,178,289884,1,0,0:0:0:0:
416,178,290018,1,8,0:0:0:0:
416,178,290153,1,8,0:0:0:0:
416,178,290287,1,0,0:0:0:0:
416,178,290422,1,0,0:0:0:0:
416,178,290556,1,8,0:0:0:0:
435,207,290691,1,8,0:0:0:0:
435,207,290825,1,0,0:0:0:0:
458,247,290960,1,0,0:0:0:0:
435,207,291095,1,8,0:0:0:0:
435,207,291229,1,0,0:0:0:0:
435,207,291363,1,8,0:0:0:0:
206,147,291531,1,0,0:0:0:0:
236,147,291632,1,8,0:0:0:0:
324,56,291767,1,8,0:0:0:0:
440,108,291935,1,0,0:0:0:0:
144,120,292036,1,0,0:0:0:0:
335,206,292171,1,8,0:0:0:0:
454,228,292339,1,0,0:0:0:0:
470,271,292439,1,8,0:0:0:0:
454,228,292574,1,0,0:0:0:0:
470,271,292709,1,8,0:0:0:0:
482,232,292843,1,8,0:0:0:0:
482,232,292978,1,0,0:0:0:0:
482,232,293247,1,8,0:0:0:0:
482,232,293382,1,8,0:0:0:0:
482,232,293516,1,0,0:0:0:0:
482,232,293684,1,0,0:0:0:0:
482,232,293785,1,8,0:0:0:0:
482,232,293953,1,8,0:0:0:0:
482,232,294054,1,0,0:0:0:0:
482,232,294189,1,0,0:0:0:0:
482,232,294323,1,8,0:0:0:0:
337,172,294458,1,0,0:0:0:0:
337,172,294592,1,8,0:0:0:0:
220,190,294693,1,0,0:0:0:0:
406,227,294861,1,0,0:0:0:0:
207,202,295130,1,0,0:0:0:0:
211,204,295265,1,8,0:0:0:0:
303,208,295354,1,8,0:0:0:0:
207,202,295534,1,0,0:0:0:0:
211,204,295635,1,8,0:0:0:0:
303,208,295758,1,8,0:0:0:0:
207,202,295938,1,0,0:0:0:0:
211,204,296073,1,0,0:0:0:0:
386,246,296207,1,8,0:0:0:0:
404,230,297283,1,0,0:0:0:0:
404,230,297417,1,8,0:0:0:0:
444,59,297731,1,8,0:0:0:0:
455,90,297888,1,8,0:0:0:0:
461,222,298090,1,0,0:0:0:0:
408,63,298269,1,0,0:0:0:0:
322,107,298404,1,8,0:0:0:0:
322,107,298538,1,0,0:0:0:0:
451,92,298864,1,8,0:0:0:0:
199,156,299065,1,0,0:0:0:0:
272,163,299200,1,0,0:0:0:0:
272,163,299334,1,0,0:0:0:0:
419,255,299469,1,8,0:0:0:0:
402,261,299738,1,0,0:0:0:0:
149,139,299873,1,8,0:0:0:0:
149,139,300007,1,0,0:0:0:0:
149,139,300259,1,8,0:0:0:0:
149,139,300411,1,8,0:0:0:0:
149,139,300578,1,0,0:0:0:0:
255,190,300679,1,8,0:0:0:0:
467,280,301032,1,8,0:0:0:0:
452,255,301218,1,8,0:0:0:0:
163,139,301352,1,0,0:0:0:0:
255,190,301487,1,8,0:0:0:0:
451,217,301588,1,4,0:0:0:0:
461,221,301857,1,4,0:0:0:0:
314,186,302126,1,4,0:0:0:0:
345,202,302395,1,0,0:0:0:0:
393,190,302529,1,0,0:0:0:0:
393,190,302664,1,12,0:0:0:0:
336,244,303068,1,8,0:0:0:0:
341,249,303202,1,4,0:0:0:0:
309,186,303337,1,0,0:0:0:0:
309,186,303471,1,8,0:0:0:0:
301,210,303740,1,4,0:0:0:0:
306,207,304009,1,8,0:0:0:0:
311,229,304278,1,8,0:0:0:0:
311,232,304547,1,0,0:0:0:0:
328,168,304816,1,12,0:0:0:0:
328,168,304951,1,0,0:0:0:0:
328,168,305220,1,8,0:0:0:0:
336,167,305489,1,0,0:0:0:0:
336,167,305624,1,8,0:0:0:0:
336,167,305893,1,4,0:0:0:0:
336,167,306162,1,4,0:0:0:0:
417,205,306431,1,4,0:0:0:0:
446,226,306700,1,8,0:0:0:0:
446,226,306969,1,12,0:0:0:0:
430,216,307103,1,0,0:0:0:0:
430,216,307373,1,8,0:0:0:0:
427,206,307507,1,4,0:0:0:0:
427,206,307642,1,4,0:0:0:0:
427,206,307776,1,4,0:0:0:0:
430,216,308045,1,4,0:0:0:0:
381,193,308314,1,8,0:0:0:0:
387,195,308583,1,4,0:0:0:0:
381,193,308785,1,0,0:0:0:0:
371,173,309121,1,12,0:0:0:0:
375,146,309323,1,0,0:0:0:0:
375,146,309592,1,0,0:0:0:0:
330,113,309861,1,8,0:0:0:0:
330,113,310198,1,4,0:0:0:0:
330,113,310467,1,4,0:0:0:0:
330,113,310736,1,4,0:0:0:0:
344,190,311274,1,12,0:0:0:0:
416,175,311812,1,4,0:0:0:0:
272,157,312081,1,8,0:0:0:0:
272,157,312350,1,4,0:0:0:0:
341,162,312888,1,0,0:0:0:0:
341,162,313157,1,8,0:0:0:0:
371,226,313426,1,12,0:0:0:0:
371,226,313695,1,0,0:0:0:0:
371,226,313964,1,0,0:0:0:0:
371,226,314234,1,8,0:0:0:0:
409,217,314503,1,4,0:0:0:0:
409,217,314772,1,4,0:0:0:0:
409,217,315041,1,4,0:0:0:0:
409,217,315579,1,12,0:0:0:0:
423,226,315848,1,0,0:0:0:0:
409,232,316117,1,4,0:0:0:0:
410,232,316251,1,4,0:0:0:0:
409,232,316386,1,4,0:0:0:0:
410,232,316655,1,4,0:0:0:0:
409,232,316924,1,8,0:0:0:0:
255,190,317193,1,0,0:0:0:0:
325,188,317283,1,8,0:0:0:0:
211,137,317429,1,0,0:0:0:0:
255,190,317731,1,0,0:0:0:0:
255,190,317866,1,0,0:0:0:0:
255,190,318000,1,0,0:0:0:0:
255,190,318269,1,0,0:0:0:0:
383,191,318359,1,8,0:0:0:0:
255,190,318538,1,0,0:0:0:0:
435,169,318808,1,4,0:0:0:0:
488,96,319077,1,0,0:0:0:0:
488,96,319166,1,8,0:0:0:0:
485,124,319346,1,8,0:0:0:0:
485,127,319615,1,0,0:0:0:0:
485,127,319884,1,12,0:0:0:0:
412,177,320153,1,8,0:0:0:0:
418,187,320422,1,4,0:0:0:0:
470,227,320960,1,4,0:0:0:0:
460,122,321095,1,0,0:0:0:0:
464,160,321229,1,8,0:0:0:0:
464,160,321364,1,8,0:0:0:0:
464,160,321498,1,0,0:0:0:0:
464,160,321633,1,8,0:0:0:0:
464,160,321767,1,0,0:0:0:0:
464,160,321902,1,0,0:0:0:0:
464,160,322036,1,12,0:0:0:0:
437,203,322305,1,0,0:0:0:0:
437,203,322395,1,8,0:0:0:0:
308,157,322574,1,8,0:0:0:0:
308,157,322843,1,0,0:0:0:0:
308,157,323112,1,4,0:0:0:0:
477,253,323382,1,4,0:0:0:0:
476,240,323651,1,4,0:0:0:0:
423,176,324009,1,0,0:0:0:0:
486,150,324189,1,12,0:0:0:0:
465,298,324458,1,0,0:0:0:0:
465,298,324727,1,0,0:0:0:0:
465,298,324996,1,8,0:0:0:0:
465,298,325265,1,4,0:0:0:0:
469,280,325534,1,8,0:0:0:0:
469,280,325803,1,4,0:0:0:0:
479,280,326341,1,12,0:0:0:0:
463,285,326577,1,0,0:0:0:0:
465,285,326812,1,0,0:0:0:0:
465,285,327148,1,8,0:0:0:0:
297,211,327417,1,0,0:0:0:0:
328,179,327821,1,0,0:0:0:0:
328,179,327956,1,0,0:0:0:0:
328,179,328090,1,0,0:0:0:0:
333,173,328359,1,0,0:0:0:0:
336,169,328628,1,0,0:0:0:0:
335,169,328897,1,0,0:0:0:0:
333,173,329032,1,0,0:0:0:0:
333,126,329570,1,0,0:0:0:0:
333,126,329973,1,0,0:0:0:0:
333,126,330108,1,0,0:0:0:0:
333,126,330243,1,0,0:0:0:0:
233,158,330512,1,0,0:0:0:0:
328,139,331184,1,8,0:0:0:0:
287,176,331722,1,0,0:0:0:0:
287,176,332126,1,0,0:0:0:0:
302,165,332260,1,0,0:0:0:0:
302,165,332395,1,0,0:0:0:0:
306,159,332664,1,0,0:0:0:0:
303,162,332933,1,0,0:0:0:0:
302,165,333202,1,0,0:0:0:0:
306,159,333337,1,8,0:0:0:0:
315,142,333875,1,0,0:0:0:0:
111,144,334009,1,8,0:0:0:0:
315,142,334278,1,0,0:0:0:0:
315,142,334413,1,0,0:0:0:0:
315,142,334547,1,0,0:0:0:0:
315,142,334816,1,0,0:0:0:0:
329,135,335489,1,8,0:0:0:0:
361,168,336027,1,0,0:0:0:0:
361,168,336296,1,8,0:0:0:0:
378,205,336431,1,0,0:0:0:0:
361,168,336565,1,0,0:0:0:0:
451,248,336700,1,0,0:0:0:0:
451,248,336834,1,8,0:0:0:0:
451,234,336969,1,0,0:0:0:0:
451,234,337238,1,0,0:0:0:0:
451,234,337373,1,8,0:0:0:0:
451,234,337507,1,0,0:0:0:0:
451,234,337642,1,0,0:0:0:0:
451,234,337911,1,8,0:0:0:0:
277,169,338180,1,0,0:0:0:0:
446,241,338449,1,8,0:0:0:0:
446,241,338583,1,0,0:0:0:0:
446,241,338718,1,0,0:0:0:0:
446,241,338852,1,0,0:0:0:0:
446,241,338987,1,8,0:0:0:0:
446,241,339121,1,0,0:0:0:0:
475,278,339525,1,8,0:0:0:0:
436,226,339660,1,8,0:0:0:0:
436,226,339794,1,0,0:0:0:0:
458,255,340063,1,8,0:0:0:0:
451,260,340332,1,0,0:0:0:0:
450,203,340601,1,8,0:0:0:0:
450,203,340736,1,0,0:0:0:0:
450,203,340870,1,0,0:0:0:0:
450,203,341005,1,0,0:0:0:0:
450,203,341139,1,8,0:0:0:0:
450,203,341274,1,0,0:0:0:0:
450,203,341543,1,0,0:0:0:0:
450,203,341677,1,8,0:0:0:0:
450,203,341812,1,8,0:0:0:0:
450,203,341947,1,0,0:0:0:0:
450,203,342216,1,8,0:0:0:0:
450,203,342485,1,0,0:0:0:0:
450,203,342754,1,8,0:0:0:0:
450,203,342888,1,0,0:0:0:0:
450,203,343023,1,0,0:0:0:0:
450,203,343157,1,0,0:0:0:0:
450,203,343292,1,8,0:0:0:0:
450,203,343426,1,0,0:0:0:0:
450,203,343830,1,8,0:0:0:0:
450,203,343964,1,8,0:0:0:0:
450,203,344099,1,0,0:0:0:0:
450,203,344368,1,8,0:0:0:0:
461,217,344637,1,0,0:0:0:0:
407,192,344906,1,8,0:0:0:0:
407,192,345041,1,0,0:0:0:0:
407,192,345175,1,0,0:0:0:0:
407,192,345310,1,0,0:0:0:0:
418,183,345444,1,8,0:0:0:0:
418,183,345579,1,0,0:0:0:0:
418,183,345848,1,0,0:0:0:0:
418,183,345982,1,8,0:0:0:0:
418,183,346117,1,0,0:0:0:0:
418,183,346251,1,0,0:0:0:0:
418,183,346521,1,8,0:0:0:0:
418,183,346790,1,0,0:0:0:0:
418,183,347059,1,8,0:0:0:0:
418,183,347193,1,0,0:0:0:0:
418,183,347328,1,0,0:0:0:0:
418,183,347462,1,0,0:0:0:0:
418,183,347597,1,8,0:0:0:0:
418,183,347731,1,0,0:0:0:0:
418,183,348135,1,8,0:0:0:0:
323,153,348673,1,8,0:0:0:0:
323,153,348942,1,0,0:0:0:0:
323,153,349211,1,8,0:0:0:0:
323,153,349346,1,0,0:0:0:0:
323,153,349480,1,0,0:0:0:0:
323,153,349615,1,0,0:0:0:0:
323,153,349749,1,8,0:0:0:0:
323,153,349884,1,0,0:0:0:0:
323,153,350153,1,0,0:0:0:0:
323,153,350287,1,8,0:0:0:0:
323,153,350422,1,8,0:0:0:0:
323,153,350556,1,0,0:0:0:0:
323,153,350825,1,8,0:0:0:0:
323,153,351095,1,0,0:0:0:0:
323,153,351364,1,8,0:0:0:0:
323,153,351498,1,0,0:0:0:0:
321,159,351633,1,0,0:0:0:0:
321,159,351767,1,0,0:0:0:0:
321,159,351902,1,8,0:0:0:0:
321,159,352036,1,0,0:0:0:0:
321,159,352440,1,8,0:0:0:0:
282,160,352574,1,8,0:0:0:0:
333,160,352978,1,8,0:0:0:0:
338,152,353247,1,8,0:0:0:0:
337,153,353382,1,0,0:0:0:0:
337,153,353516,1,8,0:0:0:0:
397,225,353651,1,0,0:0:0:0:
397,225,353785,1,8,0:0:0:0:
369,165,353920,1,0,0:0:0:0:
470,237,354054,1,8,0:0:0:0:
337,153,354189,1,0,0:0:0:0:
470,237,354323,1,8,0:0:0:0:
470,237,354458,1,0,0:0:0:0:
470,237,354592,1,8,0:0:0:0:
470,237,354861,1,8,0:0:0:0:
384,229,355399,1,0,0:0:0:0:
388,219,396295,5,4,0:0:0:0:
301,169,396430,1,0,0:0:0:0:
167,152,396497,1,0,0:0:0:0:
336,155,396564,1,8,0:0:0:0:
336,155,396699,1,0,0:0:0:0:
412,210,396833,1,8,0:0:0:0:
412,210,396901,1,8,0:0:0:0:
410,239,396968,1,0,0:0:0:0:
412,210,397035,1,0,0:0:0:0:
416,235,397102,1,8,0:0:0:0:
416,234,397237,1,8,0:0:0:0:
437,257,397304,1,0,0:0:0:0:
420,233,397372,1,0,0:0:0:0:
437,251,397439,1,0,0:0:0:0:
415,256,397506,1,8,0:0:0:0:
419,265,397641,1,8,0:0:0:0:
214,114,397775,1,0,0:0:0:0:
456,247,397842,1,0,0:0:0:0:
271,92,397910,1,8,0:0:0:0:
456,246,397977,1,8,0:0:0:0:
253,120,398044,1,0,0:0:0:0:
419,265,398179,1,8,0:0:0:0:
477,283,398313,1,8,0:0:0:0:
477,283,398448,1,4,0:0:0:0:
347,170,398582,1,0,0:0:0:0:
426,221,398650,1,0,0:0:0:0:
447,244,398717,1,8,0:0:0:0:
423,194,398851,1,0,0:0:0:0:
386,206,398986,1,8,0:0:0:0:
408,215,399053,1,8,0:0:0:0:
386,206,399120,1,0,0:0:0:0:
408,215,399188,1,0,0:0:0:0:
386,206,399255,1,8,0:0:0:0:
386,206,399389,1,8,0:0:0:0:
397,207,399457,1,0,0:0:0:0:
386,206,399524,1,0,0:0:0:0:
397,207,399591,1,0,0:0:0:0:
386,206,399659,1,8,0:0:0:0:
386,206,399793,1,8,0:0:0:0:
287,264,399928,1,0,0:0:0:0:
287,264,399995,1,0,0:0:0:0:
287,264,400062,1,8,0:0:0:0:
287,264,400129,1,0,0:0:0:0:
235,157,400197,1,0,0:0:0:0:
255,190,400264,1,8,0:0:0:0:
389,180,400331,1,8,0:0:0:0:
389,180,400466,1,8,0:0:0:0:
400,190,400600,1,4,0:0:0:0:
335,119,400735,1,0,0:0:0:0:
335,119,400869,1,8,0:0:0:0:
409,161,400937,1,8,0:0:0:0:
369,167,401004,1,0,0:0:0:0:
369,167,401138,1,8,0:0:0:0:
424,167,401206,1,8,0:0:0:0:
369,167,401273,1,8,0:0:0:0:
423,166,401340,1,0,0:0:0:0:
369,167,401407,1,8,0:0:0:0:
369,167,401542,1,0,0:0:0:0:
369,167,401676,1,8,0:0:0:0:
430,176,401744,1,8,0:0:0:0:
369,167,401811,1,0,0:0:0:0:
426,174,401878,1,0,0:0:0:0:
369,167,401946,1,8,0:0:0:0:
369,167,402080,1,8,0:0:0:0:
430,176,402147,1,0,0:0:0:0:
369,167,402215,1,0,0:0:0:0:
430,176,402282,1,0,0:0:0:0:
379,215,402349,1,8,0:0:0:0:
369,167,402484,1,8,0:0:0:0:
365,211,402618,1,0,0:0:0:0:
271,285,402685,1,0,0:0:0:0:
262,261,402752,1,8,0:0:0:0:
209,70,402819,1,8,0:0:0:0:
195,163,402886,1,0,0:0:0:0:
255,190,402955,1,8,0:0:0:0:
255,190,403022,1,0,0:0:0:0:
395,209,403089,1,0,0:0:0:0:
338,202,403156,1,8,0:0:0:0:
395,209,403224,1,8,0:0:0:0:
338,202,403291,1,0,0:0:0:0:
305,161,403358,1,0,0:0:0:0:
382,212,403426,1,8,0:0:0:0:
380,204,403560,1,8,0:0:0:0:
365,211,403695,1,0,0:0:0:0:
271,285,403762,1,0,0:0:0:0:
262,261,403829,1,8,0:0:0:0:
209,70,403896,1,8,0:0:0:0:
195,163,403964,1,0,0:0:0:0:
255,190,404031,1,8,0:0:0:0:
255,190,404098,1,0,0:0:0:0:
395,209,404165,1,0,0:0:0:0:
338,202,404233,1,8,0:0:0:0:
395,209,404300,1,8,0:0:0:0:
338,202,404367,1,0,0:0:0:0:
305,161,404435,1,0,0:0:0:0:
382,212,404502,1,8,0:0:0:0:
76,167,404771,1,0,0:0:0:0:
365,211,404905,1,8,0:0:0:0:
271,285,404973,1,8,0:0:0:0:
262,261,405040,1,0,0:0:0:0:
209,70,405107,1,0,0:0:0:0:
195,163,405174,1,8,0:0:0:0:
338,202,405241,1,8,0:0:0:0:
381,204,405308,1,8,0:0:0:0:
424,196,405376,1,0,0:0:0:0:
338,202,405443,1,8,0:0:0:0:
294,99,405510,1,8,0:0:0:0:
338,202,405578,1,0,0:0:0:0:
326,89,405645,1,0,0:0:0:0:
406,101,405712,1,8,0:0:0:0:
231,177,405780,1,0,0:0:0:0:
427,283,405847,1,0,0:0:0:0:
427,283,405914,1,0,0:0:0:0:
427,283,405981,1,8,0:0:0:0:
445,282,406116,1,0,0:0:0:0:
398,237,406250,1,8,0:0:0:0:
409,259,406385,1,0,0:0:0:0:
409,259,406452,1,0,0:0:0:0:
409,259,406520,1,8,0:0:0:0:
409,259,406654,1,0,0:0:0:0:
412,266,406789,1,8,0:0:0:0:
412,266,406923,1,8,0:0:0:0:
430,256,407058,1,0,0:0:0:0:
430,256,407125,1,0,0:0:0:0:
465,244,407192,1,8,0:0:0:0:
430,256,407259,1,0,0:0:0:0:
430,256,407327,1,8,0:0:0:0:
462,233,407394,1,8,0:0:0:0:
458,236,407461,1,8,0:0:0:0:
462,233,407528,1,0,0:0:0:0:
430,256,407596,1,0,0:0:0:0:
278,169,407663,1,0,0:0:0:0:
430,256,407730,1,8,0:0:0:0:
430,256,407798,1,0,0:0:0:0:
286,173,407865,1,8,0:0:0:0:
447,259,407932,1,0,0:0:0:0:
463,243,407999,1,8,0:0:0:0:
342,220,408067,1,8,0:0:0:0:
447,259,408134,1,0,0:0:0:0:
447,259,408201,1,0,0:0:0:0:
447,259,408268,1,8,0:0:0:0:
447,259,408336,1,8,0:0:0:0:
447,259,408403,1,8,0:0:0:0:
447,259,408470,1,0,0:0:0:0:
447,259,408537,1,8,0:0:0:0:
447,259,408605,1,8,0:0:0:0:
447,259,408672,1,0,0:0:0:0:
447,259,408739,1,0,0:0:0:0:
447,259,408807,1,8,0:0:0:0:
425,185,408874,1,8,0:0:0:0:
447,259,408941,1,8,0:0:0:0:
84,177,409076,1,0,0:0:0:0:
84,177,409143,1,0,0:0:0:0:
165,191,409210,1,8,0:0:0:0:
165,191,409277,1,8,0:0:0:0:
179,193,409345,1,0,0:0:0:0:
179,193,409412,1,0,0:0:0:0:
465,262,409479,1,8,0:0:0:0:
465,262,409546,1,0,0:0:0:0:
471,196,409614,1,8,0:0:0:0:
465,262,409681,1,8,0:0:0:0:
309,253,409748,1,8,0:0:0:0:
471,223,409815,1,0,0:0:0:0:
309,253,409883,1,0,0:0:0:0:
309,253,409950,1,8,0:0:0:0:
318,194,410017,1,8,0:0:0:0:
318,194,410085,1,0,0:0:0:0:
302,224,410152,1,8,0:0:0:0:
302,224,410219,1,0,0:0:0:0:
313,247,410286,1,0,0:0:0:0:
473,247,410421,1,0,0:0:0:0:
467,288,410555,1,8,0:0:0:0:
475,286,410623,1,8,0:0:0:0:
475,286,410690,1,0,0:0:0:0:
475,286,410824,1,8,0:0:0:0:
441,151,410959,1,0,0:0:0:0:
475,286,411026,1,0,0:0:0:0:
476,291,411094,1,8,0:0:0:0:
496,254,411228,1,8,0:0:0:0:
485,260,411363,1,0,0:0:0:0:
485,260,411430,1,0,0:0:0:0:
496,267,411497,1,8,0:0:0:0:
496,267,411564,1,8,0:0:0:0:
401,207,411632,1,0,0:0:0:0:
496,267,411699,1,0,0:0:0:0:
401,207,411766,1,8,0:0:0:0:
469,251,411833,1,0,0:0:0:0:
244,171,411901,1,8,0:0:0:0:
401,207,411968,1,8,0:0:0:0:
401,207,412035,1,0,0:0:0:0:
501,267,412102,1,0,0:0:0:0:
501,267,412170,1,8,0:0:0:0:
104,220,412304,2,8,L|200:236,8,80.675
464,227,413515,1,4,0:0:0:0:
464,227,413650,1,0,0:0:0:0:
431,255,413717,1,0,0:0:0:0:
464,227,413784,1,8,0:0:0:0:
464,227,413919,1,0,0:0:0:0:
427,283,413986,1,0,0:0:0:0:
464,227,414053,1,8,0:0:0:0:
427,283,414120,1,0,0:0:0:0:
464,227,414188,1,8,0:0:0:0:
464,227,414322,1,0,0:0:0:0:
426,286,414389,1,0,0:0:0:0:
464,227,414457,1,0,0:0:0:0:
426,287,414524,1,0,0:0:0:0:
464,227,414591,1,8,0:0:0:0:
463,257,414726,1,0,0:0:0:0:
430,228,414860,1,8,0:0:0:0:
473,300,414928,1,0,0:0:0:0:
430,228,414995,1,0,0:0:0:0:
415,277,415062,1,0,0:0:0:0:
430,228,415129,1,8,0:0:0:0:
430,228,415264,1,8,0:0:0:0:
430,228,415398,1,0,0:0:0:0:
396,268,415466,1,0,0:0:0:0:
458,244,415533,1,8,0:0:0:0:
464,227,415668,1,4,0:0:0:0:
464,227,415802,1,0,0:0:0:0:
464,227,415936,1,8,0:0:0:0:
299,154,416004,1,8,0:0:0:0:
464,227,416071,1,0,0:0:0:0:
464,227,416205,1,8,0:0:0:0:
299,154,416273,1,0,0:0:0:0:
464,227,416340,1,8,0:0:0:0:
299,154,416407,1,8,0:0:0:0:
464,227,416474,1,0,0:0:0:0:
464,227,416609,1,0,0:0:0:0:
464,227,416743,1,8,0:0:0:0:
337,187,416811,1,8,0:0:0:0:
463,257,416878,1,0,0:0:0:0:
430,228,417012,1,8,0:0:0:0:
374,220,417080,1,0,0:0:0:0:
430,228,417147,1,0,0:0:0:0:
374,220,417215,1,0,0:0:0:0:
430,228,417281,1,8,0:0:0:0:
430,228,417416,1,8,0:0:0:0:
430,228,417550,1,0,0:0:0:0:
309,140,417618,1,0,0:0:0:0:
458,244,417685,1,8,0:0:0:0:
383,151,417753,1,8,0:0:0:0:
383,151,417820,1,4,0:0:0:0:
277,215,417955,1,0,0:0:0:0:
340,185,418089,1,8,0:0:0:0:
368,194,418156,1,8,0:0:0:0:
340,185,418224,1,0,0:0:0:0:
350,176,418358,1,8,0:0:0:0:
346,177,418493,1,0,0:0:0:0:
346,179,418627,1,8,0:0:0:0:
349,192,418694,1,8,0:0:0:0:
269,170,418762,1,8,0:0:0:0:
360,192,418829,1,8,0:0:0:0:
348,180,418896,1,0,0:0:0:0:
349,180,419031,1,0,0:0:0:0:
360,192,419098,1,0,0:0:0:0:
350,176,419165,1,8,0:0:0:0:
350,221,419233,1,8,0:0:0:0:
422,143,419300,1,0,0:0:0:0:
422,143,419434,1,8,0:0:0:0:
381,192,419502,1,8,0:0:0:0:
330,159,419569,1,0,0:0:0:0:
422,143,419636,1,0,0:0:0:0:
348,180,419703,1,8,0:0:0:0:
255,190,419838,1,8,0:0:0:0:
352,184,419972,1,4,0:0:0:0:
255,190,420107,1,0,0:0:0:0:
255,190,420242,1,8,0:0:0:0:
255,190,420309,1,8,0:0:0:0:
255,190,420376,1,0,0:0:0:0:
255,190,420511,1,8,0:0:0:0:
255,190,420578,1,0,0:0:0:0:
255,190,420645,1,0,0:0:0:0:
255,190,420712,1,0,0:0:0:0:
255,190,420780,1,8,0:0:0:0:
255,190,420914,1,0,0:0:0:0:
255,190,420981,1,0,0:0:0:0:
255,190,421049,1,8,0:0:0:0:
255,190,421116,1,8,0:0:0:0:
255,190,421183,1,8,0:0:0:0:
255,190,421318,1,8,0:0:0:0:
255,190,421452,1,0,0:0:0:0:
255,190,421587,1,8,0:0:0:0:
335,188,422125,1,4,0:0:0:0:
335,188,422259,1,0,0:0:0:0:
356,201,422327,1,0,0:0:0:0:
335,188,422394,1,8,0:0:0:0:
346,195,422528,1,0,0:0:0:0:
346,195,422663,1,8,0:0:0:0:
131,185,422730,1,0,0:0:0:0:
346,195,422798,1,0,0:0:0:0:
357,202,422865,1,8,0:0:0:0:
346,195,422932,1,8,0:0:0:0:
346,195,423067,1,8,0:0:0:0:
316,169,423134,1,0,0:0:0:0:
346,195,423201,1,0,0:0:0:0:
359,264,423268,1,0,0:0:0:0:
316,169,423336,1,8,0:0:0:0:
346,195,423470,1,8,0:0:0:0:
346,195,423605,1,0,0:0:0:0:
469,265,423672,1,0,0:0:0:0:
346,195,423739,1,8,0:0:0:0:
437,222,423807,1,8,0:0:0:0:
346,195,423874,1,0,0:0:0:0:
346,195,424008,1,8,0:0:0:0:
437,222,424076,1,8,0:0:0:0:
437,222,424143,1,0,0:0:0:0:
346,195,424277,1,4,0:0:0:0:
436,218,424412,1,0,0:0:0:0:
436,218,424546,1,8,0:0:0:0:
337,193,424614,1,8,0:0:0:0:
439,192,424681,1,0,0:0:0:0:
353,221,424815,1,0,0:0:0:0:
373,209,424883,1,0,0:0:0:0:
439,192,424950,1,8,0:0:0:0:
373,209,425017,1,8,0:0:0:0:
436,192,425085,1,8,0:0:0:0:
436,192,425219,1,0,0:0:0:0:
373,209,425286,1,0,0:0:0:0:
439,192,425354,1,8,0:0:0:0:
373,209,425421,1,8,0:0:0:0:
439,192,425488,1,0,0:0:0:0:
439,192,425623,1,8,0:0:0:0:
357,227,425690,1,8,0:0:0:0:
436,192,425757,1,0,0:0:0:0:
452,256,425892,1,8,0:0:0:0:
452,256,425959,1,0,0:0:0:0:
279,148,426026,1,0,0:0:0:0:
349,175,426094,1,0,0:0:0:0:
349,175,426161,1,8,0:0:0:0:
385,181,426295,1,8,0:0:0:0:
385,181,426430,1,0,0:0:0:0:
385,181,426833,1,0,0:0:0:0:
385,181,427237,1,0,0:0:0:0:
436,165,427775,1,0,0:0:0:0:
436,165,428179,1,0,0:0:0:0:
349,160,428582,1,0,0:0:0:0:
363,157,428986,1,0,0:0:0:0:
363,157,429389,1,0,0:0:0:0:
342,158,429928,1,0,0:0:0:0:
342,158,430331,1,0,0:0:0:0:
256,192,430735,8,0,433425,0:0:0:0:
