osu file format v14

[General]
AudioFilename: audio.mp3
AudioLeadIn: 0
PreviewTime: -1
Countdown: 1
SampleSet: None
StackLeniency: 0.7
Mode: 0
LetterboxInBreaks: 0
WidescreenStoryboard: 0

[Editor]
DistanceSpacing: 0.1
BeatDivisor: 4
GridSize: 4
TimelineZoom: 1

[Metadata]
Title:Already dead
TitleUnicode:Already dead
Artist:Lil Boom
ArtistUnicode:Lil Boom
Creator:MyZelFlol
Version:Normal
Source:
Tags:
BeatmapID:2246931
BeatmapSetID:1073592

[Difficulty]
HPDrainRate:5
CircleSize:5
OverallDifficulty:5
ApproachRate:10
SliderMultiplier:1.4
SliderTickRate:1

[Events]
//Background and Video events
//Break Periods
//Storyboard Layer 0 (Background)
//Storyboard Layer 1 (Fail)
//Storyboard Layer 2 (Pass)
//Storyboard Layer 3 (Foreground)
//Storyboard Layer 4 (Overlay)
//Storyboard Sound Samples

[TimingPoints]
2799.30434782609,652.173913043478,4,1,0,100,1,0

[HitObjects]
143,98,10462,5,0,0:0:0:0:
276,144,10788,1,0,0:0:0:0:
108,295,11114,1,0,0:0:0:0:
207,90,11440,1,0,0:0:0:0:
241,281,11766,1,0,0:0:0:0:
92,158,12092,1,0,0:0:0:0:
286,89,12418,1,0,0:0:0:0:
345,189,12744,1,0,0:0:0:0:
345,189,13071,1,0,0:0:0:0:
186,247,13397,1,0,0:0:0:0:
90,144,13723,1,0,0:0:0:0:
194,138,14049,1,0,0:0:0:0:
91,252,14375,1,0,0:0:0:0:
90,144,14701,1,0,0:0:0:0:
188,246,15027,1,0,0:0:0:0:
179,136,15353,1,0,0:0:0:0:
96,228,15679,1,0,0:0:0:0:
96,148,16005,1,0,0:0:0:0:
192,227,16331,1,0,0:0:0:0:
190,134,16494,1,0,0:0:0:0:
105,233,16821,1,0,0:0:0:0:
94,142,17147,1,0,0:0:0:0:
194,222,17473,1,0,0:0:0:0:
117,183,18777,2,0,B|262:189|259:188,3,140
141,136,21386,1,0,0:0:0:0:
166,247,21712,1,0,0:0:0:0:
236,134,22038,1,0,0:0:0:0:
279,257,22364,1,0,0:0:0:0:
358,142,22690,1,0,0:0:0:0:
442,216,23016,1,0,0:0:0:0:
316,273,23342,1,0,0:0:0:0:
347,141,23831,1,0,0:0:0:0:
277,240,23994,1,0,0:0:0:0:
168,140,24321,1,0,0:0:0:0:
235,92,24484,1,0,0:0:0:0:
257,207,24647,1,0,0:0:0:0:
141,268,25136,1,0,0:0:0:0:
141,268,25299,1,0,0:0:0:0:
141,268,25462,1,0,0:0:0:0:
244,197,25625,1,0,0:0:0:0:
312,273,25788,1,0,0:0:0:0:
395,187,25951,1,0,0:0:0:0:
105,219,26440,1,0,0:0:0:0:
105,219,26603,1,0,0:0:0:0:
105,219,26766,1,0,0:0:0:0:
200,178,26929,1,0,0:0:0:0:
222,237,27092,1,0,0:0:0:0:
296,158,27255,1,0,0:0:0:0:
308,242,27744,1,0,0:0:0:0:
308,242,27907,1,0,0:0:0:0:
308,242,28071,1,0,0:0:0:0:
154,184,28397,1,0,0:0:0:0:
212,129,28560,1,0,0:0:0:0:
251,226,28886,1,0,0:0:0:0:
313,162,29049,1,0,0:0:0:0:
338,263,29375,1,0,0:0:0:0:
408,174,29538,1,0,0:0:0:0:
181,175,30190,1,0,0:0:0:0:
257,172,30353,1,0,0:0:0:0:
269,232,30679,1,0,0:0:0:0:
189,241,30842,1,0,0:0:0:0:
226,197,31005,1,0,0:0:0:0:
119,88,31657,1,0,0:0:0:0:
221,65,31984,1,0,0:0:0:0:
243,198,32310,1,0,0:0:0:0:
420,189,32799,1,0,0:0:0:0:
393,286,33125,1,0,0:0:0:0:
273,314,33451,1,0,0:0:0:0:
191,217,33777,1,0,0:0:0:0:
234,110,34103,1,0,0:0:0:0:
312,76,34429,1,0,0:0:0:0:
318,223,34755,1,0,0:0:0:0:
112,177,35407,1,0,0:0:0:0:
112,177,35571,1,0,0:0:0:0:
112,177,35734,1,0,0:0:0:0:
112,177,35897,1,0,0:0:0:0:
201,88,36223,1,0,0:0:0:0:
246,285,36712,1,0,0:0:0:0:
134,193,38016,1,0,0:0:0:0:
185,145,38179,1,0,0:0:0:0:
252,98,38342,1,0,0:0:0:0:
321,80,38505,1,0,0:0:0:0:
297,264,38831,1,0,0:0:0:0:
165,202,39157,1,0,0:0:0:0:
219,146,39321,1,0,0:0:0:0:
375,137,39647,1,0,0:0:0:0:
364,272,39973,1,0,0:0:0:0:
303,144,40299,1,0,0:0:0:0:
421,229,40625,1,0,0:0:0:0:
272,203,40788,1,0,0:0:0:0:
134,73,41440,1,0,0:0:0:0:
143,197,41766,1,0,0:0:0:0:
256,81,42092,1,0,0:0:0:0:
390,117,42418,1,0,0:0:0:0:
252,271,42744,1,0,0:0:0:0:
73,68,43071,1,0,0:0:0:0:
74,226,43397,1,0,0:0:0:0:
146,73,43723,1,0,0:0:0:0:
194,178,44049,1,0,0:0:0:0:
233,70,44375,1,0,0:0:0:0:
246,171,44701,1,0,0:0:0:0:
288,184,45027,1,0,0:0:0:0:
371,120,45353,1,0,0:0:0:0:
179,156,45842,1,0,0:0:0:0:
252,73,46005,1,0,0:0:0:0:
324,118,46168,1,0,0:0:0:0:
303,122,46331,1,0,0:0:0:0:
47,147,46494,1,0,0:0:0:0:
192,182,46984,1,0,0:0:0:0:
230,203,47147,1,0,0:0:0:0:
292,104,47310,1,0,0:0:0:0:
288,224,47473,1,0,0:0:0:0:
193,158,47636,1,0,0:0:0:0:
85,148,47799,1,0,0:0:0:0:
189,209,48288,1,0,0:0:0:0:
126,266,48451,1,0,0:0:0:0:
305,141,48614,1,0,0:0:0:0:
236,220,48940,1,0,0:0:0:0:
128,121,49103,1,0,0:0:0:0:
121,186,49266,1,0,0:0:0:0:
166,100,49429,1,0,0:0:0:0:
182,194,49592,1,0,0:0:0:0:
231,97,49918,1,0,0:0:0:0:
321,107,50244,1,0,0:0:0:0:
231,239,50897,1,0,0:0:0:0:
170,197,51060,1,0,0:0:0:0:
143,273,51223,1,0,0:0:0:0:
210,204,51386,1,0,0:0:0:0:
289,200,51549,1,0,0:0:0:0:
68,131,52364,1,0,0:0:0:0:
182,109,52690,1,0,0:0:0:0:
166,217,53016,1,0,0:0:0:0:
271,122,53342,1,0,0:0:0:0:
278,247,53505,1,0,0:0:0:0:
115,107,53831,1,0,0:0:0:0:
101,273,54157,1,0,0:0:0:0:
226,151,54484,1,0,0:0:0:0:
226,151,54810,1,0,0:0:0:0:
226,151,55136,1,0,0:0:0:0:
226,151,55462,1,0,0:0:0:0:
257,231,56114,1,0,0:0:0:0:
166,231,56277,1,0,0:0:0:0:
239,177,56440,1,0,0:0:0:0:
115,271,56603,1,0,0:0:0:0:
86,171,56929,1,0,0:0:0:0:
142,202,57418,1,0,0:0:0:0:
239,218,57907,1,0,0:0:0:0:
103,220,58071,1,0,0:0:0:0:
230,173,58723,1,0,0:0:0:0:
322,183,59212,1,0,0:0:0:0:
183,273,59538,1,0,0:0:0:0:
144,195,59864,1,0,0:0:0:0:
188,255,60027,1,0,0:0:0:0:
132,181,60353,1,0,0:0:0:0:
79,75,60679,1,0,0:0:0:0:
188,255,60842,1,0,0:0:0:0:
25,25,61168,1,0,0:0:0:0:
215,317,61494,1,0,0:0:0:0:
145,57,61984,1,0,0:0:0:0:
15,259,62310,1,0,0:0:0:0:
215,92,62636,1,0,0:0:0:0:
231,190,62962,1,0,0:0:0:0:
97,133,63288,1,0,0:0:0:0:
174,117,63614,1,0,0:0:0:0:
116,104,63940,1,0,0:0:0:0:
152,189,64266,1,0,0:0:0:0:
384,61,64592,1,0,0:0:0:0:
357,196,64918,1,0,0:0:0:0:
270,92,65244,1,0,0:0:0:0:
207,230,65571,1,0,0:0:0:0:
220,227,66223,1,0,0:0:0:0:
430,187,66549,1,0,0:0:0:0:
324,289,66875,1,0,0:0:0:0:
129,199,67201,1,0,0:0:0:0:
261,151,67853,1,0,0:0:0:0:
183,316,68179,1,0,0:0:0:0:
74,196,68831,1,0,0:0:0:0:
161,109,69157,2,0,L|369:173,1,210
115,147,70299,2,0,L|300:169,1,175
142,200,71603,2,0,L|335:207,1,175
152,80,73071,1,0,0:0:0:0:
134,160,73234,1,0,0:0:0:0:
306,113,73397,1,0,0:0:0:0:
243,289,73560,1,0,0:0:0:0:
124,145,73723,1,0,0:0:0:0:
287,126,73886,1,0,0:0:0:0:
167,236,74049,1,0,0:0:0:0:
207,193,74212,1,0,0:0:0:0:
262,230,74375,1,0,0:0:0:0:
99,198,74701,1,0,0:0:0:0:
149,96,75190,1,0,0:0:0:0:
152,171,75516,1,0,0:0:0:0:
234,130,75842,1,0,0:0:0:0:
315,197,76168,1,0,0:0:0:0:
70,237,76657,1,0,0:0:0:0:
70,237,76821,1,0,0:0:0:0:
70,237,76984,1,0,0:0:0:0:
70,237,77147,1,0,0:0:0:0:
235,189,77473,1,0,0:0:0:0:
93,277,78125,1,0,0:0:0:0:
93,277,78451,1,0,0:0:0:0:
93,277,78614,1,0,0:0:0:0:
365,154,78777,1,0,0:0:0:0:
137,284,79429,1,0,0:0:0:0:
137,284,79592,1,0,0:0:0:0:
137,284,79918,1,0,0:0:0:0:
154,222,80081,1,0,0:0:0:0:
178,221,80407,1,0,0:0:0:0:
178,221,80571,1,0,0:0:0:0:
268,216,80897,1,0,0:0:0:0:
162,175,81223,1,0,0:0:0:0:
115,274,81549,1,0,0:0:0:0:
97,134,81875,1,0,0:0:0:0:
97,134,82201,1,0,0:0:0:0:
227,166,82690,1,0,0:0:0:0:
121,206,83342,1,0,0:0:0:0:
371,171,83668,1,0,0:0:0:0:
148,268,84321,1,0,0:0:0:0:
257,198,84810,1,0,0:0:0:0:
286,313,85136,1,0,0:0:0:0:
0,208,85299,1,0,0:0:0:0:
126,137,85625,1,0,0:0:0:0:
138,244,85788,1,0,0:0:0:0:
200,129,86114,1,0,0:0:0:0:
225,231,86277,1,0,0:0:0:0:
339,120,86440,1,0,0:0:0:0:
140,73,86603,1,0,0:0:0:0:
46,138,86766,1,0,0:0:0:0:
202,146,87092,1,0,0:0:0:0:
341,79,87255,1,0,0:0:0:0:
190,176,87418,1,0,0:0:0:0:
145,94,87581,1,0,0:0:0:0:
222,214,87744,1,0,0:0:0:0:
243,106,88234,1,0,0:0:0:0:
290,166,88397,1,0,0:0:0:0:
188,164,88723,1,0,0:0:0:0:
155,244,89049,1,0,0:0:0:0:
121,115,89538,1,0,0:0:0:0:
114,206,89701,1,0,0:0:0:0:
256,98,89864,1,0,0:0:0:0:
247,245,90027,1,0,0:0:0:0:
184,135,90516,1,0,0:0:0:0:
253,131,90679,1,0,0:0:0:0:
253,131,90842,1,0,0:0:0:0:
323,119,91331,1,0,0:0:0:0:
305,123,91494,1,0,0:0:0:0:
254,144,91984,1,0,0:0:0:0:
263,118,92310,1,0,0:0:0:0:
261,144,92473,1,0,0:0:0:0:
163,149,92799,1,0,0:0:0:0:
163,149,93451,2,0,L|296:157,1,105
207,165,94592,2,0,P|313:103|314:102,1,105
291,119,95897,2,0,B|379:199|374:194,1,105
375,192,97201,2,0,L|284:258,1,105
154,134,98505,2,0,L|257:182,1,105
6,8,99810,2,0,L|97:76,1,105
511,383,101114,2,0,L|427:320,1,105
511,1,102418,2,0,L|419:86,1,105
2,382,103723,2,0,L|91:318,1,105
